<?xml version="1.0" standalone="no"?>
<!DOCTYPE svg PUBLIC "-//W3C//DTD SVG 1.1//EN" "http://www.w3.org/Graphics/SVG/1.1/DTD/svg11.dtd" >
<svg xmlns="http://www.w3.org/2000/svg">
<metadata></metadata>
<defs>
<font id="AUdimatRegular" horiz-adv-x="968" >
<font-face units-per-em="2048" ascent="1554" descent="-494" />
<missing-glyph horiz-adv-x="614" />
<glyph horiz-adv-x="0" />
<glyph horiz-adv-x="2048" />
<glyph unicode="&#xd;" horiz-adv-x="0" />
<glyph unicode=" "  horiz-adv-x="614" />
<glyph unicode="&#x09;" horiz-adv-x="614" />
<glyph unicode="&#xa0;" horiz-adv-x="614" />
<glyph unicode="!" horiz-adv-x="487" d="M141 1223v174h205v-174q-10 -132 -32.5 -387t-32.5 -387h-76q-10 132 -32 390.5t-32 383.5zM143 2v197h199v-197h-199z" />
<glyph unicode="&#x22;" horiz-adv-x="624" d="M86 1161v236h141v-236l-53 -315h-33zM397 1161v236h142v-236l-56 -315h-32z" />
<glyph unicode="#" horiz-adv-x="1292" d="M117 338v160h196l54 401h-140v160h162q25 207 45 338h160l-43 -338h287q4 34 45 338h159l-43 -338h177v-160h-197l-53 -401h137v-160h-160q-25 -207 -45 -338h-160l43 338h-286q-4 -34 -45 -338h-160l43 338h-176zM475 498h287l55 401h-287z" />
<glyph unicode="$" horiz-adv-x="1007" d="M86 1008q0 45 12.5 92t41 95.5t70 88.5t105.5 70t142 41v114h94v-112h258v-160h-258v-461q78 -11 142 -41t105.5 -70t70 -88.5t41 -95.5t12.5 -92q0 -57 -21 -116.5t-62.5 -117t-116.5 -100t-171 -55.5v-113h-94v113h-256v160h256v458q-78 11 -142 41.5t-105.5 70.5 t-70 89.5t-41 96.5t-12.5 92zM248 1008q0 -18 3 -37t16 -49.5t34 -56t61.5 -50.5t94.5 -39v461q-54 -13 -94.5 -37.5t-61.5 -50t-34 -55.5t-16 -49t-3 -37zM551 158q53 14 93.5 39t61.5 50.5t34 55t16.5 48.5t3.5 36t-3.5 37t-16.5 50t-34 55.5t-61.5 50.5t-93.5 38v-460z " />
<glyph unicode="%" horiz-adv-x="1861" d="M86 1036q0 149 105.5 255t254.5 106q150 0 255.5 -105.5t105.5 -255.5q0 -152 -105 -257t-256 -105q-150 0 -255 105t-105 257zM223 1036q0 -92 65.5 -157.5t157.5 -65.5q93 0 159.5 65.5t66.5 157.5q0 91 -67 156t-159 65t-157.5 -65t-65.5 -156zM440 0l836 1397h123 l-836 -1397h-123zM1053 362q0 150 105 255.5t255 105.5q149 0 256 -106t107 -255q0 -151 -106.5 -256.5t-256.5 -105.5q-151 0 -255.5 105t-104.5 257zM1190 362q0 -92 66 -157.5t157 -65.5q92 0 157.5 65.5t65.5 157.5q0 91 -65.5 156.5t-157.5 65.5q-91 0 -157 -65.5 t-66 -156.5z" />
<glyph unicode="&#x26;" horiz-adv-x="1189" d="M117 389q0 180 153 309q-153 129 -153 310q0 82 27.5 149.5t71 111t100 73.5t111.5 42.5t108 12.5h305v-160h-305q-15 -1 -28 -2t-41 -6.5t-50.5 -14.5t-50 -26.5t-46 -40.5t-31 -59t-12.5 -80q0 -51 16 -91t42.5 -63.5t55 -40t60.5 -23.5t51 -9.5t34 -2.5h641v-160h-226 v-618h-415q-53 0 -108 12.5t-111.5 42t-100 73t-71 111.5t-27.5 150zM276 389q0 -60 23.5 -105t55 -68t72 -36.5t65 -16.5t43.5 -3h256v458h-256q-19 0 -43 -3t-65 -16.5t-72.5 -36t-55 -67.5t-23.5 -106z" />
<glyph unicode="'" horiz-adv-x="311" d="M86 1161v236h139v-236q-8 -41 -25 -150.5t-28 -164.5h-33q-13 60 -29 165.5t-24 149.5z" />
<glyph unicode="(" horiz-adv-x="589" d="M117 530q0 236 68.5 462t162.5 405h187q-259 -439 -259 -867q0 -429 259 -868h-187q-59 111 -106.5 233.5t-86 297t-38.5 337.5z" />
<glyph unicode=")" horiz-adv-x="589" d="M55 -338h187q59 111 106.5 233.5t86 297t38.5 337.5q0 236 -68.5 462t-162.5 405h-187q43 -72 80.5 -151t81.5 -193.5t70 -251t26 -271.5q0 -431 -258 -868z" />
<glyph unicode="*" horiz-adv-x="780" d="M86 1151q6 27 27 74l231 -70q1 33 5 118t5 122q38 5 76 0l6 -238l234 68q15 -35 24 -72l-229 -82q114 -173 143 -215q-39 -35 -57 -43l-160 205q-72 -96 -160 -205q-35 17 -61 43l149 215q-37 14 -121 42t-112 38z" />
<glyph unicode="+" horiz-adv-x="1007" d="M86 449v161h336v338h162v-338h338v-161h-338v-336h-162v336h-336z" />
<glyph unicode="," horiz-adv-x="370" d="M86 0v197h199v-207q0 -63 -17.5 -113.5t-45 -80t-47.5 -44t-38 -22.5q-7 12 -23.5 31.5t-23.5 31.5q38 15 62 41.5t30 54.5t7 53.5t-3 41.5l-4 16h-96z" />
<glyph unicode="-" horiz-adv-x="780" d="M86 449v161h608v-161h-608z" />
<glyph unicode="." horiz-adv-x="368" d="M86 2v197h197v-197h-197z" />
<glyph unicode="/" horiz-adv-x="624" d="M76 -225l336 1622h137q-54 -265 -167 -801t-171 -821h-135z" />
<glyph unicode="0" horiz-adv-x="997" d="M137 305v787q0 62 17 112.5t43.5 81.5t59.5 54t65.5 33.5t59 16.5t43.5 6l17 1h113q62 0 112.5 -17t81.5 -43.5t54 -59.5t33.5 -65.5t16.5 -59t7 -43.5v-17v-787q0 -62 -17 -112.5t-43.5 -81.5t-59 -54t-65.5 -33.5t-59.5 -16.5t-43.5 -7h-17h-113q-62 0 -112.5 17 t-81.5 43.5t-54 59.5t-33.5 65.5t-16.5 59t-6 43.5zM299 305q0 -41 14.5 -70.5t35.5 -43.5t42.5 -21.5t36.5 -8.5l14 -1h113q40 0 69.5 15t43 36t21 42.5t8.5 36.5l1 15v787q0 41 -14.5 70.5t-36 43.5t-42.5 21.5t-35 8.5l-15 1h-113q-40 0 -69.5 -15t-43 -36.5t-21 -42.5 t-8.5 -36l-1 -15v-787z" />
<glyph unicode="1" horiz-adv-x="718" d="M76 0v160h223v1077h-223v160h385v-1237h223v-160h-608z" />
<glyph unicode="2" horiz-adv-x="882" d="M76 1122q0 46 19 93.5t54.5 88.5t95.5 67t134 26h113q39 0 79 -10t81 -33t73 -57t52 -87t20 -118q0 -84 -27 -181.5t-71 -185t-96.5 -174t-105 -155.5t-96.5 -123t-71 -83l-27 -30h494v-160h-678v160q11 12 29.5 33.5t72 87.5t102.5 132.5t108.5 159.5t102 176.5t72 176 t29.5 166.5q0 78 -41.5 110.5t-99.5 34.5h-115q-126 0 -141 -117q-31 0 -82.5 1t-79.5 1z" />
<glyph unicode="3" horiz-adv-x="935" d="M76 274q0 -29 6 -60t26 -71t51.5 -70t89 -51.5t132.5 -21.5h111q6 0 17.5 0.5t43 6.5t60.5 16.5t64.5 33.5t61 54t43 81.5t17.5 112.5v113q0 54 -8.5 94.5t-31 75t-39.5 53t-54 55.5q73 79 103 140.5t30 144.5v111q0 62 -17 112.5t-44 81.5t-59.5 54t-65.5 33.5t-60 16.5 t-44 6l-17 1h-111q-62 0 -112.5 -15t-81.5 -39t-54 -53.5t-33.5 -58.5t-16.5 -53t-7 -39v-15h162q0 32 14.5 55.5t35.5 34t42.5 16.5t35.5 6l15 1h111q41 0 70.5 -15t43.5 -36.5t21.5 -42.5t8.5 -36l1 -15v-115q0 -21 -3 -41.5t-15 -51t-32.5 -52.5t-59.5 -38t-91 -16h-22 v-160h32q20 -1 31.5 -1.5t34.5 -5t37.5 -11.5t33 -22t29 -35.5t18 -52.5t7.5 -72v-113q0 -6 -1 -15.5t-8.5 -34.5t-21.5 -44.5t-43.5 -35t-70.5 -15.5h-111h-8t-20 2.5t-28.5 6t-30 12t-28.5 20.5t-20 31t-8 42h-162z" />
<glyph unicode="4" horiz-adv-x="858" d="M55 338v190q45 140 141.5 434.5t141.5 434.5h180l-315 -899h327v225h162v-225h111v-160h-111v-338h-162v338h-475z" />
<glyph unicode="5" horiz-adv-x="948" d="M137 674v723h656v-160h-494v-403h256q63 0 113.5 -17t81.5 -43.5t54.5 -59t34 -65t16.5 -59t7 -43.5v-17v-225q0 -62 -17 -112.5t-44 -81.5t-59.5 -54t-65.5 -33.5t-60 -16.5t-44 -7h-17h-111q-85 0 -148 28t-93 68.5t-45.5 81t-18.5 68.5t0 28h162q0 -32 14.5 -55.5 t35.5 -34.5t42.5 -17t36.5 -7h14h111q41 0 70.5 15t43.5 36t21.5 42.5t8.5 36.5l1 15v225q0 6 -1 15.5t-8.5 34.5t-21.5 44t-43.5 34.5t-70.5 15.5h-418z" />
<glyph unicode="6" horiz-adv-x="946" d="M137 305v787q0 38 10 78t33 81.5t57 73.5t87 52t118 20h373v-160h-373q-79 0 -111 -42t-32 -103v-258h256q64 0 117 -20t87 -51.5t57.5 -72.5t33.5 -81t10 -79v-225q0 -79 -30 -141t-77 -96t-98 -51t-100 -17h-113q-65 0 -118 20t-87 52t-57 73t-33 81t-10 79zM299 305 q0 -61 32 -103t111 -42h113q143 4 143 145v225q-5 144 -143 144h-256v-369z" />
<glyph unicode="7" horiz-adv-x="790" d="M35 1237v160h721v-170l-350 -1227h-160l358 1237h-569z" />
<glyph unicode="8" horiz-adv-x="999" d="M137 305v158q0 151 127 254q-36 32 -62 71t-38 72t-18.5 61t-7.5 44l-1 16v111q0 62 17 112.5t44 81.5t59.5 54t65.5 33.5t60 16.5t44 6l17 1h111q63 0 113.5 -17t81.5 -43.5t54.5 -59.5t34 -65.5t16.5 -59t7 -43.5v-17v-111q0 -156 -129 -258q36 -32 62.5 -70t39 -70.5 t19 -60t7.5 -43.5l1 -16v-158q0 -62 -17 -112.5t-44 -81.5t-59.5 -54t-65.5 -33.5t-60 -16.5t-44 -7h-17h-111q-63 0 -113.5 17t-81.5 43.5t-54.5 59.5t-34 65.5t-16.5 59t-6 43.5zM299 305q0 -41 15 -70.5t36.5 -43.5t42.5 -21.5t36 -8.5l15 -1h111q41 0 70.5 15t43.5 36 t21.5 42.5t8.5 36.5l1 15v203q0 41 -15 70.5t-36 43.5t-42.5 21.5t-36.5 8.5l-15 1h-111q-41 0 -70.5 -15t-43.5 -36t-21.5 -42.5t-8.5 -36.5l-1 -15v-203zM299 936q0 -41 15 -70.5t36.5 -43.5t42.5 -21.5t36 -8.5l15 -1h111q41 0 70.5 15t43.5 36t21.5 42.5t8.5 36.5l1 15 v156q0 41 -15 70.5t-36 43.5t-42.5 21.5t-36.5 8.5l-15 1h-111q-41 0 -70.5 -15t-43.5 -36.5t-21.5 -42.5t-8.5 -36l-1 -15v-156z" />
<glyph unicode="9" horiz-adv-x="948" d="M86 866v226q0 80 30 142t77.5 96t98.5 50.5t101 16.5h111q80 0 142 -30t96.5 -77.5t51.5 -98t17 -99.5v-787q0 -49 -17 -100t-51.5 -98t-96.5 -77t-142 -30h-373v160h373q141 0 145 145v258h-256q-80 0 -142 30t-96.5 77t-51.5 97t-17 99zM248 868q4 -145 145 -145h256 v369q-4 145 -145 145h-111q-62 -2 -103.5 -34.5t-41.5 -110.5v-224z" />
<glyph unicode=":" horiz-adv-x="370" d="M86 2v197h199v-197h-199zM86 764v199h199v-199h-199z" />
<glyph unicode=";" horiz-adv-x="360" d="M86 0v197h199v-207q0 -63 -17.5 -113.5t-45 -80t-47.5 -44t-38 -22.5q-7 12 -23.5 31.5t-23.5 31.5q38 15 62 41.5t30 54.5t7 53.5t-3 41.5l-4 16h-96zM86 764v199h199v-199h-199z" />
<glyph unicode="&#x3c;" horiz-adv-x="876" d="M55 459v143q709 404 766 436v-196l-596 -312q509 -266 596 -311v-199z" />
<glyph unicode="=" horiz-adv-x="1007" d="M86 225v160h836v-160h-836zM86 674v160h836v-160h-836z" />
<glyph unicode="&#x3e;" horiz-adv-x="876" d="M55 20l766 441v141q-100 57 -357 204t-409 232v-196q108 -56 337.5 -176.5t258.5 -135.5l-596 -311v-199z" />
<glyph unicode="?" horiz-adv-x="894" d="M86 1124q4 59 26 107t53 78t71 50.5t78.5 29t76.5 8.5h113q39 0 79 -10t81 -33t73 -57t52 -87t20 -118q0 -47 -12.5 -90t-40 -85.5t-50 -70.5t-61.5 -72q-14 -17 -47.5 -55.5t-52 -62t-41.5 -59t-35 -72t-14 -76.5h-99q3 136 47.5 237t120.5 191q46 55 67 82.5t38.5 64 t17.5 68.5q0 78 -41.5 110.5t-99.5 34.5h-113q-50 -2 -91 -29.5t-52 -83.5h-164zM313 2v197h199v-197h-199z" />
<glyph unicode="@" horiz-adv-x="1312" d="M117 305q0 127 89.5 216t215.5 89h305v-305q0 -59 42.5 -102t102.5 -43q58 0 101 43t43 102v451q0 40 -15 69.5t-36 43t-42 21t-36 8.5l-15 1h-755v160h755q62 0 112 -16.5t81 -43.5t53.5 -59t33 -64.5t17 -59.5t7.5 -44v-16v-451q0 -126 -89 -215.5t-215 -89.5 q-199 0 -264 147q-10 -46 -61.5 -96.5t-124.5 -50.5q-126 0 -215.5 89.5t-89.5 215.5zM276 305q0 -58 43.5 -101.5t102.5 -43.5t101 43t42 102v144h-143q-59 0 -102.5 -42.5t-43.5 -101.5z" />
<glyph unicode="A" horiz-adv-x="944" d="M-6 0l371 1397h213l372 -1397h-162l-61 225h-512l-59 -225h-162zM260 385h422l-195 840h-32z" />
<glyph unicode="B" horiz-adv-x="1089" d="M158 0v1397h407q159 0 271 -112t112 -273q0 -49 -15.5 -93.5t-46 -83t-47 -55.5t-44.5 -43q32 -19 61.5 -44t63 -66.5t53.5 -101.5t20 -130q0 -164 -115.5 -279.5t-279.5 -115.5h-440zM319 160h279q97 0 165 69t68 166t-68 165.5t-165 68.5h-279v-469zM319 791h246 q91 0 156 65t65 156q0 93 -65 159t-156 66h-246v-446z" />
<glyph unicode="C" horiz-adv-x="1038" d="M117 418q0 -9 1 -24t9 -58.5t22.5 -83t46 -87.5t73.5 -82.5t111.5 -58.5t154.5 -24t153.5 21t111 55t73.5 75t45 82.5t22 75.5t9 55l1 21h-162q0 -5 -0.5 -13t-5.5 -31.5t-13.5 -44.5t-27.5 -47t-44.5 -44.5t-67.5 -31.5t-94 -13t-94.5 14t-68.5 37t-45 50.5t-28 55 t-14 50.5t-5 37l-1 14v563q0 5 0.5 14.5t5.5 36t14 50.5t28 53.5t45 51t68.5 36t94.5 14.5t94 -12.5t67.5 -32.5t44.5 -44t27.5 -47.5t13.5 -43.5t6 -33v-12h162q1 0 1 8q1 10 -1 32q-4 40 -25.5 96t-61.5 113t-125.5 96.5t-202.5 39.5q-85 0 -154.5 -23t-111.5 -59.5 t-73.5 -81t-46 -89t-22.5 -81t-9 -59.5l-1 -23v-563z" />
<glyph unicode="D" horiz-adv-x="1110" d="M158 0v1397h417q9 0 24 -1t58.5 -9t83 -22.5t87.5 -45.5t82.5 -73t58.5 -111t24 -154v-563q0 -9 -1 -24t-9 -58.5t-22.5 -83t-46 -87.5t-73.5 -82.5t-111.5 -58.5t-154.5 -24h-417zM319 160h256q52 0 94.5 14t68.5 37t45 50.5t28 55t14 50.5t5 37l1 14v563q0 52 -14 94.5 t-36.5 68.5t-50 45t-55 28t-50 14t-36.5 5l-14 1h-256v-1077z" />
<glyph unicode="E" d="M158 0v1397h725v-160h-564v-403h449v-160h-449v-514h564v-160h-725z" />
<glyph unicode="F" horiz-adv-x="841" d="M158 0v1397h608v-160h-449v-514h449v-160h-449v-563h-159z" />
<glyph unicode="G" horiz-adv-x="1089" d="M117 418q0 -9 1 -24t9 -58.5t22.5 -83t46 -87.5t73.5 -82.5t111.5 -58.5t154.5 -24q40 0 75.5 15.5t56.5 33t42 48t27.5 43.5t17.5 36l135 -176h63v723h-385v-160h224v-145q0 -108 -68.5 -183t-187.5 -75q-52 0 -94.5 14t-68.5 37t-45 50.5t-28 55t-14 50.5t-5 37l-1 14 v563q0 5 0.5 14.5t5.5 36t14 50.5t28 53.5t45 51t68.5 36t94.5 14.5t94 -12.5t67.5 -32.5t44.5 -44t27.5 -47.5t13.5 -43.5t6 -33v-12h162q0 32 -7.5 72t-34 98t-69 103.5t-122 78.5t-182.5 33q-85 0 -154.5 -23t-111.5 -59.5t-73.5 -81t-46 -89t-22.5 -81t-9 -59.5l-1 -23 v-563z" />
<glyph unicode="H" horiz-adv-x="1150" d="M158 0v1397h161v-563h512v563h162v-1397h-162v674h-512v-674h-161z" />
<glyph unicode="I" horiz-adv-x="477" d="M158 0h161v1397h-161v-1397z" />
<glyph unicode="J" horiz-adv-x="757" d="M14 274h160q12 -48 52 -81t89 -33q60 0 103 43t43 102v1092h160v-1092q0 -126 -90 -215.5t-216 -89.5q-117 0 -203 79.5t-98 194.5z" />
<glyph unicode="K" horiz-adv-x="1087" d="M158 0v1397h161v-725q459 658 506 725h197l-360 -518l411 -879h-186l-348 748l-220 -275v-473h-161z" />
<glyph unicode="L" horiz-adv-x="786" d="M158 0h635v160h-474v1237h-161v-1397z" />
<glyph unicode="M" horiz-adv-x="1374" d="M158 0v1397h174l356 -592q21 34 354 592h175v-1397h-160v1118q-340 -588 -369 -639l-371 639v-1118h-159z" />
<glyph unicode="N" horiz-adv-x="1150" d="M158 0v1397h172l501 -1053v1053h162v-1397h-172l-502 1067v-1067h-161z" />
<glyph unicode="O" horiz-adv-x="1069" d="M117 418v563q0 9 1 24t9 58t22.5 82.5t46 87.5t73.5 82.5t111.5 58t154.5 23.5t154.5 -23t111.5 -59.5t73.5 -81t45.5 -89t22 -81t9 -59.5l1 -23v-563q0 -9 -1 -24t-9 -58.5t-22 -83t-45.5 -87.5t-73.5 -82.5t-111.5 -58.5t-154.5 -24q-67 0 -124 14.5t-97 38.5t-73 55.5 t-52.5 66t-34.5 69t-21.5 66t-10.5 55.5t-4 39zM279 418q0 -5 0.5 -14.5t5.5 -36.5t14 -51t28 -54t45 -51.5t68.5 -36t94.5 -14.5t94.5 14t68.5 37t45 50.5t28 55t14 50.5t5 37l1 14v563q0 5 -0.5 14.5t-5.5 36t-14 50.5t-28 53.5t-45 51t-68.5 36t-94.5 14.5t-94.5 -14 t-68.5 -36.5t-45 -50t-28 -55t-14 -50t-5 -36.5l-1 -14v-563z" />
<glyph unicode="P" horiz-adv-x="1048" d="M158 0v1395h417q9 0 24 -1t58.5 -9t83 -22.5t87.5 -45.5t82.5 -73t58.5 -111t24 -154q0 -67 -14.5 -124t-38.5 -97t-55.5 -73t-66 -52.5t-69 -34.5t-66 -21.5t-55.5 -10.5t-38 -4l-15 -1h-256v-561h-161zM319 721h256q5 0 14.5 0.5t36 5.5t50.5 14t53.5 28.5t51 45.5 t36 68.5t14.5 95.5q0 52 -14 94.5t-36.5 68.5t-50 45t-55 28t-50 14t-36.5 5l-14 1h-256v-514z" />
<glyph unicode="Q" horiz-adv-x="1069" d="M117 418v563q0 9 1 24t9 58t22.5 82.5t46 87.5t73.5 82.5t111.5 58t154.5 23.5t154.5 -23t111.5 -59.5t73.5 -81t45.5 -89t22 -81t9 -59.5l1 -23v-563q0 -8 -1 -21t-8.5 -52.5t-20.5 -77.5t-41.5 -87.5t-67.5 -89.5q17 -26 57 -86l52 -78q-116 -77 -134 -88l-118 178 q-75 -16 -135 -16q-67 0 -124 14.5t-97 38.5t-73 55.5t-52.5 66t-34.5 69t-21.5 66t-10.5 55.5t-4 39zM279 418q0 -5 0.5 -14.5t5.5 -36.5t14 -51t28 -54t45 -51.5t68.5 -36t94.5 -14.5t94.5 14t68.5 37t45 50.5t28 55t14 50.5t5 37l1 14v563q0 5 -0.5 14.5t-5.5 36 t-14 50.5t-28 53.5t-45 51t-68.5 36t-94.5 14.5t-94.5 -14t-68.5 -36.5t-45 -50t-28 -55t-14 -50t-5 -36.5l-1 -14v-563z" />
<glyph unicode="R" horiz-adv-x="1069" d="M158 0v1395h417q9 0 24 -1t58.5 -9t83 -22.5t87.5 -45.5t82.5 -73t58.5 -111t24 -154q0 -77 -22.5 -142t-56.5 -107.5t-81.5 -76t-90 -52t-89.5 -30.5q48 -89 165.5 -298.5t152.5 -272.5h-185l-311 561h-156v-561h-161zM319 721l271 2q21 2 45 7t61 22t65 43t49 74 t21 110q0 52 -14 94.5t-36.5 68.5t-50 45t-55 28t-50 14t-36.5 5l-14 1h-256v-514z" />
<glyph unicode="S" horiz-adv-x="987" d="M76 1047q0 164 118.5 257t299.5 93h303v-160h-303q-5 0 -13.5 -0.5t-33 -4t-47 -10t-49.5 -21t-46.5 -33.5t-33 -50.5t-13.5 -70.5q0 -47 36 -94.5t93.5 -90t127 -86.5t139.5 -91.5t127.5 -97.5t93.5 -111.5t36 -125.5q0 -163 -118.5 -256.5t-298.5 -93.5h-306v158h306 q10 0 25.5 1.5t56 12t71.5 28.5t56 58q24 38 24 88q0 51 -36.5 98t-94 89t-126.5 86t-138.5 91t-126.5 97t-93 112t-36 128z" />
<glyph unicode="T" horiz-adv-x="823" d="M-6 1235v160h835v-160h-337v-1235h-162v1235h-336z" />
<glyph unicode="U" horiz-adv-x="1110" d="M137 418v977h162v-977q0 -5 0.5 -14.5t5.5 -36.5t14 -51t28 -54t45 -51.5t68.5 -36t94.5 -14.5t94.5 14t68.5 37t45 50.5t28 55t14 50.5t5 37l1 14v977h162v-977q0 -9 -1 -24t-9 -58.5t-22.5 -83t-46 -87.5t-73.5 -82.5t-111.5 -58.5t-154.5 -24q-67 0 -124 14.5 t-97 38.5t-73 55.5t-52.5 66t-34.5 69t-21.5 66t-10.5 55.5t-4 39z" />
<glyph unicode="V" horiz-adv-x="964" d="M-6 1395h168l321 -1090l322 1090h166l-430 -1395h-117z" />
<glyph unicode="W" horiz-adv-x="1310" d="M35 1395h160l174 -1153l211 704h157l215 -704l164 1153h160l-229 -1395h-183l-209 758l-211 -758h-182z" />
<glyph unicode="X" horiz-adv-x="1036" d="M55 0l336 700l-336 697h176l287 -592l285 592h178l-338 -697l336 -700h-176l-285 592l-287 -592h-176z" />
<glyph unicode="Y" horiz-adv-x="876" d="M-27 1397h181l284 -631l287 631h178l-383 -795v-602h-162v602z" />
<glyph unicode="Z" horiz-adv-x="987" d="M76 0v158l655 1077h-655v160h835v-160l-655 -1075h655v-160h-835z" />
<glyph unicode="[" horiz-adv-x="618" d="M178 -338v1735h385v-160h-225v-1415h225v-160h-385z" />
<glyph unicode="\" horiz-adv-x="624" d="M76 1397q45 -219 160 -768t178 -854h135q-56 274 -168.5 811t-169.5 811h-135z" />
<glyph unicode="]" horiz-adv-x="618" d="M55 -178v-160h385v1735h-385v-160h226v-1415h-226z" />
<glyph unicode="^" horiz-adv-x="1165" d="M86 289q72 111 199 298t182 271h231q59 -89 186 -278.5t195 -292.5q-127 -88 -129 -90l-368 551q-63 -97 -208 -313t-159 -238q-22 16 -62 45t-67 47z" />
<glyph unicode="_" horiz-adv-x="1200" d="M14 0v104h1172v-104h-1172z" />
<glyph unicode="`" horiz-adv-x="485" d="M86 1507h168q67 -128 145 -288h-120q-33 48 -96.5 144t-96.5 144z" />
<glyph unicode="a" d="M96 305q0 62 17 112.5t44 81.5t59.5 54t65.5 33.5t60 16.5t44 7h17h256v146q0 40 -15 69.5t-36 43t-42.5 21t-36.5 8.5l-15 1h-348v160h348q6 0 17.5 -0.5t43 -6.5t60.5 -16.5t64.5 -33.5t61 -53.5t43 -80.5t17.5 -112v-756h-67l-158 160q0 -45 -8.5 -78t-20.5 -48 t-24 -23.5t-21 -9.5l-8 -1h-111q-6 0 -17.5 0.5t-43 6.5t-60.5 16.5t-64.5 33.5t-61 54t-43 81.5t-17.5 112.5zM258 305q0 -41 15 -70.5t36 -43.5t42.5 -21.5t36.5 -8.5l15 -1h111q6 0 15.5 1t34.5 8.5t44.5 21.5t35 43.5t15.5 70.5v144h-256q-6 0 -15.5 -1t-34.5 -9 t-44.5 -21.5t-35 -43t-15.5 -69.5z" />
<glyph unicode="b" horiz-adv-x="1017" d="M158 0v1509h161v-450h256q6 0 17 -0.5t43 -6.5t61 -16.5t64 -33.5t60.5 -53.5t43 -80.5t17.5 -112v-451q0 -62 -17 -112.5t-44 -81.5t-59.5 -54t-65 -33.5t-59.5 -16.5t-44 -7h-17h-112q-22 0 -38.5 16.5t-24 40t-12 47t-4.5 40.5l-1 16l-160 -160h-65zM319 305 q0 -41 15 -70.5t36 -43.5t42 -21.5t36 -8.5l15 -1h112q40 0 69.5 15t43 36t21.5 42.5t9 36.5l1 15v451q0 40 -15 69.5t-36 43t-42 21t-36 8.5l-15 1h-256v-594z" />
<glyph unicode="c" horiz-adv-x="950" d="M137 305q0 -62 17 -112.5t44 -81.5t59.5 -54t65.5 -33.5t60 -16.5t44 -7h17h111q62 0 112.5 15t81.5 39.5t54 53.5t33.5 58t16.5 53.5t7 39.5v15h-162q0 -32 -14.5 -55.5t-36 -34.5t-42.5 -17t-35 -7h-15h-111q-41 0 -70.5 15t-43.5 36t-21.5 42.5t-8.5 36.5l-1 15v451 q0 40 15 69.5t36.5 43t42.5 21t36 8.5l15 1h111q39 0 68 -11.5t42 -28t21 -33.5t9 -28l1 -12h166q0 56 -16.5 101t-43.5 72.5t-60 48t-66 30t-60 15t-44 5.5l-17 1h-111q-63 0 -113.5 -16.5t-81.5 -43.5t-54.5 -59t-34 -64.5t-16.5 -59.5t-6 -44l-1 -16v-451z" />
<glyph unicode="d" horiz-adv-x="1017" d="M137 305v451q0 62 17 112t43.5 80.5t59.5 53.5t65.5 33.5t59 16.5t43.5 6l17 1h256v450h162v-1509h-65l-160 160q0 -7 -0.5 -17.5t-5 -38t-12 -48.5t-24 -38.5t-38.5 -17.5h-113q-6 0 -17 0.5t-43 6.5t-60.5 16.5t-64 33.5t-60.5 54t-42.5 81.5t-17.5 112.5zM299 305 q0 -6 1 -15.5t8.5 -34.5t21 -44.5t43 -35t69.5 -15.5h113q6 0 15.5 1t34 8.5t43.5 21.5t34.5 43.5t15.5 70.5v594h-256q-6 0 -15.5 -1t-34 -8.5t-43.5 -21t-34.5 -43t-15.5 -69.5v-451z" />
<glyph unicode="e" horiz-adv-x="958" d="M137 305v451q0 6 0.5 17t6.5 42.5t16.5 60t34 63.5t54.5 60.5t81.5 42.5t113.5 17h111q6 0 17.5 -0.5t43 -6.5t60.5 -16.5t64.5 -33.5t61 -53.5t43 -80.5t17.5 -112q0 -6 -0.5 -17.5t-6.5 -43t-16.5 -60.5t-34 -64.5t-54.5 -61t-81.5 -43t-113.5 -17.5h-256v-144 q0 -6 1 -15.5t8.5 -34.5t21.5 -44.5t43.5 -35t70.5 -15.5h418v-160h-418q-6 0 -17.5 0.5t-43 6.5t-60.5 16.5t-64.5 33.5t-61 54t-43 81.5t-17.5 112.5zM299 610h256q6 0 15.5 1t34.5 9t44.5 21.5t35 43.5t15.5 71q0 40 -15 69.5t-36 43t-42.5 21t-36.5 8.5l-15 1h-111 q-6 0 -15.5 -1t-34.5 -8.5t-44.5 -21t-35 -43t-15.5 -69.5v-146z" />
<glyph unicode="f" horiz-adv-x="598" d="M66 899v160h157q-114 107 -114 190q0 53 16.5 96t43.5 69.5t59 46t64.5 28.5t59.5 14t44 5l16 1h151v-161h-151q-40 0 -69.5 -15t-43 -36t-21.5 -42t-9 -36l-1 -15q0 -6 1 -15.5t7 -34.5t15.5 -44.5t30.5 -35t49 -15.5h192v-160h-223v-899h-162v899h-112z" />
<glyph unicode="g" horiz-adv-x="997" d="M86 -190q0 53 18 92t40 57t51.5 28.5t41.5 11.5t21 1l-11 3q-11 3 -25.5 8.5t-33.5 14.5t-36.5 26t-32.5 38.5t-24 54.5t-9 72q0 61 46.5 109.5t119.5 81.5q-98 101 -98 233v115q0 6 0.5 17t6.5 42.5t16.5 60t33.5 63.5t54 60.5t81.5 42.5t112.5 17h418v-105l-162 -55 q45 0 78.5 -14.5t49 -35.5t24 -42.5t9.5 -36.5l1 -14v-115q0 -6 -0.5 -17t-7 -42.5t-17 -60t-33.5 -63.5t-54.5 -60.5t-82 -42.5t-113.5 -17h-110q-80 0 -174 47q-62 -41 -62 -102q0 -34 12.5 -59.5t30.5 -37t36.5 -18.5t31.5 -8h12h293q6 0 17 -0.5t42.5 -6.5t60 -16.5 t63.5 -33.5t60.5 -54t42.5 -81.5t17 -112.5q0 -6 -0.5 -17t-6.5 -42.5t-16.5 -60.5t-33.5 -64t-53.5 -60t-80.5 -42.5t-112 -17.5h-272q-6 0 -16 0.5t-39 6t-56 14t-59 28t-55.5 46t-39.5 69t-16 95.5zM223 -145q0 -40 15 -69.5t36 -43t42 -21.5t36 -9l15 -1h272q6 0 15.5 1 t34 9t43.5 21.5t34.5 43t15.5 69.5q0 6 -1 15.5t-8.5 34.5t-21 44.5t-43 35t-69.5 15.5h-272q-11 0 -26 -2.5t-37 -12t-39 -24.5t-29.5 -42.5t-12.5 -63.5zM313 641q0 -6 1 -15.5t9 -34t21.5 -43.5t43.5 -34.5t71 -15.5h110q6 0 16 1t35 8.5t44 21t35 43t16 69.5v115 q0 6 -1 15.5t-9 34t-21.5 43.5t-43.5 34.5t-71 15.5h-110q-6 0 -16 -1t-35 -8.5t-44 -21t-35 -43t-16 -69.5v-115z" />
<glyph unicode="h" horiz-adv-x="1028" d="M158 0v1513h161v-454h256q6 0 17 -0.5t43 -6.5t61 -16.5t64 -33.5t60.5 -53.5t43 -80.5t17.5 -112v-756h-162v756q0 40 -15 69.5t-36 43t-42 21t-36 8.5l-15 1h-256v-899h-161z" />
<glyph unicode="i" horiz-adv-x="516" d="M66 0v160h112v899h162v-899h111v-160h-385zM178 1348v161h162v-161h-162z" />
<glyph unicode="j" horiz-adv-x="481" d="M51 -287q32 0 55 14.5t33.5 35.5t17 42t7.5 35v15v1200h160v-1200q0 -69 -21.5 -123t-51 -85t-70.5 -52.5t-70.5 -29t-59.5 -11.5v159zM164 1348v161h160v-161h-160z" />
<glyph unicode="k" horiz-adv-x="919" d="M158 0v1509h159v-964q262 344 388 514h202l-334 -443q64 -114 186 -325.5t167 -290.5h-187l-297 522l-125 -186v-336h-159z" />
<glyph unicode="l" horiz-adv-x="516" d="M66 0v160h112v1349h162v-1349h111v-160h-385z" />
<glyph unicode="m" horiz-adv-x="1363" d="M158 0v1059h65l160 -158q0 44 8 76.5t20 47.5t24 23.5t20 9.5l8 1q161 0 223 -141q4 6 11 15.5t30 33.5t48 43t62.5 34t75.5 15q62 0 112 -16.5t81 -43.5t53.5 -59t33 -64.5t17 -59.5t6.5 -44l1 -16v-756h-160v756q0 6 -1 15.5t-9 34t-21.5 43.5t-43 34.5t-69.5 15.5 q-41 0 -70.5 -14.5t-43.5 -35.5t-21.5 -42.5t-8.5 -36.5l-1 -14v-756h-162v756q0 40 -14.5 69.5t-36 43t-42.5 21t-35 8.5l-15 1q-30 0 -54 -8t-38.5 -20.5t-25.5 -27.5t-16 -30.5t-8 -28t-3 -20.5l-1 -8v-756h-159z" />
<glyph unicode="n" horiz-adv-x="1030" d="M158 0h161v754q0 6 1 15.5t9 34.5t21.5 44.5t43.5 35t71 15.5h110q6 0 16 -1t35 -8.5t44 -21.5t35 -43.5t16 -70.5v-754h162v760q0 62 -17 112t-44 80t-60 52.5t-66 32.5t-60 15.5t-44 5.5l-17 1h-110q-3 0 -8.5 -1t-20 -9.5t-25 -23.5t-19.5 -48t-9 -78l-158 160h-67 v-1059z" />
<glyph unicode="o" horiz-adv-x="997" d="M137 305v451q0 6 0.5 17t6.5 42.5t16.5 60t33.5 63.5t54 60.5t81.5 42.5t112.5 17h113q6 0 17 -0.5t43 -6.5t60.5 -16.5t64 -33.5t60.5 -53.5t42.5 -80.5t17.5 -112v-451q0 -6 -0.5 -17t-6.5 -43t-16.5 -60.5t-33.5 -64t-54 -60.5t-81.5 -42.5t-112.5 -17.5h-113 q-6 0 -17 0.5t-43 6.5t-60.5 16.5t-64 33.5t-60.5 54t-42.5 81.5t-17.5 112.5zM299 305q0 -6 1 -15.5t8.5 -34.5t21 -44.5t43 -35t69.5 -15.5h113q6 0 15.5 1t34 8.5t43.5 21.5t34.5 43.5t15.5 70.5v451q0 6 -1 15.5t-8.5 34t-21 43.5t-43 34.5t-69.5 15.5h-113 q-6 0 -15.5 -1t-34 -8.5t-43.5 -21t-34.5 -43t-15.5 -69.5v-451z" />
<glyph unicode="p" horiz-adv-x="1019" d="M158 -449v1508h67l158 -158q0 6 0.5 17t5 38t12 48t24.5 38t40 17h110q6 0 17.5 -0.5t43.5 -6.5t61 -16.5t64.5 -33.5t61 -53.5t43 -80.5t17.5 -112v-451q0 -62 -17 -112.5t-44 -81.5t-60 -54t-66 -33.5t-60 -16.5t-44 -7h-17h-256v-449h-161zM319 160h256q6 0 16 1 t35 8.5t44 21.5t35 43.5t16 70.5v451q0 6 -1 15.5t-9 34t-21.5 43.5t-43.5 34.5t-71 15.5h-110q-6 0 -16 -1t-35 -8.5t-44 -21t-35 -43t-16 -69.5v-596z" />
<glyph unicode="q" horiz-adv-x="1017" d="M137 305v451q0 62 17 112t43.5 80.5t59.5 53.5t65.5 33.5t59 16.5t43.5 6l17 1h113q22 0 38.5 -16.5t24 -39.5t12 -46t4.5 -39l1 -17q17 17 78 77t82 81h65v-1508h-162v449h-256q-6 0 -17 0.5t-43 6.5t-60.5 16.5t-64 33.5t-60.5 54t-42.5 81.5t-17.5 112.5zM299 305 q0 -41 14.5 -70.5t35.5 -43.5t42.5 -21.5t36.5 -8.5l14 -1h256v596q0 40 -14.5 69.5t-36 43t-42.5 21t-35 8.5l-15 1h-113q-40 0 -69.5 -14.5t-43 -35.5t-21 -42.5t-8.5 -36.5l-1 -14v-451z" />
<glyph unicode="r" horiz-adv-x="708" d="M66 0v160h112v899h64l161 -158q0 6 0.5 17t4.5 38t11.5 48t23.5 38t38 17h193v-160h-193q-6 0 -15.5 -1t-34 -8.5t-43.5 -21t-34.5 -43t-15.5 -69.5v-596h225v-160h-497z" />
<glyph unicode="s" horiz-adv-x="897" d="M86 776q0 -34 5.5 -63.5t17.5 -54.5t24.5 -45.5t34 -38.5t38 -31t45 -26.5t46 -21t50 -18t48 -15t47.5 -13.5q44 -13 66.5 -20t54.5 -20.5t47.5 -26.5t27 -33t11.5 -44q0 -41 -15 -70.5t-36 -43.5t-42.5 -21.5t-36.5 -8.5l-15 -1h-348v-160h348q6 0 17.5 0.5t43 6 t60.5 15.5t64.5 31t61 50t43 75.5t17.5 104.5q0 37 -7.5 69.5t-18.5 57.5t-32 48t-38 39t-47.5 32.5t-49.5 25.5t-54.5 21.5t-53 17.5t-53.5 16q-42 12 -67 20t-55.5 21.5t-47 27t-28 33.5t-11.5 44q0 40 15 69.5t36 43t42.5 21t36.5 8.5l15 1h348v160h-348q-6 0 -17.5 -0.5 t-43 -6t-60.5 -15.5t-64.5 -31t-61 -50t-43 -75.5t-17.5 -104.5z" />
<glyph unicode="t" horiz-adv-x="647" d="M76 899v27q43 62 125 179t125 179h20v-225h225v-160h-225v-594q0 -6 1 -15.5t9 -34.5t22 -44.5t44.5 -35t71.5 -15.5h77v-160h-77q-6 0 -17.5 0.5t-43.5 6.5t-61 16.5t-64.5 33.5t-61 54t-43 81.5t-17.5 112.5v594h-110z" />
<glyph unicode="u" horiz-adv-x="1028" d="M147 305q0 -62 17 -112.5t44 -81.5t59.5 -54t65 -33.5t59.5 -16.5t44 -7h17h112q3 0 8.5 1t19.5 9.5t24.5 23.5t19 48t8.5 78l160 -160h65v1059h-161v-754q0 -6 -1 -15.5t-9 -34.5t-21.5 -44.5t-43 -35t-69.5 -15.5h-112q-6 0 -15.5 1t-34.5 8.5t-44 21.5t-34.5 43.5 t-15.5 70.5v754h-162v-754z" />
<glyph unicode="v" horiz-adv-x="843" d="M14 1059h170l238 -873l240 873h167l-317 -1059h-178z" />
<glyph unicode="w" horiz-adv-x="1472" d="M14 1059h168l236 -866l241 776h154l242 -776l235 866h168l-319 -1059h-176l-228 752l-225 -752h-176z" />
<glyph unicode="x" horiz-adv-x="862" d="M35 0l284 530l-284 529h174l221 -426l223 426h174l-284 -529l284 -530h-174l-223 426l-221 -426h-174z" />
<glyph unicode="y" horiz-adv-x="856" d="M14 -289h193q41 0 70.5 15t43.5 36t21.5 42t8.5 36l1 15v114l-325 1090h168l239 -873l238 873h170l-328 -1090v-114q0 -62 -17 -112t-44 -81t-59.5 -53.5t-65.5 -33t-60 -17t-44 -6.5l-17 -1h-193v160z" />
<glyph unicode="z" horiz-adv-x="800" d="M96 0v121l420 778h-420v160h609v-117l-406 -782h406v-160h-609z" />
<glyph unicode="{" horiz-adv-x="655" d="M35 469q31 -5 63 -14.5t72 -27.5t65 -50t25 -72v-338q0 -38 10 -78t33 -81.5t56.5 -73.5t86.5 -52t117 -20h37v160h-37q-78 0 -110.5 43t-32.5 104v336q0 8 -1 21t-11 46.5t-26.5 59.5t-54 47t-87.5 21v59q50 0 87.5 20.5t54 49.5t26.5 57.5t11 49.5l1 20v336 q0 78 41.5 110.5t103.5 34.5h35v160h-37q-38 0 -78 -10t-81 -33t-72.5 -57t-51.5 -87t-20 -118v-336q0 -33 -23 -62t-56 -46.5t-66.5 -31t-56.5 -18.5l-23 -6v-123z" />
<glyph unicode="|" horiz-adv-x="417" d="M158 -338h102v1735h-102v-1735z" />
<glyph unicode="}" horiz-adv-x="655" d="M55 -178h37q78 0 111 43t33 104v336q0 8 1 21t11 46.5t26.5 59.5t54 47t87.5 21v59q-50 0 -87.5 20.5t-54 49.5t-26.5 57.5t-11 49.5l-1 20v336q0 78 -42 110.5t-104 34.5h-35v160h37q38 0 78 -10t81 -33t72.5 -57t51.5 -87t20 -118v-336q0 -33 23.5 -62t56.5 -46.5 t66 -31t57 -18.5l23 -6v-123q-31 -5 -63 -14.5t-72.5 -27.5t-65.5 -50t-25 -72v-338q0 -38 -10 -78t-33 -81.5t-56.5 -73.5t-86.5 -52t-117 -20h-37v160z" />
<glyph unicode="~" horiz-adv-x="1228" d="M86 451q6 49 25.5 94.5t54.5 86.5t93.5 66t131.5 25q51 0 94.5 -11.5t81 -37t55.5 -40.5t50 -46q37 -37 55 -52t46.5 -26.5t66.5 -11.5q66 0 100 33.5t43 82.5q31 0 82 -1t78 -1q-5 -48 -24.5 -94t-54 -87.5t-93 -67t-131.5 -25.5q-51 0 -95 12t-82 37.5t-56 41t-50 46.5 h2q-52 52 -83 70t-85 18q-126 0 -141 -114z" />
<glyph unicode="&#xa1;" horiz-adv-x="487" d="M141 2h205v176q-10 124 -32.5 383t-32.5 389h-76q-10 -134 -32 -388.5t-32 -383.5v-176zM162 1239h162v160h-162v-160z" />
<glyph unicode="&#xa2;" horiz-adv-x="1058" d="M117 700q0 142 69.5 263t189.5 192.5t261 73.5l33 168h96l-33 -174q120 -20 230 -99l-99 -127q-76 56 -162 68l-139 -725q45 -10 84 -10q124 0 219 73l97 -129q-139 -104 -316 -104q-59 0 -115 12l-34 -182h-95l41 211q-147 61 -237 193t-90 296zM276 700 q0 -106 54 -193.5t145 -133.5l131 694q-139 -15 -234.5 -120t-95.5 -247z" />
<glyph unicode="&#xa3;" d="M55 166q0 -26 1 -80t1 -86h836v160h-657q9 4 23.5 11.5t52.5 32.5t67 53t52.5 72t23.5 89q0 20 -2 42t-4.5 38.5t-7.5 41t-8 37t-10 40t-9 36.5h364v92h-393q-33 132 -33 236q0 23 4 49t19.5 65t41.5 69t76 51.5t117 21.5h193v160h-193q-88 0 -160.5 -27.5t-119 -71 t-78.5 -99.5t-45.5 -110.5t-13.5 -107.5q0 -110 38 -236h-174v-92h199q37 -152 37 -235q0 -35 -13 -67.5t-34 -57t-46.5 -46t-51 -36t-46.5 -25t-34 -15.5z" />
<glyph unicode="&#xa4;" horiz-adv-x="1437" d="M35 80l303 301q-115 153 -115 317q0 165 115 318q-46 46 -151 150t-152 151l65 63l301 -299q155 113 320 113q160 0 315 -113q46 46 151 149t152 150l64 -63l-301 -301q112 -149 112 -318q0 -168 -112 -317l301 -301l-64 -66l-303 303q-150 -116 -315 -116 q-170 0 -320 116l-301 -303zM385 698q0 -138 98.5 -237t237.5 -99q138 0 236 99t98 237q0 137 -98.5 236.5t-235.5 99.5q-139 0 -237.5 -99.5t-98.5 -236.5z" />
<glyph unicode="&#xa5;" horiz-adv-x="954" d="M14 1397h176l287 -633q44 97 143.5 318.5t141.5 314.5h178l-369 -766h267v-94h-281v-175h281v-94h-281v-270h-162v270h-280v94h280v175h-280v94h266q-197 415 -367 766z" />
<glyph unicode="&#xa6;" horiz-adv-x="419" d="M158 -338v723h104v-723h-104zM158 674v723h104v-723h-104z" />
<glyph unicode="&#xa7;" horiz-adv-x="915" d="M96 530q0 174 172 281q-172 101 -172 281q0 62 17 112.5t43.5 81.5t59 54t65.5 33.5t59.5 16.5t43.5 6l17 1h306v-160h-306q-6 0 -15.5 -1t-34 -8.5t-43.5 -21.5t-34.5 -43.5t-15.5 -70.5q0 -40 14.5 -69.5t35.5 -43t42.5 -21.5t35.5 -9l15 -1h113q6 0 17 -0.5t43 -6.5 t60.5 -16.5t64 -34t60.5 -54.5t42.5 -81.5t17.5 -113.5q0 -92 -45 -161.5t-104 -106.5q46 -26 69 -49q80 -83 80 -242q0 -63 -17 -113.5t-43.5 -81.5t-59.5 -54.5t-65.5 -34t-59 -16.5t-43.5 -6l-17 -1h-305v162h305q6 0 15.5 1t34 8.5t43.5 21.5t34.5 43.5t15.5 70.5 q0 40 -14.5 69.5t-35.5 43t-42.5 21t-36.5 8.5l-14 1h-113q-6 0 -17 0.5t-43 6.5t-60.5 16.5t-64 33.5t-60.5 54t-42.5 81.5t-17.5 112.5zM258 530q0 -6 1 -15.5t8.5 -34.5t21 -44.5t43 -35t69.5 -15.5h113q6 0 15.5 1t34 8.5t43.5 21.5t34.5 43.5t15.5 70.5v111 q0 6 -1 15.5t-8.5 34.5t-21 44.5t-43 35t-69.5 15.5h-113q-6 0 -15.5 -1t-34 -8.5t-43.5 -21.5t-34.5 -43.5t-15.5 -70.5v-111z" />
<glyph unicode="&#xa8;" horiz-adv-x="729" d="M86 1264v178h180v-178h-180zM463 1264v178h180v-178h-180z" />
<glyph unicode="&#xa9;" horiz-adv-x="1630" d="M117 698q0 189 93.5 350.5t254.5 256t350 94.5t350 -94.5t254.5 -256t93.5 -350.5q0 -142 -55.5 -271t-149 -222.5t-222.5 -149t-271 -55.5t-271 55.5t-222.5 149t-149 222.5t-55.5 271zM256 698q0 -113 44 -216.5t119 -178.5t178.5 -119.5t217.5 -44.5t217.5 44.5 t178.5 119.5t119 178.5t44 216.5q0 114 -44 218t-119 179.5t-178.5 120t-217.5 44.5t-217.5 -44.5t-178.5 -120t-119 -179.5t-44 -218zM467 700q0 159 105 259t255 100q141 0 246 -96l-90 -91q-72 62 -158 62q-104 0 -167.5 -66.5t-63.5 -169.5q0 -105 62.5 -169t168.5 -64 q96 0 160 61q20 -19 49 -49.5t39 -40.5q-107 -98 -246 -98q-161 0 -260.5 100.5t-99.5 261.5z" />
<glyph unicode="&#xaa;" horiz-adv-x="585" d="M86 524v88h414v-88h-414zM86 698v88h414v-88h-414zM86 1028q0 33 15 60t35.5 43.5t58.5 32t66 23.5t77 20.5t74 19.5v20q0 64 -66 64h-215v88h215q57 0 105.5 -38t48.5 -114v-219q0 -34 -14 -67.5t-50.5 -60t-89.5 -26.5h-106q-57 0 -105.5 38.5t-48.5 115.5zM172 1028 q0 -61 68 -65h106q36 0 51 19t15 46v109q-23 -7 -62.5 -15.5t-66 -15.5t-54.5 -17.5t-42.5 -25.5t-14.5 -35z" />
<glyph unicode="&#xab;" horiz-adv-x="1163" d="M55 530q319 338 396 418h184l-389 -418q59 -63 190.5 -204.5t198.5 -212.5h-184zM526 530q176 186 398 418h184l-389 -418q201 -217 389 -417h-184z" />
<glyph unicode="&#xac;" horiz-adv-x="1007" d="M86 629v162h836v-498h-162v336h-674z" />
<glyph unicode="&#xad;" horiz-adv-x="780" d="M86 449v161h608v-161h-608z" />
<glyph unicode="&#xae;" horiz-adv-x="1017" d="M86 975q0 174 125 299t299 125t298 -125t124 -299q0 -175 -123.5 -298.5t-298.5 -123.5t-299.5 123.5t-124.5 298.5zM180 975q0 -137 97 -234.5t233 -97.5q135 0 231.5 97.5t96.5 234.5q0 136 -96.5 233t-231.5 97q-136 0 -233 -96.5t-97 -233.5zM352 780v387h193 q42 0 77 -29t35 -85q0 -35 -16.5 -60t-33.5 -33l-17 -8l94 -172h-72l-84 164h-116v-164h-60zM412 1001h133q21 0 37 12t16 40q0 29 -16 42t-37 13h-133v-107z" />
<glyph unicode="&#xaf;" horiz-adv-x="686" d="M86 1307h514v112h-514v-112z" />
<glyph unicode="&#xb0;" horiz-adv-x="563" d="M86 1200q0 82 57.5 140.5t139.5 58.5q81 0 137.5 -58.5t56.5 -140.5q0 -80 -56.5 -138t-137.5 -58t-139 58t-58 138zM170 1200q0 -45 33.5 -77.5t79.5 -32.5q45 0 77.5 32.5t32.5 77.5q0 47 -32.5 79t-77.5 32q-46 0 -79.5 -32t-33.5 -79z" />
<glyph unicode="&#xb1;" horiz-adv-x="894" d="M86 0v160h723v-160h-723zM86 618v160h281v281h161v-281h281v-160h-281v-280h-161v280h-281z" />
<glyph unicode="&#xb2;" horiz-adv-x="620" d="M86 1221q9 71 55.5 123.5t132.5 52.5h70q31 0 62.5 -10.5t61 -31.5t48.5 -60t19 -89q0 -65 -30 -132.5t-72.5 -117.5t-85.5 -90.5t-73 -61.5l-30 -22h291v-108h-426v117q13 8 34 23t75.5 61.5t96 93.5t75.5 112.5t34 124.5q0 73 -78 82h-72q-68 0 -75 -71q-25 0 -60 2 t-53 2z" />
<glyph unicode="&#xb3;" horiz-adv-x="620" d="M86 854h113q0 -32 18.5 -50t37.5 -20l19 -2h70q22 0 38 9.5t23.5 22.5t11.5 26t5 22v10q0 33 -8.5 56t-18 34.5t-28 17.5t-26.5 7t-26 2h-26q0 17 1 45t1 39h18q32 0 55 12.5t33.5 30.5t17 35.5t7.5 30.5v12q0 4 -0.5 10t-4.5 22t-11.5 28t-23.5 22t-38 10h-70h-6.5 t-15.5 -3.5t-20.5 -10t-19 -21t-13.5 -34.5h-113q2 7 5 19.5t18 43.5t34 54.5t54 43t77 19.5h70q4 0 11 -0.5t26.5 -4t38 -10.5t40.5 -21.5t37.5 -34t26.5 -51.5t11 -71q0 -78 -80 -170q41 -41 60.5 -76t19.5 -84q0 -55 -20 -95.5t-48.5 -59.5t-56.5 -30.5t-48 -12.5l-20 -2 h-68q-50 0 -87 19t-57 50t-29.5 57t-14.5 54z" />
<glyph unicode="&#xb4;" horiz-adv-x="485" d="M86 1219h123q22 34 59.5 91t68.5 104.5t62 92.5h-168q-26 -50 -72.5 -143z" />
<glyph unicode="&#xb5;" horiz-adv-x="1040" d="M158 -449v1508h161v-754q0 -41 15 -70.5t36.5 -43.5t43 -21.5t36.5 -8.5l15 -1h110q41 0 71 15t43.5 36t21.5 42.5t9 36.5l1 15v754h162v-1059h-68l-158 160q0 -45 -8.5 -78t-20.5 -48t-24 -23.5t-20 -9.5l-9 -1h-110q-50 0 -146 31v-480h-161z" />
<glyph unicode="&#xb6;" horiz-adv-x="1138" d="M55 981q0 166 111 286.5t274 129.5v-834q-163 9 -274 130t-111 288zM618 -225v1622h93v-1622h-93zM889 -225v1622h92v-1622h-92z" />
<glyph unicode="&#xb7;" horiz-adv-x="370" d="M86 432v197h199v-197h-199z" />
<glyph unicode="&#xb8;" horiz-adv-x="503" d="M86 -352v-90h68q130 0 197 47t67 119q0 42 -16 75t-38.5 50t-43 25.5t-35.5 8.5v187h-133v-203h2q43 0 75.5 -33t32.5 -76q0 -44 -32.5 -77t-75.5 -33h-68z" />
<glyph unicode="&#xb9;" horiz-adv-x="555" d="M86 674v108h137v504h-137v111h246v-615h137v-108h-383z" />
<glyph unicode="&#xba;" horiz-adv-x="585" d="M86 524v88h414v-88h-414zM86 698v88h414v-88h-414zM86 1028v219q0 3 0.5 8.5t3.5 21.5t8 30t16.5 31.5t27.5 30.5t41.5 21.5t56.5 8.5h108q6 0 16.5 -1t36.5 -9t46 -22.5t36.5 -45.5t16.5 -74v-219q0 -6 -1 -16.5t-9 -37t-22.5 -47t-45.5 -37t-74 -16.5h-108 q-3 0 -8.5 0.5t-21.5 3.5t-30.5 8t-32.5 16.5t-30.5 27.5t-21.5 41.5t-9 56.5zM174 1028q0 -3 0.5 -7t4 -15.5t9.5 -20t20 -15.5t32 -7h108q3 0 7.5 0.5t15.5 3.5t20 9.5t16 20t7 31.5v219q0 3 -0.5 7t-4 15t-9.5 19.5t-20 15.5t-32 7h-108q-3 0 -7.5 -0.5t-15.5 -4 t-20 -9.5t-16 -19t-7 -31v-219z" />
<glyph unicode="&#xbb;" horiz-adv-x="1163" d="M55 113h185q218 228 397 417q-67 72 -198.5 209t-198.5 209h-185q136 -145 389 -418zM528 113h185q73 76 395 417q-67 71 -197.5 208.5t-197.5 209.5h-185q67 -71 199 -213t191 -205z" />
<glyph unicode="&#xbc;" horiz-adv-x="1484" d="M117 674v108h137v504h-137v111h245v-615h138v-108h-383zM287 0l835 1397h123l-835 -1397h-123zM903 135v121q11 30 75.5 201.5t98.5 263.5h121l-188 -477h180v137h113v-137h65v-109h-65v-137h-113v137h-287z" />
<glyph unicode="&#xbd;" horiz-adv-x="1511" d="M117 674v108h135v504h-135v111h245v-615h138v-108h-383zM287 0l835 1397h123l-835 -1397h-123zM946 543q9 71 56 125.5t133 54.5h69q31 0 62.5 -10.5t61 -31.5t48.5 -60t19 -89q0 -65 -30 -132t-72.5 -117t-85.5 -91t-73 -62l-30 -21h291v-109h-426v117q13 8 34 23 t75.5 61.5t96 93.5t75.5 112.5t34 124.5q0 73 -78 82h-71q-69 0 -76 -71h-113z" />
<glyph unicode="&#xbe;" horiz-adv-x="1488" d="M117 854h110q0 -32 19.5 -50t39.5 -20l19 -2h68q22 0 38.5 9.5t24 22.5t12 26t4.5 22l1 10q0 33 -8.5 56t-18 34t-28.5 17.5t-26.5 7.5t-25.5 2h-29q0 17 1 45t1 39h21q32 0 55 12.5t33.5 30.5t17 35.5t6.5 30.5l1 12q0 4 -0.5 10t-5 22t-12 28t-24 22t-38.5 10h-68h-7 t-15.5 -3.5t-21.5 -10t-20 -21t-14 -34.5h-110q2 7 5 19.5t18 43.5t34 54.5t54 43t77 19.5h68q4 0 11 -0.5t26.5 -4t37.5 -10.5t40 -21.5t37.5 -34t26.5 -51.5t11 -71q0 -81 -78 -170q41 -41 59.5 -76t18.5 -84q0 -55 -20 -95.5t-48 -59.5t-56 -30.5t-48 -12.5l-20 -2h-66 q-40 0 -72.5 13.5t-52.5 32.5t-34 45t-20 47t-9 42zM285 0l835 1397h123l-835 -1397h-123zM905 137v121q11 30 75.5 201.5t98.5 263.5h123l-188 -477h180v137h113v-137h65v-109h-65v-137h-113v137h-289z" />
<glyph unicode="&#xbf;" horiz-adv-x="894" d="M88 309q0 47 12.5 90t40 85.5t50 70.5t61.5 72q14 17 47.5 55.5t52 62t41.5 59t35 72t14 76.5h99q-3 -136 -47.5 -237t-120.5 -191q-46 -55 -67 -82.5t-38.5 -64t-17.5 -68.5q0 -78 41.5 -110.5t99.5 -34.5h113q50 2 91 29t52 83h164q-4 -59 -26 -106.5t-53 -78 t-71 -50.5t-78.5 -28.5t-76.5 -8.5h-113q-39 0 -79 10t-81 33t-73 57t-52 87t-20 118zM385 1202v197h199v-197h-199z" />
<glyph unicode="&#xc0;" horiz-adv-x="944" d="M-6 0l371 1397h213l372 -1397h-162l-61 225h-512l-59 -225h-162zM221 1810h168q83 -160 146 -288h-121q-33 48 -96.5 144t-96.5 144zM260 385h422l-195 840h-32z" />
<glyph unicode="&#xc1;" horiz-adv-x="944" d="M-6 0l371 1397h213l372 -1397h-162l-61 225h-512l-59 -225h-162zM260 385h422l-195 840h-32zM408 1522h122q167 253 191 288h-168l-71.5 -143t-73.5 -145z" />
<glyph unicode="&#xc2;" horiz-adv-x="944" d="M-6 0l371 1397h213l372 -1397h-162l-61 225h-512l-59 -225h-162zM184 1524h146q23 29 72 92t69 88l143 -180h146q-39 48 -116 144t-116 144h-112q-206 -255 -232 -288zM260 385h422l-195 840h-32z" />
<glyph unicode="&#xc3;" horiz-adv-x="944" d="M-6 0l371 1397h213l372 -1397h-162l-61 225h-512l-59 -225h-162zM166 1542q11 78 62 163t112 85q33 0 83 -27t100 -53.5t83 -26.5q25 0 44.5 11.5t31.5 31t18.5 34.5t10.5 30h71q-5 -35 -20 -77t-37.5 -80.5t-54 -64.5t-64.5 -26q-32 0 -82 27t-100 53.5t-84 26.5 q-72 0 -104 -107h-70zM260 385h422l-195 840h-32z" />
<glyph unicode="&#xc4;" horiz-adv-x="944" d="M-6 0l371 1397h213l372 -1397h-162l-61 225h-512l-59 -225h-162zM193 1567v178h180v-178h-180zM260 385h422l-195 840h-32zM569 1567v178h181v-178h-181z" />
<glyph unicode="&#xc5;" horiz-adv-x="944" d="M-6 0l371 1397h213l372 -1397h-162l-61 225h-512l-59 -225h-162zM260 385h422l-195 840h-32zM283 1665q0 78 55.5 134t132.5 56q78 0 134.5 -56t56.5 -134q0 -77 -56.5 -132.5t-134.5 -55.5q-77 0 -132.5 55.5t-55.5 132.5zM371 1665q0 -43 28.5 -71.5t71.5 -28.5 t71.5 28.5t28.5 71.5t-28.5 71.5t-71.5 28.5t-71.5 -28.5t-28.5 -71.5z" />
<glyph unicode="&#xc6;" horiz-adv-x="1636" d="M-6 2q12 24 696 1395h860v-160h-559v-399h449v-162h-449v-514h559v-160h-721v225h-542q-14 -28 -55 -106.5t-60 -118.5h-178zM365 387h464v850l-49 2z" />
<glyph unicode="&#xc7;" horiz-adv-x="1038" d="M117 418q0 -8 1 -21.5t7.5 -53t19 -76.5t39 -83t62.5 -81t94.5 -63t130.5 -36v-137h2q43 0 76 -33t33 -76q0 -44 -33 -77t-76 -33h-67v-90h67q130 0 197 47t67 119q0 42 -16 75t-38.5 50t-43 25.5t-35.5 8.5v121q71 8 128 33.5t92 59.5t61 73.5t38 77t18.5 68.5t7.5 50 l1 19h-162q0 -5 -0.5 -13t-5.5 -31.5t-13.5 -44.5t-27.5 -47t-44.5 -44.5t-67.5 -31.5t-94 -13t-94.5 14t-68.5 37t-45 50.5t-28 55t-14 50.5t-5 37l-1 14v563q0 5 0.5 14.5t5.5 36t14 50.5t28 53.5t45 51t68.5 36t94.5 14.5t94 -12.5t67.5 -32.5t44.5 -44t27.5 -47.5 t13.5 -43.5t6 -33v-12h162q3 0 -0.5 39.5t-25 96t-61.5 113.5t-125.5 96.5t-202.5 39.5q-85 0 -154.5 -23t-111.5 -59.5t-73.5 -81t-46 -89t-22.5 -81t-9 -59.5l-1 -23v-563z" />
<glyph unicode="&#xc8;" d="M158 0v1397h725v-160h-564v-403h449v-160h-449v-514h564v-160h-725zM262 1810h168q67 -128 145 -288h-120q-33 48 -96.5 144t-96.5 144z" />
<glyph unicode="&#xc9;" d="M158 0v1397h725v-160h-564v-403h449v-160h-449v-514h564v-160h-725zM449 1522h122q167 253 191 288h-168q-26 -50 -72 -143t-73 -145z" />
<glyph unicode="&#xca;" d="M158 0v1397h725v-160h-564v-403h449v-160h-449v-514h564v-160h-725zM225 1524h146q23 29 72 92t69 88l143 -180h146q-39 48 -116 144t-116 144h-112q-206 -255 -232 -288z" />
<glyph unicode="&#xcb;" d="M158 0v1397h725v-160h-564v-403h449v-160h-449v-514h564v-160h-725zM233 1567v178h181v-178h-181zM610 1567v178h181v-178h-181z" />
<glyph unicode="&#xcc;" horiz-adv-x="477" d="M-10 1810h168q67 -128 145 -288h-121q-33 48 -96 144t-96 144zM158 0h161v1397h-161v-1397z" />
<glyph unicode="&#xcd;" horiz-adv-x="477" d="M158 0h161v1397h-161v-1397zM176 1522h123q22 34 59.5 91t68.5 104.5t62 92.5h-167q-26 -51 -73 -144t-73 -144z" />
<glyph unicode="&#xce;" horiz-adv-x="477" d="M-47 1524h145q24 29 73 92t69 88l143 -180h145q-39 48 -115.5 144t-115.5 144h-113q-163 -202 -231 -288zM158 0h161v1397h-161v-1397z" />
<glyph unicode="&#xcf;" horiz-adv-x="477" d="M-39 1567v178h180v-178h-180zM158 0h161v1397h-161v-1397zM338 1567v178h180v-178h-180z" />
<glyph unicode="&#xd0;" horiz-adv-x="1107" d="M-16 612l172 70v715h417q9 0 24 -1t58.5 -9t83 -22.5t87.5 -45.5t82.5 -73t58.5 -111t24 -154v-563q0 -9 -1 -24t-9 -58.5t-22.5 -83t-46 -87.5t-73.5 -82.5t-111.5 -58.5t-154.5 -24h-417v580q-17 -5 -67.5 -26t-68.5 -28zM315 160h258q52 0 94.5 14t68.5 37t45 50.5 t28 55t14 50.5t5 37l1 14v563q0 52 -14 94.5t-36.5 68.5t-50 45t-55 28t-50 14t-36.5 5l-14 1h-258v-489q47 17 160 63q29 -81 31 -86l-191 -78v-487z" />
<glyph unicode="&#xd1;" horiz-adv-x="1150" d="M158 0v1397h172l501 -1053v1053h162v-1397h-172l-502 1067v-1067h-161zM272 1542q11 78 62 163t112 85q40 0 133.5 -53.5t133.5 -53.5q76 0 104 107h72q-6 -49 -29.5 -104.5t-63.5 -99.5t-83 -44q-39 0 -132.5 53.5t-134.5 53.5q-72 0 -104 -107h-70z" />
<glyph unicode="&#xd2;" horiz-adv-x="1069" d="M117 418v563q0 9 1 24t9 58t22.5 82.5t46 87.5t73.5 82.5t111.5 58t154.5 23.5t154.5 -23t111.5 -59.5t73.5 -81t45.5 -89t22 -81t9 -59.5l1 -23v-563q0 -9 -1 -24t-9 -58.5t-22 -83t-45.5 -87.5t-73.5 -82.5t-111.5 -58.5t-154.5 -24q-67 0 -124 14.5t-97 38.5t-73 55.5 t-52.5 66t-34.5 69t-21.5 66t-10.5 55.5t-4 39zM279 418q0 -5 0.5 -14.5t5.5 -36.5t14 -51t28 -54t45 -51.5t68.5 -36t94.5 -14.5t94.5 14t68.5 37t45 50.5t28 55t14 50.5t5 37l1 14v563q0 5 -0.5 14.5t-5.5 36t-14 50.5t-28 53.5t-45 51t-68.5 36t-94.5 14.5t-94.5 -14 t-68.5 -36.5t-45 -50t-28 -55t-14 -50t-5 -36.5l-1 -14v-563zM285 1810h168q67 -128 145 -288h-121q-33 48 -96 144t-96 144z" />
<glyph unicode="&#xd3;" horiz-adv-x="1069" d="M117 418v563q0 9 1 24t9 58t22.5 82.5t46 87.5t73.5 82.5t111.5 58t154.5 23.5t154.5 -23t111.5 -59.5t73.5 -81t45.5 -89t22 -81t9 -59.5l1 -23v-563q0 -9 -1 -24t-9 -58.5t-22 -83t-45.5 -87.5t-73.5 -82.5t-111.5 -58.5t-154.5 -24q-67 0 -124 14.5t-97 38.5t-73 55.5 t-52.5 66t-34.5 69t-21.5 66t-10.5 55.5t-4 39zM279 418q0 -5 0.5 -14.5t5.5 -36.5t14 -51t28 -54t45 -51.5t68.5 -36t94.5 -14.5t94.5 14t68.5 37t45 50.5t28 55t14 50.5t5 37l1 14v563q0 5 -0.5 14.5t-5.5 36t-14 50.5t-28 53.5t-45 51t-68.5 36t-94.5 14.5t-94.5 -14 t-68.5 -36.5t-45 -50t-28 -55t-14 -50t-5 -36.5l-1 -14v-563zM471 1522h123q22 34 59.5 91t68.5 104.5t62 92.5h-168q-25 -50 -72 -143t-73 -145z" />
<glyph unicode="&#xd4;" horiz-adv-x="1069" d="M117 418v563q0 9 1 24t9 58t22.5 82.5t46 87.5t73.5 82.5t111.5 58t154.5 23.5t154.5 -23t111.5 -59.5t73.5 -81t45.5 -89t22 -81t9 -59.5l1 -23v-563q0 -9 -1 -24t-9 -58.5t-22 -83t-45.5 -87.5t-73.5 -82.5t-111.5 -58.5t-154.5 -24q-67 0 -124 14.5t-97 38.5t-73 55.5 t-52.5 66t-34.5 69t-21.5 66t-10.5 55.5t-4 39zM248 1524h145q24 29 73 92t69 88l143 -180h145q-39 48 -115.5 144t-115.5 144h-113q-163 -202 -231 -288zM279 418q0 -5 0.5 -14.5t5.5 -36.5t14 -51t28 -54t45 -51.5t68.5 -36t94.5 -14.5t94.5 14t68.5 37t45 50.5t28 55 t14 50.5t5 37l1 14v563q0 5 -0.5 14.5t-5.5 36t-14 50.5t-28 53.5t-45 51t-68.5 36t-94.5 14.5t-94.5 -14t-68.5 -36.5t-45 -50t-28 -55t-14 -50t-5 -36.5l-1 -14v-563z" />
<glyph unicode="&#xd5;" horiz-adv-x="1069" d="M117 418v563q0 9 1 24t9 58t22.5 82.5t46 87.5t73.5 82.5t111.5 58t154.5 23.5t154.5 -23t111.5 -59.5t73.5 -81t45.5 -89t22 -81t9 -59.5l1 -23v-563q0 -9 -1 -24t-9 -58.5t-22 -83t-45.5 -87.5t-73.5 -82.5t-111.5 -58.5t-154.5 -24q-67 0 -124 14.5t-97 38.5t-73 55.5 t-52.5 66t-34.5 69t-21.5 66t-10.5 55.5t-4 39zM229 1542q11 78 62 163t112 85q40 0 133.5 -53.5t133.5 -53.5q76 0 104 107h72q-6 -49 -29.5 -104.5t-63.5 -99.5t-83 -44q-39 0 -132.5 53.5t-134.5 53.5q-72 0 -104 -107h-70zM279 418q0 -5 0.5 -14.5t5.5 -36.5t14 -51 t28 -54t45 -51.5t68.5 -36t94.5 -14.5t94.5 14t68.5 37t45 50.5t28 55t14 50.5t5 37l1 14v563q0 5 -0.5 14.5t-5.5 36t-14 50.5t-28 53.5t-45 51t-68.5 36t-94.5 14.5t-94.5 -14t-68.5 -36.5t-45 -50t-28 -55t-14 -50t-5 -36.5l-1 -14v-563z" />
<glyph unicode="&#xd6;" horiz-adv-x="1069" d="M117 418v563q0 9 1 24t9 58t22.5 82.5t46 87.5t73.5 82.5t111.5 58t154.5 23.5t154.5 -23t111.5 -59.5t73.5 -81t45.5 -89t22 -81t9 -59.5l1 -23v-563q0 -9 -1 -24t-9 -58.5t-22 -83t-45.5 -87.5t-73.5 -82.5t-111.5 -58.5t-154.5 -24q-67 0 -124 14.5t-97 38.5t-73 55.5 t-52.5 66t-34.5 69t-21.5 66t-10.5 55.5t-4 39zM256 1567v178h180v-178h-180zM279 418q0 -5 0.5 -14.5t5.5 -36.5t14 -51t28 -54t45 -51.5t68.5 -36t94.5 -14.5t94.5 14t68.5 37t45 50.5t28 55t14 50.5t5 37l1 14v563q0 5 -0.5 14.5t-5.5 36t-14 50.5t-28 53.5t-45 51 t-68.5 36t-94.5 14.5t-94.5 -14t-68.5 -36.5t-45 -50t-28 -55t-14 -50t-5 -36.5l-1 -14v-563zM633 1567v178h180v-178h-180z" />
<glyph unicode="&#xd7;" horiz-adv-x="872" d="M86 291l240 239l-240 238l111 113l239 -240l240 240l110 -113l-239 -238l239 -239l-112 -111l-238 238l-239 -240z" />
<glyph unicode="&#xd8;" horiz-adv-x="1048" d="M74 35l94 153q-27 54 -42.5 111.5t-17.5 88.5l-2 30v563q0 9 1 24t9 58t22.5 82.5t46 87.5t73.5 82.5t111.5 58t154.5 23.5q161 0 299 -111q20 37 74 121q8 -4 78 -51l-94 -152q27 -53 42.5 -108.5t16.5 -85.5l2 -29v-563q0 -9 -1 -24t-9 -58.5t-22.5 -83t-46 -87.5 t-73.5 -82.5t-111.5 -58.5t-154.5 -24q-162 0 -297 109q-8 -12 -33.5 -58.5t-39.5 -66.5zM268 354l463 783q-79 100 -207 100q-52 0 -94.5 -14t-68.5 -36.5t-45 -50t-28 -55t-14 -50t-6 -36.5v-14v-627zM317 258q84 -98 207 -98q52 0 94.5 14t68.5 37t45 50.5t28 55t14 50.5 t6 37v14v618z" />
<glyph unicode="&#xd9;" horiz-adv-x="1110" d="M137 418v977h162v-977q0 -5 0.5 -14.5t5.5 -36.5t14 -51t28 -54t45 -51.5t68.5 -36t94.5 -14.5t94.5 14t68.5 37t45 50.5t28 55t14 50.5t5 37l1 14v977h162v-977q0 -9 -1 -24t-9 -58.5t-22.5 -83t-46 -87.5t-73.5 -82.5t-111.5 -58.5t-154.5 -24q-67 0 -124 14.5 t-97 38.5t-73 55.5t-52.5 66t-34.5 69t-21.5 66t-10.5 55.5t-4 39zM305 1810h168q67 -128 145 -288h-120q-33 48 -96.5 144t-96.5 144z" />
<glyph unicode="&#xda;" horiz-adv-x="1110" d="M137 418v977h162v-977q0 -5 0.5 -14.5t5.5 -36.5t14 -51t28 -54t45 -51.5t68.5 -36t94.5 -14.5t94.5 14t68.5 37t45 50.5t28 55t14 50.5t5 37l1 14v977h162v-977q0 -9 -1 -24t-9 -58.5t-22.5 -83t-46 -87.5t-73.5 -82.5t-111.5 -58.5t-154.5 -24q-67 0 -124 14.5 t-97 38.5t-73 55.5t-52.5 66t-34.5 69t-21.5 66t-10.5 55.5t-4 39zM492 1522h122q167 253 191 288h-168q-26 -50 -72.5 -143z" />
<glyph unicode="&#xdb;" horiz-adv-x="1110" d="M137 418v977h162v-977q0 -5 0.5 -14.5t5.5 -36.5t14 -51t28 -54t45 -51.5t68.5 -36t94.5 -14.5t94.5 14t68.5 37t45 50.5t28 55t14 50.5t5 37l1 14v977h162v-977q0 -9 -1 -24t-9 -58.5t-22.5 -83t-46 -87.5t-73.5 -82.5t-111.5 -58.5t-154.5 -24q-67 0 -124 14.5 t-97 38.5t-73 55.5t-52.5 66t-34.5 69t-21.5 66t-10.5 55.5t-4 39zM268 1524h146q23 29 72 92t69 88l143 -180h146q-39 48 -116 144t-116 144h-112q-206 -255 -232 -288z" />
<glyph unicode="&#xdc;" horiz-adv-x="1110" d="M137 418v977h162v-977q0 -5 0.5 -14.5t5.5 -36.5t14 -51t28 -54t45 -51.5t68.5 -36t94.5 -14.5t94.5 14t68.5 37t45 50.5t28 55t14 50.5t5 37l1 14v977h162v-977q0 -9 -1 -24t-9 -58.5t-22.5 -83t-46 -87.5t-73.5 -82.5t-111.5 -58.5t-154.5 -24q-67 0 -124 14.5 t-97 38.5t-73 55.5t-52.5 66t-34.5 69t-21.5 66t-10.5 55.5t-4 39zM276 1567v178h181v-178h-181zM653 1567v178h181v-178h-181z" />
<glyph unicode="&#xdd;" horiz-adv-x="876" d="M-27 1397h181l284 -631l287 631h178l-383 -795v-602h-162v602zM375 1522h123q22 34 59.5 91t68.5 104.5t62 92.5h-168l-71.5 -143t-73.5 -145z" />
<glyph unicode="&#xde;" horiz-adv-x="1048" d="M158 0v1397h161v-289h256q9 0 24 -1t58.5 -9t83 -22.5t87.5 -46t82.5 -73.5t58.5 -111.5t24 -154.5t-23 -154t-60 -111t-81.5 -73t-89 -45.5t-81.5 -22.5t-60 -9l-23 -1h-256v-274h-161zM319 434h256q5 0 14.5 0.5t36 5.5t50.5 14t53.5 28t51 45t36 68.5t14.5 94.5 q0 53 -14 95.5t-36.5 68.5t-50 45.5t-55 28.5t-50 14t-36.5 6h-14h-256v-514z" />
<glyph unicode="&#xdf;" horiz-adv-x="1118" d="M158 0v1204q0 62 16.5 112.5t43.5 81.5t59 54t64.5 33.5t59.5 16.5t43 6l17 1h94q6 0 17.5 -0.5t43 -6.5t60.5 -16.5t64.5 -33.5t61 -54t43 -81.5t17.5 -112.5q0 -38 -11.5 -74.5t-36.5 -73.5t-43.5 -60t-51.5 -60q-7 -8 -23 -28t-22.5 -28.5t-19 -24.5t-18 -26 t-12.5 -23.5t-9.5 -25.5t-2.5 -24q0 -27 11.5 -48t41.5 -40t49.5 -28.5t67.5 -29.5q46 -20 76.5 -34.5t73.5 -42.5t68 -57.5t44 -74t19 -96.5q0 -62 -16.5 -112.5t-43.5 -81.5t-59 -54t-64.5 -33.5t-59.5 -16.5t-44 -7h-16h-193v160h193q6 0 15.5 1t34 8.5t43.5 21.5 t34.5 43.5t15.5 70.5q0 34 -14 60.5t-46 48t-57 33.5t-75 32q-33 13 -52.5 21.5t-50 24t-49.5 29.5t-41.5 35.5t-35 44.5t-21 54.5t-8.5 67.5q0 46 23.5 95t46 77t65.5 76q37 41 57 66.5t37.5 62.5t17.5 71q0 40 -15 69.5t-36 43t-42.5 21.5t-36.5 9l-15 1h-94 q-40 0 -69.5 -15t-43 -36t-21.5 -42t-9 -36l-1 -15v-1204h-159z" />
<glyph unicode="&#xe0;" d="M96 305q0 62 17 112.5t44 81.5t59.5 54t65.5 33.5t60 16.5t44 7h17h256v146q0 40 -15 69.5t-36 43t-42.5 21t-36.5 8.5l-15 1h-348v160h348q6 0 17.5 -0.5t43 -6.5t60.5 -16.5t64.5 -33.5t61 -53.5t43 -80.5t17.5 -112v-756h-67l-158 160q0 -45 -8.5 -78t-20.5 -48 t-24 -23.5t-21 -9.5l-8 -1h-111q-6 0 -17.5 0.5t-43 6.5t-60.5 16.5t-64.5 33.5t-61 54t-43 81.5t-17.5 112.5zM215 1507h168q67 -128 145 -288h-120q-33 48 -96.5 144t-96.5 144zM258 305q0 -41 15 -70.5t36 -43.5t42.5 -21.5t36.5 -8.5l15 -1h111q6 0 15.5 1t34.5 8.5 t44.5 21.5t35 43.5t15.5 70.5v144h-256q-6 0 -15.5 -1t-34.5 -9t-44.5 -21.5t-35 -43t-15.5 -69.5z" />
<glyph unicode="&#xe1;" d="M96 305q0 62 17 112.5t44 81.5t59.5 54t65.5 33.5t60 16.5t44 7h17h256v146q0 40 -15 69.5t-36 43t-42.5 21t-36.5 8.5l-15 1h-348v160h348q6 0 17.5 -0.5t43 -6.5t60.5 -16.5t64.5 -33.5t61 -53.5t43 -80.5t17.5 -112v-756h-67l-158 160q0 -45 -8.5 -78t-20.5 -48 t-24 -23.5t-21 -9.5l-8 -1h-111q-6 0 -17.5 0.5t-43 6.5t-60.5 16.5t-64.5 33.5t-61 54t-43 81.5t-17.5 112.5zM258 305q0 -41 15 -70.5t36 -43.5t42.5 -21.5t36.5 -8.5l15 -1h111q6 0 15.5 1t34.5 8.5t44.5 21.5t35 43.5t15.5 70.5v144h-256q-6 0 -15.5 -1t-34.5 -9 t-44.5 -21.5t-35 -43t-15.5 -69.5zM401 1219h123q167 253 191 288h-168q-26 -51 -73 -144t-73 -144z" />
<glyph unicode="&#xe2;" d="M96 305q0 62 17 112.5t44 81.5t59.5 54t65.5 33.5t60 16.5t44 7h17h256v146q0 40 -15 69.5t-36 43t-42.5 21t-36.5 8.5l-15 1h-348v160h348q6 0 17.5 -0.5t43 -6.5t60.5 -16.5t64.5 -33.5t61 -53.5t43 -80.5t17.5 -112v-756h-67l-158 160q0 -45 -8.5 -78t-20.5 -48 t-24 -23.5t-21 -9.5l-8 -1h-111q-6 0 -17.5 0.5t-43 6.5t-60.5 16.5t-64.5 33.5t-61 54t-43 81.5t-17.5 112.5zM178 1221h146q23 29 72 92t69 88l143 -180h146q-39 48 -116 144t-116 144h-112q-206 -255 -232 -288zM258 305q0 -41 15 -70.5t36 -43.5t42.5 -21.5t36.5 -8.5 l15 -1h111q6 0 15.5 1t34.5 8.5t44.5 21.5t35 43.5t15.5 70.5v144h-256q-6 0 -15.5 -1t-34.5 -9t-44.5 -21.5t-35 -43t-15.5 -69.5z" />
<glyph unicode="&#xe3;" d="M96 305q0 62 17 112.5t44 81.5t59.5 54t65.5 33.5t60 16.5t44 7h17h256v146q0 40 -15 69.5t-36 43t-42.5 21t-36.5 8.5l-15 1h-348v160h348q6 0 17.5 -0.5t43 -6.5t60.5 -16.5t64.5 -33.5t61 -53.5t43 -80.5t17.5 -112v-756h-67l-158 160q0 -45 -8.5 -78t-20.5 -48 t-24 -23.5t-21 -9.5l-8 -1h-111q-6 0 -17.5 0.5t-43 6.5t-60.5 16.5t-64.5 33.5t-61 54t-43 81.5t-17.5 112.5zM160 1239q11 78 62 163t112 85q33 0 83 -26.5t100 -53.5t83 -27q25 0 44.5 11.5t31.5 31t18.5 34.5t10.5 30h71q-6 -49 -29.5 -104.5t-63.5 -99.5t-83 -44 q-32 0 -82 26.5t-100 53.5t-84 27q-23 0 -42.5 -11.5t-31.5 -30.5t-19 -34t-12 -31h-69zM258 305q0 -41 15 -70.5t36 -43.5t42.5 -21.5t36.5 -8.5l15 -1h111q6 0 15.5 1t34.5 8.5t44.5 21.5t35 43.5t15.5 70.5v144h-256q-6 0 -15.5 -1t-34.5 -9t-44.5 -21.5t-35 -43 t-15.5 -69.5z" />
<glyph unicode="&#xe4;" d="M96 305q0 62 17 112.5t44 81.5t59.5 54t65.5 33.5t60 16.5t44 7h17h256v146q0 40 -15 69.5t-36 43t-42.5 21t-36.5 8.5l-15 1h-348v160h348q6 0 17.5 -0.5t43 -6.5t60.5 -16.5t64.5 -33.5t61 -53.5t43 -80.5t17.5 -112v-756h-67l-158 160q0 -45 -8.5 -78t-20.5 -48 t-24 -23.5t-21 -9.5l-8 -1h-111q-6 0 -17.5 0.5t-43 6.5t-60.5 16.5t-64.5 33.5t-61 54t-43 81.5t-17.5 112.5zM186 1264v178h181v-178h-181zM258 305q0 -41 15 -70.5t36 -43.5t42.5 -21.5t36.5 -8.5l15 -1h111q6 0 15.5 1t34.5 8.5t44.5 21.5t35 43.5t15.5 70.5v144h-256 q-6 0 -15.5 -1t-34.5 -9t-44.5 -21.5t-35 -43t-15.5 -69.5zM563 1264v178h180v-178h-180z" />
<glyph unicode="&#xe5;" d="M96 305q0 62 17 112.5t44 81.5t59.5 54t65.5 33.5t60 16.5t44 7h17h256v146q0 40 -15 69.5t-36 43t-42.5 21t-36.5 8.5l-15 1h-348v160h348q6 0 17.5 -0.5t43 -6.5t60.5 -16.5t64.5 -33.5t61 -53.5t43 -80.5t17.5 -112v-756h-67l-158 160q0 -45 -8.5 -78t-20.5 -48 t-24 -23.5t-21 -9.5l-8 -1h-111q-6 0 -17.5 0.5t-43 6.5t-60.5 16.5t-64.5 33.5t-61 54t-43 81.5t-17.5 112.5zM258 305q0 -41 15 -70.5t36 -43.5t42.5 -21.5t36.5 -8.5l15 -1h111q6 0 15.5 1t34.5 8.5t44.5 21.5t35 43.5t15.5 70.5v144h-256q-6 0 -15.5 -1t-34.5 -9 t-44.5 -21.5t-35 -43t-15.5 -69.5zM276 1362q0 78 56 134t133 56q78 0 134 -56t56 -134q0 -77 -56 -132.5t-134 -55.5q-77 0 -133 56t-56 132zM365 1362q0 -43 28.5 -71.5t71.5 -28.5t71.5 28.5t28.5 71.5t-28.5 71.5t-71.5 28.5t-71.5 -28.5t-28.5 -71.5z" />
<glyph unicode="&#xe6;" horiz-adv-x="1474" d="M96 305q0 62 16.5 112.5t43.5 81.5t59 54t64.5 33.5t59.5 16.5t43 7h17h256v146q0 40 -14.5 69.5t-35.5 43t-42.5 21t-36.5 8.5l-14 1h-350v160h350q13 0 35 -2.5t81.5 -24.5t108.5 -61q95 88 226 88h110q6 0 17 -0.5t43 -6.5t60.5 -16.5t64 -33.5t60.5 -53.5t42.5 -80.5 t17.5 -112q0 -6 -0.5 -17.5t-6.5 -43t-16.5 -60.5t-33.5 -64.5t-54 -61t-81.5 -43t-112.5 -17.5h-256v-144q0 -6 1 -15.5t9 -34.5t21.5 -44.5t43.5 -35t71 -15.5h415v-160h-415q-9 0 -23.5 1t-54.5 8.5t-74 20.5t-69.5 41.5t-53.5 67.5q-4 -39 -23.5 -67.5t-44.5 -41.5 t-49.5 -20.5t-41.5 -8.5l-17 -1h-113q-6 0 -17 0.5t-42.5 6.5t-60 16.5t-63.5 33.5t-60.5 54t-42.5 81.5t-17 112.5zM256 305q0 -41 14.5 -70.5t35.5 -43.5t42.5 -21.5t35.5 -8.5l15 -1h113q6 0 15.5 1t34 8.5t43.5 21.5t34.5 43.5t15.5 70.5v144h-256q-6 0 -15.5 -1t-34 -9 t-43.5 -21.5t-34.5 -43t-15.5 -69.5zM817 610h256q6 0 16 1t35 9t44 21.5t35 43.5t16 71q0 40 -15 69.5t-36.5 43t-43 21t-36.5 8.5l-15 1h-110q-6 0 -16 -1t-35 -8.5t-44 -21t-35 -43t-16 -69.5v-146z" />
<glyph unicode="&#xe7;" horiz-adv-x="950" d="M137 305q0 -77 27 -136t63 -89.5t82.5 -49.5t75 -24t51.5 -6v-133h2q43 0 76 -33t33 -76q0 -44 -33 -77t-76 -33h-67v-90h67q130 0 197 47t67 119q0 42 -16 75t-38.5 50t-43 25.5t-35.5 8.5v117q59 2 107.5 18t78 40t51 53t31.5 57.5t16 52.5t7 39v14h-162 q0 -32 -14.5 -55.5t-36 -34.5t-42.5 -17t-35 -7h-15h-111q-41 0 -70.5 15t-43.5 36t-21.5 42.5t-8.5 36.5l-1 15v451q0 40 15 69.5t36.5 43t42.5 21t36 8.5l15 1h111q39 0 68 -11.5t42 -28t21 -33.5t9 -28l1 -12h166q0 56 -16.5 101t-43.5 72.5t-60 48t-66 30t-60 15 t-44 5.5l-17 1h-111q-63 0 -113.5 -16.5t-81.5 -43.5t-54.5 -59t-34 -64.5t-16.5 -59.5t-6 -44l-1 -16v-451z" />
<glyph unicode="&#xe8;" horiz-adv-x="958" d="M137 305v451q0 6 0.5 17t6.5 42.5t16.5 60t34 63.5t54.5 60.5t81.5 42.5t113.5 17h111q6 0 17.5 -0.5t43 -6.5t60.5 -16.5t64.5 -33.5t61 -53.5t43 -80.5t17.5 -112q0 -6 -0.5 -17.5t-6.5 -43t-16.5 -60.5t-34 -64.5t-54.5 -61t-81.5 -43t-113.5 -17.5h-256v-144 q0 -6 1 -15.5t8.5 -34.5t21.5 -44.5t43.5 -35t70.5 -15.5h418v-160h-418q-6 0 -17.5 0.5t-43 6.5t-60.5 16.5t-64.5 33.5t-61 54t-43 81.5t-17.5 112.5zM254 1507h168q67 -128 145 -288h-121q-33 48 -96 144t-96 144zM299 610h256q6 0 15.5 1t34.5 9t44.5 21.5t35 43.5 t15.5 71q0 40 -15 69.5t-36 43t-42.5 21t-36.5 8.5l-15 1h-111q-6 0 -15.5 -1t-34.5 -8.5t-44.5 -21t-35 -43t-15.5 -69.5v-146z" />
<glyph unicode="&#xe9;" horiz-adv-x="958" d="M137 305v451q0 6 0.5 17t6.5 42.5t16.5 60t34 63.5t54.5 60.5t81.5 42.5t113.5 17h111q6 0 17.5 -0.5t43 -6.5t60.5 -16.5t64.5 -33.5t61 -53.5t43 -80.5t17.5 -112q0 -6 -0.5 -17.5t-6.5 -43t-16.5 -60.5t-34 -64.5t-54.5 -61t-81.5 -43t-113.5 -17.5h-256v-144 q0 -6 1 -15.5t8.5 -34.5t21.5 -44.5t43.5 -35t70.5 -15.5h418v-160h-418q-6 0 -17.5 0.5t-43 6.5t-60.5 16.5t-64.5 33.5t-61 54t-43 81.5t-17.5 112.5zM299 610h256q6 0 15.5 1t34.5 9t44.5 21.5t35 43.5t15.5 71q0 40 -15 69.5t-36 43t-42.5 21t-36.5 8.5l-15 1h-111 q-6 0 -15.5 -1t-34.5 -8.5t-44.5 -21t-35 -43t-15.5 -69.5v-146zM440 1219h123q167 253 191 288h-168q-26 -51 -73 -144t-73 -144z" />
<glyph unicode="&#xea;" horiz-adv-x="958" d="M137 305v451q0 6 0.5 17t6.5 42.5t16.5 60t34 63.5t54.5 60.5t81.5 42.5t113.5 17h111q6 0 17.5 -0.5t43 -6.5t60.5 -16.5t64.5 -33.5t61 -53.5t43 -80.5t17.5 -112q0 -6 -0.5 -17.5t-6.5 -43t-16.5 -60.5t-34 -64.5t-54.5 -61t-81.5 -43t-113.5 -17.5h-256v-144 q0 -6 1 -15.5t8.5 -34.5t21.5 -44.5t43.5 -35t70.5 -15.5h418v-160h-418q-6 0 -17.5 0.5t-43 6.5t-60.5 16.5t-64.5 33.5t-61 54t-43 81.5t-17.5 112.5zM217 1221h145q24 29 73 92t69 88l143 -180h146q-39 48 -116 144t-116 144h-112q-206 -255 -232 -288zM299 610h256 q6 0 15.5 1t34.5 9t44.5 21.5t35 43.5t15.5 71q0 40 -15 69.5t-36 43t-42.5 21t-36.5 8.5l-15 1h-111q-6 0 -15.5 -1t-34.5 -8.5t-44.5 -21t-35 -43t-15.5 -69.5v-146z" />
<glyph unicode="&#xeb;" horiz-adv-x="958" d="M137 305v451q0 6 0.5 17t6.5 42.5t16.5 60t34 63.5t54.5 60.5t81.5 42.5t113.5 17h111q6 0 17.5 -0.5t43 -6.5t60.5 -16.5t64.5 -33.5t61 -53.5t43 -80.5t17.5 -112q0 -6 -0.5 -17.5t-6.5 -43t-16.5 -60.5t-34 -64.5t-54.5 -61t-81.5 -43t-113.5 -17.5h-256v-144 q0 -6 1 -15.5t8.5 -34.5t21.5 -44.5t43.5 -35t70.5 -15.5h418v-160h-418q-6 0 -17.5 0.5t-43 6.5t-60.5 16.5t-64.5 33.5t-61 54t-43 81.5t-17.5 112.5zM225 1264v178h181v-178h-181zM299 610h256q6 0 15.5 1t34.5 9t44.5 21.5t35 43.5t15.5 71q0 40 -15 69.5t-36 43 t-42.5 21t-36.5 8.5l-15 1h-111q-6 0 -15.5 -1t-34.5 -8.5t-44.5 -21t-35 -43t-15.5 -69.5v-146zM602 1264v178h180v-178h-180z" />
<glyph unicode="&#xec;" horiz-adv-x="557" d="M33 1507h168q67 -128 145 -288h-121q-33 48 -96 144t-96 144zM86 0v160h113v899h161v-899h111v-160h-385z" />
<glyph unicode="&#xed;" horiz-adv-x="557" d="M86 0v160h113v899h161v-899h111v-160h-385zM219 1219h123q22 34 59.5 91t68.5 104.5t62 92.5h-167q-26 -51 -73 -144t-73 -144z" />
<glyph unicode="&#xee;" horiz-adv-x="557" d="M-4 1221h145q24 29 73 92t69 88l143 -180h145q-39 48 -115.5 144t-115.5 144h-113q-163 -202 -231 -288zM86 0v160h113v899h161v-899h111v-160h-385z" />
<glyph unicode="&#xef;" horiz-adv-x="557" d="M4 1264v178h180v-178h-180zM86 0v160h113v899h161v-899h111v-160h-385zM381 1264v178h180v-178h-180z" />
<glyph unicode="&#xf0;" horiz-adv-x="989" d="M117 305v225q0 79 30 140.5t77.5 95.5t98.5 51t101 17h256v77q0 128 -119 273q-108 -131 -112 -135l-70 57l110 135q-113 77 -229 117q10 31 26 76.5t23 66.5q159 -44 287 -133q68 83 119 145q34 -30 67 -59l-116 -145q176 -186 176 -398v-606q0 -64 -20 -117t-52.5 -87 t-73.5 -57.5t-81.5 -33.5t-79.5 -10h-111q-80 0 -142 30t-96.5 77t-51.5 98t-17 100zM279 305q4 -145 145 -145h111q145 4 145 145v369h-256q-145 -4 -145 -144v-225z" />
<glyph unicode="&#xf1;" horiz-adv-x="1030" d="M158 0h161v754q0 6 1 15.5t9 34.5t21.5 44.5t43.5 35t71 15.5h110q6 0 16 -1t35 -8.5t44 -21.5t35 -43.5t16 -70.5v-754h162v760q0 62 -17 112t-44 80t-60 52.5t-66 32.5t-60 15.5t-44 5.5l-17 1h-110q-3 0 -8.5 -1t-20 -9.5t-25 -23.5t-19.5 -48t-9 -78l-158 160h-67 v-1059zM219 1239q11 78 62 163t112 85q9 0 18 -1.5t20.5 -5.5t19.5 -7t22 -10t20 -10.5t22 -12t20 -10.5q93 -50 124 -50q32 0 56.5 22t33.5 42.5t15 42.5h72q-6 -48 -29.5 -104t-64 -100t-83.5 -44q-39 0 -132 53.5t-134 53.5q-72 0 -104 -107h-70z" />
<glyph unicode="&#xf2;" horiz-adv-x="997" d="M137 305v451q0 6 0.5 17t6.5 42.5t16.5 60t33.5 63.5t54 60.5t81.5 42.5t112.5 17h113q6 0 17 -0.5t43 -6.5t60.5 -16.5t64 -33.5t60.5 -53.5t42.5 -80.5t17.5 -112v-451q0 -6 -0.5 -17t-6.5 -43t-16.5 -60.5t-33.5 -64t-54 -60.5t-81.5 -42.5t-112.5 -17.5h-113 q-6 0 -17 0.5t-43 6.5t-60.5 16.5t-64 33.5t-60.5 54t-42.5 81.5t-17.5 112.5zM252 1507h168q67 -128 145 -288h-121q-33 48 -96 144t-96 144zM299 305q0 -6 1 -15.5t8.5 -34.5t21 -44.5t43 -35t69.5 -15.5h113q6 0 15.5 1t34 8.5t43.5 21.5t34.5 43.5t15.5 70.5v451 q0 6 -1 15.5t-8.5 34t-21 43.5t-43 34.5t-69.5 15.5h-113q-6 0 -15.5 -1t-34 -8.5t-43.5 -21t-34.5 -43t-15.5 -69.5v-451z" />
<glyph unicode="&#xf3;" horiz-adv-x="997" d="M137 305v451q0 6 0.5 17t6.5 42.5t16.5 60t33.5 63.5t54 60.5t81.5 42.5t112.5 17h113q6 0 17 -0.5t43 -6.5t60.5 -16.5t64 -33.5t60.5 -53.5t42.5 -80.5t17.5 -112v-451q0 -6 -0.5 -17t-6.5 -43t-16.5 -60.5t-33.5 -64t-54 -60.5t-81.5 -42.5t-112.5 -17.5h-113 q-6 0 -17 0.5t-43 6.5t-60.5 16.5t-64 33.5t-60.5 54t-42.5 81.5t-17.5 112.5zM299 305q0 -6 1 -15.5t8.5 -34.5t21 -44.5t43 -35t69.5 -15.5h113q6 0 15.5 1t34 8.5t43.5 21.5t34.5 43.5t15.5 70.5v451q0 6 -1 15.5t-8.5 34t-21 43.5t-43 34.5t-69.5 15.5h-113 q-6 0 -15.5 -1t-34 -8.5t-43.5 -21t-34.5 -43t-15.5 -69.5v-451zM438 1219h123q167 253 191 288h-168q-26 -51 -73 -144t-73 -144z" />
<glyph unicode="&#xf4;" horiz-adv-x="997" d="M137 305v451q0 6 0.5 17t6.5 42.5t16.5 60t33.5 63.5t54 60.5t81.5 42.5t112.5 17h113q6 0 17 -0.5t43 -6.5t60.5 -16.5t64 -33.5t60.5 -53.5t42.5 -80.5t17.5 -112v-451q0 -6 -0.5 -17t-6.5 -43t-16.5 -60.5t-33.5 -64t-54 -60.5t-81.5 -42.5t-112.5 -17.5h-113 q-6 0 -17 0.5t-43 6.5t-60.5 16.5t-64 33.5t-60.5 54t-42.5 81.5t-17.5 112.5zM215 1221h145q24 29 73 92t69 88l143 -180h146q-39 48 -116 144t-116 144h-113q-163 -202 -231 -288zM299 305q0 -6 1 -15.5t8.5 -34.5t21 -44.5t43 -35t69.5 -15.5h113q6 0 15.5 1t34 8.5 t43.5 21.5t34.5 43.5t15.5 70.5v451q0 6 -1 15.5t-8.5 34t-21 43.5t-43 34.5t-69.5 15.5h-113q-6 0 -15.5 -1t-34 -8.5t-43.5 -21t-34.5 -43t-15.5 -69.5v-451z" />
<glyph unicode="&#xf5;" horiz-adv-x="997" d="M137 305v451q0 6 0.5 17t6.5 42.5t16.5 60t33.5 63.5t54 60.5t81.5 42.5t112.5 17h113q6 0 17 -0.5t43 -6.5t60.5 -16.5t64 -33.5t60.5 -53.5t42.5 -80.5t17.5 -112v-451q0 -6 -0.5 -17t-6.5 -43t-16.5 -60.5t-33.5 -64t-54 -60.5t-81.5 -42.5t-112.5 -17.5h-113 q-6 0 -17 0.5t-43 6.5t-60.5 16.5t-64 33.5t-60.5 54t-42.5 81.5t-17.5 112.5zM197 1239q11 78 62 163t112 85q33 0 83 -26.5t100 -53.5t83 -27q25 0 44.5 11.5t31.5 31t18 34t10 30.5h72q-6 -49 -29.5 -104.5t-63.5 -99.5t-83 -44q-32 0 -82 26.5t-100 53.5t-84 27 q-23 0 -42.5 -11.5t-31.5 -30.5t-19 -34t-12 -31h-69zM299 305q0 -6 1 -15.5t8.5 -34.5t21 -44.5t43 -35t69.5 -15.5h113q6 0 15.5 1t34 8.5t43.5 21.5t34.5 43.5t15.5 70.5v451q0 6 -1 15.5t-8.5 34t-21 43.5t-43 34.5t-69.5 15.5h-113q-6 0 -15.5 -1t-34 -8.5t-43.5 -21 t-34.5 -43t-15.5 -69.5v-451z" />
<glyph unicode="&#xf6;" horiz-adv-x="997" d="M137 305v451q0 6 0.5 17t6.5 42.5t16.5 60t33.5 63.5t54 60.5t81.5 42.5t112.5 17h113q6 0 17 -0.5t43 -6.5t60.5 -16.5t64 -33.5t60.5 -53.5t42.5 -80.5t17.5 -112v-451q0 -6 -0.5 -17t-6.5 -43t-16.5 -60.5t-33.5 -64t-54 -60.5t-81.5 -42.5t-112.5 -17.5h-113 q-6 0 -17 0.5t-43 6.5t-60.5 16.5t-64 33.5t-60.5 54t-42.5 81.5t-17.5 112.5zM223 1264v178h180v-178h-180zM299 305q0 -6 1 -15.5t8.5 -34.5t21 -44.5t43 -35t69.5 -15.5h113q6 0 15.5 1t34 8.5t43.5 21.5t34.5 43.5t15.5 70.5v451q0 6 -1 15.5t-8.5 34t-21 43.5t-43 34.5 t-69.5 15.5h-113q-6 0 -15.5 -1t-34 -8.5t-43.5 -21t-34.5 -43t-15.5 -69.5v-451zM600 1264v178h180v-178h-180z" />
<glyph unicode="&#xf7;" horiz-adv-x="1007" d="M86 449v161h836v-161h-836zM424 113v161h162v-161h-162zM424 786v162h162v-162h-162z" />
<glyph unicode="&#xf8;" horiz-adv-x="999" d="M137 305v451q0 6 0.5 17t6.5 42.5t16.5 60t34 63.5t54.5 60.5t81.5 42.5t113.5 17h113q10 0 27.5 -1.5t64 -14t82.5 -35.5l45 75l78 -49l-53 -86q61 -74 61 -192v-451q0 -6 -0.5 -17t-6.5 -43t-16.5 -60.5t-33.5 -64t-54 -60.5t-81.5 -42.5t-112.5 -17.5h-113 q-11 0 -28.5 1.5t-65 14t-84.5 35.5l-45 -74l-76 52l52 84q-60 77 -60 192zM301 289l348 581q-42 29 -92 29h-113q-6 0 -15.5 -1t-34 -8.5t-43.5 -21t-34.5 -43t-15.5 -69.5v-467zM350 190q33 -30 94 -30h113q6 0 15.5 1t34 8.5t43.5 21.5t34.5 43.5t15.5 70.5v451 q0 8 -2 18z" />
<glyph unicode="&#xf9;" horiz-adv-x="1028" d="M147 305q0 -62 17 -112.5t44 -81.5t59.5 -54t65 -33.5t59.5 -16.5t44 -7h17h112q3 0 8.5 1t19.5 9.5t24.5 23.5t19 48t8.5 78l160 -160h65v1059h-161v-754q0 -6 -1 -15.5t-9 -34.5t-21.5 -44.5t-43 -35t-69.5 -15.5h-112q-6 0 -15.5 1t-34.5 8.5t-44 21.5t-34.5 43.5 t-15.5 70.5v754h-162v-754zM264 1507h168q83 -160 146 -288h-121q-33 48 -96.5 144t-96.5 144z" />
<glyph unicode="&#xfa;" horiz-adv-x="1028" d="M147 305q0 -62 17 -112.5t44 -81.5t59.5 -54t65 -33.5t59.5 -16.5t44 -7h17h112q3 0 8.5 1t19.5 9.5t24.5 23.5t19 48t8.5 78l160 -160h65v1059h-161v-754q0 -6 -1 -15.5t-9 -34.5t-21.5 -44.5t-43 -35t-69.5 -15.5h-112q-6 0 -15.5 1t-34.5 8.5t-44 21.5t-34.5 43.5 t-15.5 70.5v754h-162v-754zM451 1219h122q167 253 191 288h-168l-71.5 -143t-73.5 -145z" />
<glyph unicode="&#xfb;" horiz-adv-x="1028" d="M147 305q0 -62 17 -112.5t44 -81.5t59.5 -54t65 -33.5t59.5 -16.5t44 -7h17h112q3 0 8.5 1t19.5 9.5t24.5 23.5t19 48t8.5 78l160 -160h65v1059h-161v-754q0 -6 -1 -15.5t-9 -34.5t-21.5 -44.5t-43 -35t-69.5 -15.5h-112q-6 0 -15.5 1t-34.5 8.5t-44 21.5t-34.5 43.5 t-15.5 70.5v754h-162v-754zM227 1221h146q23 29 72 92t69 88l143 -180h146q-39 48 -116 144t-116 144h-112q-206 -255 -232 -288z" />
<glyph unicode="&#xfc;" horiz-adv-x="1028" d="M147 305q0 -62 17 -112.5t44 -81.5t59.5 -54t65 -33.5t59.5 -16.5t44 -7h17h112q3 0 8.5 1t19.5 9.5t24.5 23.5t19 48t8.5 78l160 -160h65v1059h-161v-754q0 -6 -1 -15.5t-9 -34.5t-21.5 -44.5t-43 -35t-69.5 -15.5h-112q-6 0 -15.5 1t-34.5 8.5t-44 21.5t-34.5 43.5 t-15.5 70.5v754h-162v-754zM236 1264v178h180v-178h-180zM612 1264v178h181v-178h-181z" />
<glyph unicode="&#xfd;" horiz-adv-x="856" d="M14 -289h193q41 0 70.5 15t43.5 36t21.5 42t8.5 36l1 15v114l-325 1090h168l239 -873l238 873h170l-328 -1090v-114q0 -62 -17 -112t-44 -81t-59.5 -53.5t-65.5 -33t-60 -17t-44 -6.5l-17 -1h-193v160zM371 1219h123q22 34 59.5 91t68.5 104.5t62 92.5h-168 q-26 -50 -72 -143t-73 -145z" />
<glyph unicode="&#xfe;" horiz-adv-x="1019" d="M158 -449v1958h161l-2 -610q1 7 4 17.5t14.5 38t26.5 48.5t42.5 38.5t60.5 17.5h110q6 0 17.5 -0.5t43.5 -6.5t61 -16.5t64.5 -33.5t61 -53.5t43 -80.5t17.5 -112v-451q0 -62 -17 -112.5t-44 -81.5t-60 -54t-66 -33.5t-60 -16.5t-44 -7h-17h-256v-449h-161zM319 160h256 q6 0 16 1t35 8.5t44 21.5t35 43.5t16 70.5v451q0 6 -1 15.5t-9 34t-21.5 43.5t-43.5 34.5t-71 15.5h-110q-6 0 -16 -1t-35 -8.5t-44 -21t-35 -43t-16 -69.5v-596z" />
<glyph unicode="&#xff;" horiz-adv-x="856" d="M14 -289h193q41 0 70.5 15t43.5 36t21.5 42t8.5 36l1 15v114l-325 1090h168l239 -873l238 873h170l-328 -1090v-114q0 -62 -17 -112t-44 -81t-59.5 -53.5t-65.5 -33t-60 -17t-44 -6.5l-17 -1h-193v160zM156 1264v178h180v-178h-180zM532 1264v178h181v-178h-181z" />
<glyph unicode="&#x152;" horiz-adv-x="1599" d="M117 418v563q0 9 1 24t9 58t22.5 82.5t46 87.5t73.5 82.5t111.5 58t154.5 23.5q120 0 258 -103v103h720v-160h-561v-403h449v-160h-449v-514h561v-160h-720v102q-137 -102 -258 -102q-67 0 -124 14.5t-97 38.5t-73 55.5t-52.5 66t-34.5 69t-21.5 66t-10.5 55.5t-4 39z M279 418q0 -5 0.5 -14.5t5.5 -36.5t14 -51t28 -54t45 -51.5t68.5 -36t94.5 -14.5q53 0 95.5 14t68.5 37t45.5 50.5t28.5 55t14 50.5t5 37l1 14v563q0 5 -0.5 14.5t-5.5 36t-14 50.5t-28.5 53.5t-45.5 51t-68.5 36t-95.5 14.5q-52 0 -94.5 -14t-68.5 -36.5t-45 -50t-28 -55 t-14 -50t-5 -36.5l-1 -14v-563z" />
<glyph unicode="&#x153;" horiz-adv-x="1556" d="M137 305v451q0 6 0.5 17t6.5 42.5t16.5 60t33.5 63.5t53.5 60.5t80.5 42.5t112 17h113q13 0 35 -2.5t81.5 -24.5t108.5 -61q95 88 226 88h110q6 0 17 -0.5t43 -6.5t60.5 -16.5t64 -33.5t60.5 -53.5t42.5 -80.5t17.5 -112q0 -6 -0.5 -17.5t-6.5 -43t-16.5 -60.5 t-33.5 -64.5t-54 -61t-81.5 -43t-112.5 -17.5h-256v-144q0 -6 1 -15.5t9 -34.5t21.5 -44.5t43.5 -35t71 -15.5h415v-160h-415q-13 0 -35.5 2.5t-83 24.5t-109.5 61q-95 -88 -223 -88h-113q-6 0 -17 0.5t-42.5 6.5t-60 16.5t-63.5 33.5t-60.5 54t-42.5 81.5t-17 112.5z M297 305q0 -6 1 -15.5t8.5 -34.5t21 -44.5t43 -35t69.5 -15.5h113q6 0 15.5 1t34 8.5t43.5 21.5t34.5 43.5t15.5 70.5v451q0 6 -1 15.5t-8.5 34t-21 43.5t-43 34.5t-69.5 15.5h-113q-6 0 -15.5 -1t-34 -8.5t-43.5 -21t-34.5 -43t-15.5 -69.5v-451zM858 610h256q6 0 16 1 t35 9t44 21.5t35 43.5t16 71q0 40 -15 69.5t-36.5 43t-43 21t-36.5 8.5l-15 1h-110q-6 0 -16 -1t-35 -8.5t-44 -21t-35 -43t-16 -69.5v-146z" />
<glyph unicode="&#x178;" horiz-adv-x="876" d="M-27 1397h181l284 -631l287 631h178l-383 -795v-602h-162v602zM160 1567v178h180v-178h-180zM537 1567v178h180v-178h-180z" />
<glyph unicode="&#x2c6;" horiz-adv-x="747" d="M86 1221h145q24 29 73 92t69 88l143 -180h146q-39 48 -116 144t-116 144h-113q-163 -202 -231 -288z" />
<glyph unicode="&#x2dc;" horiz-adv-x="788" d="M86 1239q11 78 62 163t112 85q33 0 83 -26.5t100 -53.5t83 -27q25 0 44.5 11.5t31.5 31t18.5 34.5t10.5 30h71q-5 -35 -20 -77t-37.5 -80.5t-54 -64.5t-64.5 -26q-32 0 -82 26.5t-100 53.5t-84 27q-72 0 -104 -107h-70z" />
<glyph unicode="&#x2000;" horiz-adv-x="927" />
<glyph unicode="&#x2001;" horiz-adv-x="1855" />
<glyph unicode="&#x2002;" horiz-adv-x="927" />
<glyph unicode="&#x2003;" horiz-adv-x="1855" />
<glyph unicode="&#x2004;" horiz-adv-x="618" />
<glyph unicode="&#x2005;" horiz-adv-x="463" />
<glyph unicode="&#x2006;" horiz-adv-x="309" />
<glyph unicode="&#x2007;" horiz-adv-x="309" />
<glyph unicode="&#x2008;" horiz-adv-x="231" />
<glyph unicode="&#x2009;" horiz-adv-x="371" />
<glyph unicode="&#x200a;" horiz-adv-x="103" />
<glyph unicode="&#x2010;" horiz-adv-x="780" d="M86 449v161h608v-161h-608z" />
<glyph unicode="&#x2011;" horiz-adv-x="780" d="M86 449v161h608v-161h-608z" />
<glyph unicode="&#x2012;" horiz-adv-x="780" d="M86 449v161h608v-161h-608z" />
<glyph unicode="&#x2013;" horiz-adv-x="751" d="M14 483h723v103h-723v-103z" />
<glyph unicode="&#x2014;" horiz-adv-x="1310" d="M14 483v103h1282v-103h-1282z" />
<glyph unicode="&#x2018;" horiz-adv-x="370" d="M86 928v207q0 63 17.5 113.5t44.5 80t47 44t38 22.5q7 -11 24 -32t24 -32q-38 -15 -62 -41.5t-30.5 -54.5t-7 -53.5t2.5 -41.5l4 -16h97v-196h-199z" />
<glyph unicode="&#x2019;" horiz-adv-x="370" d="M86 1198v197h199v-207q0 -63 -17.5 -113.5t-45 -80t-47.5 -44t-38 -22.5q-7 12 -23.5 32t-23.5 31q38 15 62 41.5t30 54.5t7 53.5t-3 41.5l-4 16h-96z" />
<glyph unicode="&#x201a;" horiz-adv-x="370" d="M86 0v197h199v-207q0 -63 -17.5 -113.5t-45 -80t-47.5 -44t-38 -22.5q-7 12 -23.5 31.5t-23.5 31.5q38 15 62 41.5t30 54.5t7 53.5t-3 41.5l-4 16h-96z" />
<glyph unicode="&#x201c;" horiz-adv-x="698" d="M86 928v207q0 63 17.5 113.5t44.5 80t47 44t38 22.5q7 -11 24 -32t24 -32q-38 -15 -62 -41.5t-30.5 -54.5t-7 -53.5t2.5 -41.5l4 -16h97v-196h-199zM414 928v207q0 63 17.5 113.5t44.5 80t47 44t38 22.5q7 -12 23.5 -32.5t23.5 -31.5q-38 -15 -62 -41.5t-30 -54.5 t-7 -53.5t3 -41.5l4 -16h96v-196h-198z" />
<glyph unicode="&#x201d;" horiz-adv-x="698" d="M86 1198v197h199v-207q0 -63 -17.5 -113.5t-45 -80t-47.5 -44t-38 -22.5q-7 12 -23.5 32t-23.5 31q38 15 62 41.5t30 54.5t7 53.5t-3 41.5l-4 16h-96zM414 1198v197h198v-207q0 -63 -17.5 -113.5t-44.5 -80t-47 -44t-38 -22.5q-7 11 -23.5 31.5t-23.5 31.5q38 15 62 41.5 t30 54.5t7 53.5t-3 41.5l-4 16h-96z" />
<glyph unicode="&#x201e;" horiz-adv-x="739" d="M86 0v197h199v-207q0 -63 -17.5 -113.5t-45 -80t-47.5 -44t-38 -22.5q-7 12 -23.5 31.5t-23.5 31.5q38 15 62 41.5t30 54.5t7 53.5t-3 41.5l-4 16h-96zM455 0v197h198v-207q0 -63 -17.5 -113.5t-44.5 -80t-47 -44t-38 -22.5q-7 11 -23.5 31t-23.5 32q38 15 62 41.5 t30 54.5t7 53.5t-3 41.5l-4 16h-96z" />
<glyph unicode="&#x2022;" horiz-adv-x="624" d="M86 530q0 -95 65.5 -161t159.5 -66q95 0 161.5 66t66.5 161q0 94 -66.5 160t-161.5 66q-94 0 -159.5 -66t-65.5 -160z" />
<glyph unicode="&#x2026;" horiz-adv-x="1425" d="M86 154l154 151l151 -151l-151 -152zM561 154l152 151l153 -151l-153 -152zM1036 154l152 151l151 -151l-151 -152z" />
<glyph unicode="&#x202f;" horiz-adv-x="371" />
<glyph unicode="&#x2039;" horiz-adv-x="690" d="M55 530q319 338 396 418h184l-389 -418q59 -63 190.5 -204.5t198.5 -212.5h-184z" />
<glyph unicode="&#x203a;" horiz-adv-x="692" d="M55 113h185q218 228 397 417q-67 72 -198.5 209t-198.5 209h-185q67 -71 198 -212.5t191 -205.5z" />
<glyph unicode="&#x205f;" horiz-adv-x="463" />
<glyph unicode="&#x20ac;" horiz-adv-x="1310" d="M14 305v96l199 48q-34 78 -43 172l-156 -37v94l152 35q4 188 98 345.5t253.5 249t346.5 91.5q209 0 391 -119l-90 -133q-139 92 -301 92q-208 0 -362 -140.5t-174 -346.5l862 209v-95l-862 -209q6 -91 41 -172l821 197v-94l-774 -187q73 -111 192 -176t256 -65 q166 0 299 90l92 -129q-177 -121 -391 -121q-194 0 -357.5 98t-254.5 262z" />
<glyph unicode="&#x2122;" horiz-adv-x="1181" d="M25 1309v90h415v-90h-164v-437h-90v437h-161zM569 872v527h105l157 -283l160 283h105v-527h-90v367l-175 -303l-172 303v-367h-90z" />
<glyph unicode="&#xe000;" horiz-adv-x="1054" d="M0 0v1055h1055v-1055h-1055z" />
<glyph unicode="&#xfb01;" horiz-adv-x="1114" d="M66 899v160h157q-114 107 -114 190q0 53 16.5 96t43.5 69.5t59 46t64.5 28.5t59.5 14t44 5l16 1h526v-161h-526q-40 0 -69.5 -15t-43 -36t-21.5 -42t-9 -36l-1 -15q0 -6 1 -15.5t7 -34.5t15.5 -44.5t30.5 -35t49 -15.5h192v-160h-223v-899h-162v899h-112zM664 0v160h112 v899h162v-899h111v-160h-385z" />
<glyph unicode="&#xfb02;" horiz-adv-x="1114" d="M66 899v160h157q-114 107 -114 190q0 53 16.5 96t43.5 69.5t59 46t64.5 28.5t59.5 14t44 5l16 1h526v-1349h111v-160h-385v160h112v1188h-364q-40 0 -69.5 -15t-43 -36t-21.5 -42t-9 -36l-1 -15q0 -6 1 -15.5t7 -34.5t15.5 -44.5t30.5 -35t49 -15.5h192v-160h-223v-899 h-162v899h-112z" />
</font>
</defs>
</svg>
