<?xml version="1.0" standalone="no"?>
<!DOCTYPE svg PUBLIC "-//W3C//DTD SVG 1.1//EN" "http://www.w3.org/Graphics/SVG/1.1/DTD/svg11.dtd" >
<svg xmlns="http://www.w3.org/2000/svg">
<metadata></metadata>
<defs>
<font id="AUdimatBoldItalic" horiz-adv-x="983" >
<font-face units-per-em="2048" ascent="1563" descent="-485" />
<missing-glyph horiz-adv-x="614" />
<glyph horiz-adv-x="0" />
<glyph horiz-adv-x="2048" />
<glyph unicode="&#xd;" horiz-adv-x="0" />
<glyph unicode=" "  horiz-adv-x="614" />
<glyph unicode="&#x09;" horiz-adv-x="614" />
<glyph unicode="&#xa0;" horiz-adv-x="614" />
<glyph unicode="!" horiz-adv-x="512" d="M55 0l37 215h215l-37 -215h-215zM174 430l72 768l35 201h258l-35 -201l-201 -768h-129z" />
<glyph unicode="&#x22;" horiz-adv-x="735" d="M178 1137l47 262h197l-47 -262l-123 -328h-66zM573 1137l48 262h196l-47 -262l-123 -328h-65z" />
<glyph unicode="#" horiz-adv-x="1280" d="M66 324l38 215h193l100 321h-129l37 215h158l100 324h217l-100 -324h213l100 324h217l-100 -324h164l-37 -215h-193l-100 -321h127l-39 -215h-155l-99 -324h-217l98 324h-213l-98 -324h-217l98 324h-163zM514 539h213l100 321h-213z" />
<glyph unicode="$" horiz-adv-x="1003" d="M88 0l37 215h246l67 381q-61 8 -110.5 31t-81 54.5t-55 71t-32 80.5t-11.5 83t6 79q11 59 41.5 120t80.5 120t129 102.5t173 55.5l20 112h152l-19 -106h248l-39 -215h-248l-67 -383q61 -8 110.5 -31t81 -55t55 -71t32 -80t11.5 -83t-6 -78q-8 -47 -28.5 -96t-56.5 -99.5 t-83 -91.5t-113.5 -71.5t-142.5 -40.5l-20 -113h-152l21 109h-246zM366 965q-1 -15 3 -39.5t14.5 -44t34.5 -38.5t59 -28l64 359q-46 -11 -81 -35t-53 -53t-26.5 -50.5t-11.5 -40.5q-2 -15 -3 -30zM524 223q46 12 80.5 36t52 53t26 50t11.5 39q5 13 2.5 39.5t-8.5 53.5 t-32 52t-68 36z" />
<glyph unicode="%" horiz-adv-x="1820" d="M158 1022q28 155 157.5 266t284.5 111q156 0 246.5 -110.5t62.5 -266.5q-17 -103 -82.5 -189.5t-161 -137t-198.5 -50.5q-155 0 -245 110t-64 267zM301 0l1081 1399h177l-1082 -1399h-176zM350 1022q-12 -75 32.5 -128.5t119.5 -53.5q77 0 140 53.5t75 128.5 q14 75 -31 128.5t-121 53.5q-75 0 -138.5 -53.5t-76.5 -128.5zM969 377q28 156 157 266.5t285 110.5q155 0 247 -111t64 -266q-28 -157 -157.5 -267t-284.5 -110q-157 0 -248 110t-63 267zM1163 377q-13 -75 31 -128.5t119 -53.5t138.5 53.5t76.5 128.5t-31 128.5t-119 53.5 t-138.5 -53.5t-76.5 -128.5z" />
<glyph unicode="&#x26;" horiz-adv-x="1071" d="M80 403q34 186 186 295q-115 115 -82 297q15 85 56 155t94 115t116.5 76t122.5 44.5t113 13.5h324l-39 -215h-322q-16 -1 -30 -3t-43.5 -7.5t-54.5 -19t-51 -32.5t-45 -52t-26 -75q-9 -50 4.5 -87t36 -55.5t55 -29.5t52.5 -13.5t37 -2.5h106l29 162h215l-29 -162h215 l-39 -215h-215l-26 -162h-215l26 162h-106q-17 0 -38 -2.5t-56.5 -13.5t-65 -30t-55.5 -56t-35 -87t4 -87t36 -55.5t54.5 -29.5t51.5 -13.5t36 -2.5h430l-37 -215h-430q-54 0 -108.5 13t-107 44t-89.5 75.5t-53.5 115t-1.5 155.5z" />
<glyph unicode="'" horiz-adv-x="339" d="M178 1137l47 262h197l-47 -262l-123 -328h-66z" />
<glyph unicode="(" horiz-adv-x="630" d="M104 539q22 129 67 258.5t102.5 241t110 196.5t110.5 164h249q-50 -62 -99.5 -133t-119.5 -187.5t-125.5 -258.5t-79.5 -281q-17 -96 -20 -194t7.5 -183t25 -159t37 -140.5t38.5 -108t33 -78.5h-250q-164 431 -86 863z" />
<glyph unicode=")" horiz-adv-x="630" d="M-106 -324h247q127 173 235.5 395t153.5 468q22 129 23 258.5t-16.5 240.5t-40 197t-52.5 164h-249q17 -37 33 -78.5t38 -107.5t36.5 -140t24.5 -159t7.5 -182.5t-19.5 -192.5q-20 -114 -63 -233t-88.5 -209t-102.5 -182t-93 -141.5t-74 -97.5z" />
<glyph unicode="*" horiz-adv-x="796" d="M174 1114q20 63 68 125l198 -61l45 213q46 8 68 8q27 0 63 -8l-30 -213l221 61q23 -54 20 -125l-221 -74l94 -192q-50 -50 -114 -78l-111 184l-176 -184q-52 25 -92 78l166 192z" />
<glyph unicode="+" horiz-adv-x="1003" d="M55 430l37 215h322l57 324h215l-57 -324h323l-37 -215h-323l-57 -321h-216l58 321h-322z" />
<glyph unicode="," horiz-adv-x="358" d="M-55 -188q41 15 70.5 39.5t43 49.5t21 48t8.5 37v14h-108l36 215h215l-36 -215q-11 -60 -36.5 -110t-54 -78t-56 -47.5t-44.5 -26.5l-18 -6z" />
<glyph unicode="-" horiz-adv-x="788" d="M55 430l37 215h645l-37 -215h-645z" />
<glyph unicode="." horiz-adv-x="358" d="M-20 2l36 215h215l-36 -215h-215z" />
<glyph unicode="/" horiz-adv-x="653" d="M-70 -215l621 1614h194l-620 -1614h-195z" />
<glyph unicode="0" horiz-adv-x="997" d="M82.5 259.5q-1.5 28.5 1.5 46.5l2 18l133 751q12 66 39 119.5t61 86.5t73 57.5t75 35.5t65.5 17.5t47.5 6.5l18 1h109q66 0 116 -18t77.5 -46.5t45.5 -63t23 -69t6 -63t-1 -46.5l-3 -18l-133 -751q-11 -66 -38 -119.5t-61 -86.5t-72.5 -57.5t-74.5 -35.5t-65.5 -17.5 t-47.5 -7.5h-18h-109q-66 0 -116 18t-77.5 46.5t-46 63t-23.5 69t-6.5 63zM301 324q-5 -31 2 -53t21 -32.5t28.5 -16.5t25.5 -6l11 -1h109q30 0 53.5 11t36.5 27.5t21.5 32.5t10.5 27l3 11l133 751q5 31 -2 53t-21 32.5t-28.5 16.5t-25.5 7h-11h-109q-30 0 -53.5 -11 t-36.5 -27t-21.5 -32.5t-11.5 -27.5l-2 -11z" />
<glyph unicode="1" horiz-adv-x="727" d="M-31 0l37 215h215l170 969h-215l39 215h430l-209 -1184h215l-37 -215h-645z" />
<glyph unicode="2" horiz-adv-x="884" d="M12 0l37 215q12 11 33.5 30t83 79.5t119 121t129.5 146t126.5 163t98 164t55.5 156.5q9 58 -17.5 82.5t-70.5 26.5h-108q-59 0 -88.5 -32.5t-36.5 -78.5l-215 2q9 52 36 105.5t72 104t115.5 82.5t155.5 32h108q41 0 81 -11t80 -34.5t66 -61.5t38.5 -92t-1.5 -125 q-15 -83 -55 -175.5t-92 -174t-111.5 -160t-116.5 -141t-103.5 -110t-74.5 -73.5l-28 -26h430l-37 -215h-709z" />
<glyph unicode="3" horiz-adv-x="937" d="M21.5 260.5q0.5 -33.5 6.5 -64.5t24 -68t46 -64t78.5 -45.5t116.5 -18.5h106q7 0 18.5 0.5t46.5 7t67.5 17.5t74 35.5t74 57.5t60 86.5t38.5 119.5l21 106q16 94 -3 153.5t-65 114.5q137 126 162 271l18 106q11 69 3 120t-31 86t-53 57.5t-62.5 35t-60 18t-45.5 6.5 l-17 1h-106q-66 0 -123 -18t-94.5 -46.5t-68 -63t-47.5 -69t-28.5 -63t-15.5 -46.5l-4 -18h215q5 31 20 53t32.5 32.5t34.5 16.5t28 7h12h106q22 0 39 -6t26.5 -15.5t15.5 -21t8 -23.5t2.5 -21.5t-0.5 -15.5l-1 -6l-18 -108q-3 -17 -8.5 -33.5t-20 -41t-34 -42t-53 -30.5 t-75.5 -13h-51l-41 -215h54q63 -3 88 -15q67 -33 47 -147l-21 -106q-1 -4 -2.5 -11.5t-10.5 -26.5t-22 -33t-37 -26t-55 -12h-106q-4 0 -11.5 0.5t-25 6.5t-30 16.5t-20.5 32.5t-3 53h-215q-1 -7 -2.5 -18.5t-1 -45z" />
<glyph unicode="4" horiz-adv-x="858" d="M4 324l39 215l430 860h238l-453 -860h240l37 215h215l-37 -215h106l-39 -215h-106l-56 -324h-215l56 324h-455z" />
<glyph unicode="5" horiz-adv-x="948" d="M82.5 259.5q-1.5 28.5 1.5 46.5l2 18h215q-5 -31 2.5 -53t21.5 -32.5t29 -16.5t26 -6l11 -1h107q31 0 55 11t37 27.5t21.5 32.5t10.5 27l3 11l39 215q1 4 1.5 11.5t-2.5 25.5t-10.5 32t-28 25.5t-51.5 11.5h-430l133 754h689l-39 -215h-473l-56 -324h215 q66 0 116.5 -17.5t78.5 -46t46 -63t23 -68.5t6.5 -62.5t-0.5 -46.5l-3 -17l-39 -215q-11 -66 -38 -119.5t-61 -86.5t-73 -57.5t-75.5 -35.5t-66 -17.5t-47.5 -7.5h-18h-107q-66 0 -116.5 18t-78.5 46.5t-46.5 63t-23.5 69t-6.5 63z" />
<glyph unicode="6" horiz-adv-x="946" d="M81 254.5q-3 36.5 5 69.5l133 751q9 52 36 105.5t72 104t115.5 82.5t155.5 32h387l-39 -215h-387q-58 0 -88 -32t-37 -77l-37 -215h215q57 0 103 -15t75.5 -39.5t51 -57.5t29.5 -68.5t11 -72t-5 -68.5l-39 -215q-12 -68 -42.5 -124.5t-70.5 -92.5t-87.5 -61t-91.5 -35.5 t-85 -10.5h-109q-57 0 -103.5 15t-76 40t-51.5 58t-29.5 69t-10.5 72.5zM301 324q-7 -45 11.5 -77t76.5 -32h107q110 5 127 109l39 213q13 108 -89 108h-215q-55 -319 -57 -321z" />
<glyph unicode="7" horiz-adv-x="790" d="M119 0l551 1184h-535l39 215h750l-35 -195l-555 -1204h-215z" />
<glyph unicode="8" horiz-adv-x="999" d="M82.5 259.5q-1.5 28.5 1.5 46.5l2 18l27 149q30 163 147 246q-24 27 -39 62.5t-19 67t-5 59.5t1 44l3 17l18 106q12 66 39 119.5t61.5 86.5t73.5 57.5t75.5 35.5t66 17.5t47.5 6.5l18 1h107q66 0 116.5 -18t78 -46.5t46 -63t23 -69t6 -63t-0.5 -46.5l-3 -18l-19 -106 q-31 -166 -149 -248q25 -26 40 -61.5t19.5 -67t5.5 -59t-2 -43.5l-2 -17l-26 -149q-11 -66 -38 -119.5t-61 -86.5t-73 -57.5t-75.5 -35.5t-66 -17.5t-47.5 -7.5h-18h-107q-66 0 -116.5 18t-78.5 46.5t-46.5 63t-23.5 69t-6.5 63zM301 324q-5 -31 2.5 -53t21.5 -32.5 t29 -16.5t26 -6l11 -1h107q31 0 55 11t37 27.5t21.5 32.5t10.5 27l3 11l34 192q5 31 -2.5 53t-21.5 32.5t-29 16.5t-26 6l-11 1h-106q-31 0 -55 -11t-37 -27.5t-21.5 -32.5t-11.5 -27l-2 -11zM408 926q-5 -31 2.5 -53t21.5 -32.5t29 -16.5t26 -6l11 -1h106q31 0 55 11 t37 27.5t21.5 32.5t10.5 27l3 11l27 149q5 31 -2.5 53t-21.5 32.5t-29 16.5t-26 7h-11h-107q-31 0 -55 -11t-37 -27t-21.5 -32.5t-11.5 -27.5l-2 -11z" />
<glyph unicode="9" horiz-adv-x="948" d="M23 0l36 215h387q58 0 88 32t39 77l39 215h-215q-57 0 -104 15t-76.5 39.5t-51 57.5t-29.5 68.5t-10.5 72t5.5 68.5l37 215q15 85 58.5 150.5t100 101.5t113 54t109.5 18h106q57 0 104 -15t76.5 -40.5t51 -58.5t29.5 -69t11 -72.5t-5 -68.5l-134 -751q-9 -53 -36 -106.5 t-71.5 -104t-115 -82t-155.5 -31.5h-387zM346 862q-17 -108 88 -108h215q58 317 58 319q13 111 -91 111h-106q-46 -2 -82 -26.5t-45 -82.5z" />
<glyph unicode=":" horiz-adv-x="358" d="M-20 2l36 215h215l-36 -215h-215zM111 754l39 215h215l-39 -215h-215z" />
<glyph unicode=";" horiz-adv-x="358" d="M-55 -188q41 15 70.5 39.5t43 49.5t21 48t8.5 37v14h-108l36 215h215l-36 -215q-11 -60 -36.5 -110t-54 -78t-56 -47.5t-44.5 -26.5l-18 -6zM111 754l39 215h215l-39 -215h-215z" />
<glyph unicode="&#x3c;" horiz-adv-x="876" d="M27 453l30 172l875 450l-45 -258l-586 -278l487 -281l-45 -258z" />
<glyph unicode="=" horiz-adv-x="1003" d="M16 215l39 215h860l-38 -215h-861zM92 645l39 215h860l-39 -215h-860z" />
<glyph unicode="&#x3e;" horiz-adv-x="876" d="M-51 0l872 453l31 172l-715 450l-45 -258l488 -278l-586 -281z" />
<glyph unicode="?" horiz-adv-x="894" d="M168 1075q15 85 58.5 150.5t99.5 101.5t112.5 54t108.5 18h108q52 0 102.5 -18t94 -54t63.5 -101.5t5 -150.5q-9 -49 -29.5 -93t-56 -87.5t-62 -70.5t-74.5 -72q-8 -8 -36 -34.5t-38.5 -37t-34.5 -35t-35 -39t-29 -38.5t-27 -43.5t-18 -44.5t-13 -50h-154 q26 151 89 259.5t159 201.5q72 69 104.5 108t39.5 76q9 58 -18 82.5t-71 26.5h-106q-46 -2 -82 -26.5t-45 -82.5h-215zM215 0l37 215h215l-37 -215h-215z" />
<glyph unicode="@" horiz-adv-x="1300" d="M66 324q25 134 136 227.5t244 93.5h322l-57 -321q-8 -44 19 -76.5t71 -32.5t80.5 32.5t44.5 76.5l75 430q6 30 -1 51.5t-20.5 31.5t-28 16t-25.5 7h-11h-753l37 215h753q66 0 116 -17.5t77.5 -46t45.5 -63t23 -68.5t6.5 -62.5t-0.5 -45.5l-3 -18l-76 -430 q-23 -134 -133.5 -229t-243.5 -95q-74 0 -133.5 31t-93.5 86q-87 -117 -203 -117q-134 0 -212.5 95.5t-55.5 228.5zM281 324q-8 -44 19 -76.5t71 -32.5t80.5 32.5t44.5 76.5l20 106h-106q-45 0 -83.5 -31t-45.5 -75z" />
<glyph unicode="A" d="M-113 0l619 1399h278l127 -1399h-221l-20 215h-467l-94 -215h-222zM299 430h352l-45 754z" />
<glyph unicode="B" horiz-adv-x="1085" d="M51 0l246 1399h420q164 0 260 -117q74 -90 74 -209q0 -36 -7 -74q-27 -155 -157 -272q61 -59 87 -141q15 -50 16 -103q0 -36 -7 -73q-31 -170 -170.5 -290t-308.5 -120h-453zM303 215h238q80 0 146 56.5t81 138.5q3 17 3 33q-1 59 -37 103q-46 56 -126 56l2 2 q-12 -2 -35 -2h-204zM410 817h204q75 0 138.5 53.5t76.5 128.5q3 16 3 32q0 57 -35 99q-44 54 -119 54h-205z" />
<glyph unicode="C" horiz-adv-x="1034" d="M82 346q0 -44 7.5 -85.5t31 -91t61 -85t104 -60t154.5 -24.5t163 23.5t125.5 61.5t91 84t63 92t38 84t21.5 61l4 24h-215q-2 -9 -5.5 -23.5t-22 -51.5t-44 -65.5t-74 -51.5t-108.5 -23q-44 0 -77.5 12t-51.5 31t-30 41.5t-15.5 45.5t-4 42t1.5 31l1 12l94 539q1 4 2.5 12 t10 30.5t19 42.5t31 45t45.5 43t62.5 30t81.5 12t77.5 -12t52 -31t30.5 -42t15.5 -45.5t4.5 -41.5t-1 -31l-1 -12h215q2 9 4 25q1 12 1 39q-1 9 -1 21q0 44 -7.5 85t-31 90.5t-61 85t-104 60t-154.5 24.5t-163 -23.5t-125.5 -61.5t-91 -84t-63 -92t-38 -84t-20.5 -62l-5 -23 l-94 -539q-2 -8 -4 -24q-1 -12 -1 -40q1 -9 1 -20z" />
<glyph unicode="D" horiz-adv-x="1105" d="M51 0l246 1399h430q5 0 14.5 -0.5t39 -4t55 -11.5t64 -22t65 -36t58.5 -53.5t44 -74.5t22 -100q4 -21 3 -43q0 -40 -11 -85l-94 -539q-2 -9 -5.5 -24.5t-20 -60t-38 -85.5t-63 -90.5t-91 -85t-125 -60t-163.5 -24.5h-430zM303 215h215q44 0 81.5 12t63 31t45.5 41.5 t31.5 45.5t19.5 42t11 31l2 12l94 539q4 24 4 46q0 33 -8 59q-14 44 -42.5 64t-58 31.5t-51.5 12.5l-22 2h-215z" />
<glyph unicode="E" horiz-adv-x="927" d="M80 403q34 188 184 295q-87 87 -87 217q0 38 7 80q15 85 56 155t94 115t116.5 76t122.5 44.5t113 13.5h324l-39 -215h-324q-15 -1 -29 -3t-43.5 -7.5t-54 -19t-50.5 -32.5t-45 -52t-26 -75q-4 -20 -3 -38q0 -27 8 -49q14 -37 36 -55.5t54 -29.5t52 -13.5t36 -2.5h215 l-39 -215h-215q-16 0 -36.5 -2.5t-56.5 -13.5t-65 -30t-55 -56t-35 -87q-4 -20 -4 -39q0 -26 8 -48q13 -37 36 -55.5t54.5 -29.5t51.5 -13.5t36 -2.5h324l-37 -215h-324q-54 0 -108.5 13t-107 44t-89.5 75q-37 46 -53 116q-9 37 -9 77q0 38 7 78z" />
<glyph unicode="F" horiz-adv-x="849" d="M51 0l246 1399h645l-39 -215h-430l-76 -430h430l-36 -215h-431l-94 -539h-215z" />
<glyph unicode="G" horiz-adv-x="1064" d="M82 376q0 25 2 40l2 14l94 539q2 9 5.5 24.5t20 60t38 85.5t63 90.5t91 85t125 60t163.5 24.5q69 0 125 -14.5t93 -39.5t65 -57.5t42 -68t23 -71t10 -68.5q1 -21 1 -40q0 -9 -1 -17q0 -25 -2 -39l-2 -15h-215q1 4 2 12t0.5 30.5t-4.5 42.5t-16 45t-30.5 43t-52 30 t-77.5 12q-60 0 -108 -22t-74 -54t-43 -63.5t-22 -53.5l-5 -22l-94 -539q-1 -4 -2 -12t-0.5 -30.5t4 -42.5t15 -45t30 -43t52 -30t77.5 -12t81.5 12t63 31t45.5 41.5t31.5 45.5t19.5 42t10 31l3 12l19 109h-215l36 215h430l-55 -324q-16 -88 -52 -159t-81.5 -114.5t-97 -76 t-100 -47t-88 -23t-63.5 -9.5l-24 -1q-69 0 -125 14.5t-93 39.5t-65 57.5t-42 68t-23 71t-10 67.5q-1 22 -1 40q0 10 1 18z" />
<glyph unicode="H" horiz-adv-x="1146" d="M51 0l246 1399h215l-94 -539h430l94 539h215l-246 -1399h-215l113 645h-430l-113 -645h-215z" />
<glyph unicode="I" horiz-adv-x="501" d="M51 0h215l246 1399h-215z" />
<glyph unicode="J" horiz-adv-x="768" d="M-37 324h215q-2 -10 -2 -20q0 -32 20 -56q26 -33 70 -33t81.5 32.5t45.5 76.5l191 1075h215l-191 -1075q-23 -134 -134.5 -229t-244.5 -95t-211 95q-60 73 -60 170q0 28 5 59z" />
<glyph unicode="K" horiz-adv-x="1097" d="M51 0l246 1399h215l-111 -627l549 627h262l-462 -529l256 -870h-248l-199 688l-211 -215l-82 -473h-215z" />
<glyph unicode="L" horiz-adv-x="790" d="M51 0h668l37 215h-453l209 1184h-215z" />
<glyph unicode="M" horiz-adv-x="1361" d="M51 0l246 1399h215l229 -537l416 537h215l-246 -1399h-215l174 993l-421 -565l-224 565l-174 -993h-215z" />
<glyph unicode="N" horiz-adv-x="1146" d="M51 0l246 1399h215l270 -910l160 910h215l-246 -1399h-215l-270 909l-160 -909h-215z" />
<glyph unicode="O" horiz-adv-x="1064" d="M82 376q0 25 2 40l2 14l94 539q2 9 5.5 24.5t20 60t38 85.5t63 90.5t91 85t125 60t163.5 24.5q69 0 125 -14.5t93 -39.5t65 -57.5t42 -68t23 -71.5t10 -68q1 -22 1 -40v-17q0 -25 -3 -39l-2 -15l-94 -539q-2 -9 -5.5 -24.5t-20 -60t-38 -85.5t-63 -90.5t-91 -85t-125 -60 t-163.5 -24.5q-69 0 -125 14.5t-93 39.5t-65 57.5t-42 68t-23 71t-10 67.5q-1 22 -1 40q1 10 1 18zM298 388q0 -22 4 -42.5t15.5 -45.5t30 -43t52 -30t77.5 -12t81.5 12t63 31t45.5 41.5t31.5 45.5t19.5 42t10 31l3 12l94 539q1 4 2 12q1 5 1 17v14q0 22 -4.5 42t-16.5 45 t-30.5 43t-52 30t-77.5 12q-60 0 -108 -22t-74 -54t-43 -63.5t-22 -53.5l-5 -22l-94 -539q-1 -4 -2 -12q-1 -5 -1 -17v-13z" />
<glyph unicode="P" horiz-adv-x="1044" d="M51 0l246 1397h430q5 0 14.5 -0.5t39 -4t55 -11.5t64 -22t65 -36t58.5 -53.5t44 -74.5t22 -100q4 -21 3 -43q0 -40 -11 -85q-16 -88 -52 -159t-81.5 -114.5t-97 -76t-100 -47t-88 -23t-63.5 -9.5l-24 -1h-215l-94 -537h-215zM397 752h215q9 0 23.5 1.5t54 13t71.5 31.5 t63 64.5t42 104.5q4 24 4 46q0 33 -8 59q-14 44 -42.5 64t-58 31.5t-51.5 12.5l-22 2h-215z" />
<glyph unicode="Q" horiz-adv-x="1064" d="M81 326q-1 16 -1 29t1 25q1 23 3 36l2 14l94 539q2 9 5.5 24.5t20 60t38 85.5t63 90.5t91 85t125 60t163.5 24.5q69 0 125 -14.5t93 -39.5t65 -57.5t42 -68t23 -71t10 -68.5q1 -21 1 -40q0 -9 -1 -17q0 -25 -2 -39l-2 -15l-94 -539q-1 -6 -3.5 -16t-12 -41t-22.5 -61 t-37 -70.5t-53 -74.5t-72 -68t-93 -56q44 -54 82 -90q119 -110 277 -148l-88 -213q-199 49 -353 191q-83 77 -180 219q-61 5 -110 23t-81 44t-55.5 58.5t-35.5 66.5t-19.5 68t-8.5 64zM298 388q1 -23 4.5 -43t15 -45t30 -43t52 -30t77.5 -12t81.5 12t63 31t45.5 41.5 t31.5 45.5t19.5 42t10 31l3 12l94 539q1 4 2 12q1 5 1 17v14q-1 22 -5 42t-16 45t-30.5 43t-52 30t-77.5 12q-60 0 -108 -22t-74 -54t-43 -63.5t-22 -53.5l-5 -22l-94 -539q-1 -4 -2 -12q-1 -5 -1 -17v-13z" />
<glyph unicode="R" horiz-adv-x="1105" d="M51 0l246 1397h430q5 0 14.5 -0.5t39 -4t55 -11.5t64 -22t65 -36t58.5 -53.5t44 -74.5t22 -100q4 -21 3 -43q0 -40 -11 -85q-14 -80 -46.5 -146.5t-71 -109.5t-88 -76t-91 -50t-86.5 -28l213 -557h-245l-205 537h-101l-94 -537h-215zM397 752l228 2q19 2 39.5 6t54.5 18 t61 35.5t52 61.5t34 92q4 24 4 46q0 33 -8 59q-14 44 -42.5 64t-58 31.5t-51.5 12.5l-22 2h-215z" />
<glyph unicode="S" d="M76 0l37 213h323q8 0 21 1t47.5 9.5t62.5 23t54 46t34 74.5q1 8 1 16q0 31 -21 65q-27 42 -74.5 80t-106.5 80t-117.5 88.5t-104.5 96t-70 111.5q-16 43 -16 87q0 20 4 41q21 115 94 199.5t176.5 126t224.5 41.5h322l-39 -215h-322q-4 0 -11 -0.5t-28 -3.5t-40 -8 t-43.5 -16.5t-43 -27t-34 -40.5t-21.5 -56l-2 -16q1 -30 23 -64q28 -42 76 -80.5t107 -80.5t117.5 -88.5t105.5 -96.5q46 -50 70 -112q16 -41 15 -83q0 -22 -4 -44q-30 -172 -169 -269.5t-325 -97.5h-323z" />
<glyph unicode="T" horiz-adv-x="819" d="M94 1182l39 215h860l-39 -215h-323l-207 -1182h-215l207 1182h-322z" />
<glyph unicode="U" horiz-adv-x="1105" d="M102 376q0 25 2 40l2 14l170 967h216l-170 -967q-1 -4 -2 -12t-0.5 -30.5t4 -42.5t15 -45t30 -43t52 -30t77.5 -12t81.5 12t63 31t45.5 41.5t31.5 45.5t19.5 42t11 31l2 12l170 967h215l-170 -967q-2 -9 -5.5 -24.5t-20 -60t-38 -85.5t-63 -90.5t-91 -85t-125 -60 t-163.5 -24.5q-69 0 -125.5 14.5t-93 39.5t-64.5 57.5t-42 68t-23 71t-11 67.5q-1 24 -1 45q1 7 1 13z" />
<glyph unicode="V" horiz-adv-x="976" d="M133 1397h225l115 -967l455 967h223l-676 -1397h-158z" />
<glyph unicode="W" horiz-adv-x="1302" d="M156 0l18 1397h217l-26 -989l270 559h194l74 -559l316 989h217l-475 -1397h-224l-65 643l-293 -643h-223z" />
<glyph unicode="X" horiz-adv-x="1064" d="M-51 0l459 700l-213 699h237l162 -525l344 525h240l-461 -699l215 -700h-240l-160 524l-346 -524h-237z" />
<glyph unicode="Y" horiz-adv-x="901" d="M113 1399h239l154 -559l352 559h238l-525 -801l-104 -598h-215l104 598z" />
<glyph unicode="Z" d="M-31 0l33 193l776 989h-602l39 215h860l-35 -195l-776 -987h602l-37 -215h-860z" />
<glyph unicode="[" horiz-adv-x="634" d="M14 -324l303 1723h431l-39 -215h-215l-228 -1293h215l-37 -215h-430z" />
<glyph unicode="\" horiz-adv-x="653" d="M215 1399l51 -1614h195l-51 1614h-195z" />
<glyph unicode="]" horiz-adv-x="634" d="M-106 -324h428l303 1723h-430l-39 -215h215l-228 -1293h-215z" />
<glyph unicode="^" horiz-adv-x="1181" d="M31 297l491 586h258l289 -586l-199 -121l-252 512l-430 -512z" />
<glyph unicode="_" horiz-adv-x="1183" d="M-92 0l26 152h1184l-26 -152h-1184z" />
<glyph unicode="`" horiz-adv-x="520" d="M244 1505h215l104 -321h-162z" />
<glyph unicode="a" horiz-adv-x="1028" d="M86 324l76 430q1 7 4 18.5t15 44.5t28.5 63.5t47.5 67.5t68.5 63.5t94.5 45t123 18.5h430l-133 -751q0 -2 -0.5 -6t-0.5 -15.5t2 -21.5t8 -23t15 -22t25.5 -15t38.5 -6l-37 -215q-7 0 -18.5 0.5t-44 7t-61.5 18t-62 36t-54 57.5q-90 -119 -190 -119h-107q-13 0 -34.5 2 t-74 19.5t-90 48t-61.5 96.5q-14 41 -14 91q0 32 6 67zM301 324q-2 -12 -2 -23q1 -16 5 -30q8 -22 21.5 -32.5t28.5 -16.5t26 -6l11 -1h107q31 0 55 11t37 27.5t21.5 32.5t10.5 27l3 11l96 536h-215q-31 0 -55.5 -11t-37.5 -26.5t-22 -31t-11 -26.5l-3 -11z" />
<glyph unicode="b" horiz-adv-x="1017" d="M51 0l264 1505h215l-75 -430h215q13 0 34.5 -2t73.5 -19t89 -47q37 -31 60 -97q14 -39 14 -86q0 -33 -7 -70l-76 -430q-11 -66 -38 -119.5t-61 -86.5t-72.5 -57.5t-74.5 -35.5t-65.5 -17.5t-47.5 -7.5h-18h-108q-30 0 -50 11t-27 27t-10 32.5t-2 27.5l1 11l-127 -109 h-107zM322 324q-2 -13 -2 -24q0 -16 4 -29q7 -22 21 -32.5t28.5 -16.5t25.5 -6l11 -1h108q30 0 53.5 11t36.5 27.5t21.5 32.5t10.5 27l3 11l76 430q3 14 3 26q0 14 -4 26q-7 22 -20.5 31.5t-28 15.5t-25.5 7h-11h-215z" />
<glyph unicode="c" horiz-adv-x="958" d="M84 204q8 -51 31 -86t53 -57.5t63 -35t60.5 -18t44.5 -6.5l18 -1h107q66 0 122.5 18t94.5 46.5t68 63t47 69t28.5 63t14.5 46.5l4 18h-215q-5 -31 -20 -53t-32.5 -32.5t-34.5 -16.5t-28 -6l-12 -1h-107q-48 0 -70.5 27.5t-20.5 54.5l1 27l76 430q6 30 21 51.5t33 31.5 t35 16t28 7h12h106q48 0 70 -26.5t20 -53.5l-2 -26h215q6 40 6 74q0 26 -3 46q-8 50 -31 84.5t-53 57t-62.5 34.5t-60 17.5t-45.5 6.5l-17 1h-106q-66 0 -123 -17.5t-94.5 -46t-68 -63t-47.5 -68.5t-28.5 -62.5t-15.5 -45.5l-4 -18l-76 -430q-6 -39 -6 -72q0 -26 4 -48z" />
<glyph unicode="d" horiz-adv-x="1028" d="M86 324l76 430q1 7 4 18.5t15 44.5t28.5 63.5t47.5 67.5t68.5 63.5t94.5 45t123 18.5h215l76 430h215l-209 -1181q0 -2 -0.5 -6t-0.5 -15.5t2 -21.5t8 -23t15 -22t25.5 -15t38.5 -6l-37 -215q-7 0 -18.5 0.5t-44 7t-61.5 18t-62 36t-54 57.5q-90 -119 -190 -119h-107 q-13 0 -34.5 2t-74 19.5t-90 48t-61.5 96.5q-14 41 -14 91q0 32 6 67zM301 324q-2 -12 -2 -23q1 -16 5 -30q8 -22 21.5 -32.5t28.5 -16.5t26 -6l11 -1h107q31 0 55 11t37 27.5t21.5 32.5t10.5 27l3 11l96 536h-215q-31 0 -55.5 -11t-37.5 -26.5t-22 -31t-11 -26.5l-3 -11z " />
<glyph unicode="e" horiz-adv-x="958" d="M86 324l76 430q1 7 4 18.5t15 44.5t28.5 63.5t47.5 67.5t68.5 63.5t94.5 45t123 18.5h106q13 0 34.5 -2t74 -19t90.5 -47q37 -31 60 -97q14 -39 14 -86q0 -33 -7 -70q-1 -7 -3.5 -18.5t-14.5 -45t-28.5 -64.5t-47 -68t-68 -64t-94 -45.5t-122.5 -18.5h-215l-21 -106 q-1 -4 -2 -11.5t2 -26.5t11 -33t28 -26t51 -12h430l-37 -215h-430q-13 0 -34.5 2t-74 19.5t-90 48t-61.5 96.5q-14 41 -14 91q0 32 6 67zM358 645h215q4 0 11.5 0.5t27.5 6.5t36 16.5t31.5 32.5t20.5 53q3 14 3 26q0 14 -4 26q-7 22 -21 31.5t-29 15.5t-26 7h-11h-106 q-4 0 -11.5 -0.5t-27.5 -6.5t-36.5 -16t-32 -31.5t-21.5 -51.5z" />
<glyph unicode="f" horiz-adv-x="616" d="M-111 -430l37 215q31 0 55 11t37 26.5t21.5 31t10.5 26.5l3 11l172 969h-108l37 215h104q-40 47 -40 112q0 19 3 40q10 57 36 103t59 74.5t71.5 49t74.5 30t65 15t47 5.5l18 1h176l-37 -215h-176q-30 0 -54 -11t-37 -26.5t-21.5 -31t-11.5 -26.5l-3 -11q-1 -4 -1.5 -11.5 t0 -26.5t4.5 -33t16 -26t30 -12h215l-37 -215h-215l-172 -969q-12 -66 -39 -119t-61 -85.5t-73 -56.5t-75 -35t-65.5 -17.5t-47.5 -7.5h-18z" />
<glyph unicode="g" horiz-adv-x="1017" d="M16 -430l39 215h367q30 0 53.5 11t36.5 26.5t21.5 31t10.5 26.5l3 11l20 109h-215q-13 0 -34.5 2t-73.5 19.5t-89.5 48t-60.5 96.5q-14 41 -14 90q0 32 6 68l76 430q12 66 39 119t61 85.5t73 56.5t75 35t65.5 17.5t47.5 6.5l18 1h108q30 0 50 -11t27 -26.5t10 -31 t2 -26.5l-1 -11l127 106h107l-209 -1184q-12 -66 -39 -119t-61 -85.5t-73 -56.5t-75 -35t-65.5 -17.5t-47.5 -7.5h-18h-367zM301 324q-2 -13 -2 -24q0 -16 4 -29q7 -22 21 -32.5t28.5 -16.5t25.5 -6l11 -1h215l94 539q3 14 3 26q0 14 -4 26q-7 21 -20.5 31t-28 16t-25.5 7 h-11h-108q-30 0 -54 -11t-37 -26.5t-21.5 -31t-11.5 -26.5l-3 -11z" />
<glyph unicode="h" horiz-adv-x="1048" d="M51 0l264 1509h215l-75 -434h215q13 0 34.5 -2t73.5 -19t89 -47q37 -31 60 -97q14 -39 14 -86q0 -33 -7 -70l-131 -754h-215l131 754q6 30 -1 51.5t-20.5 31.5t-28 16t-25.5 7h-11h-215l-152 -860h-215z" />
<glyph unicode="i" horiz-adv-x="499" d="M96 324l133 751h215l-133 -751q0 -2 -0.5 -6t-0.5 -15.5t2 -21.5t8 -23t15 -22t25.5 -15t38.5 -6l-37 -215q-13 0 -34.5 2t-73.5 19.5t-89.5 48t-60.5 96.5q-14 40 -14 90q0 32 6 68zM268 1290l37 215h215l-37 -215h-215z" />
<glyph unicode="j" horiz-adv-x="501" d="M-131 -430l39 215q29 0 52.5 11t36 26.5t21 31t10.5 26.5l3 11l209 1180h215l-209 -1180q-12 -66 -39 -119t-61 -85.5t-72.5 -56.5t-74.5 -35t-65 -17.5t-47 -7.5h-18zM279 1290l36 215h215l-36 -215h-215z" />
<glyph unicode="k" horiz-adv-x="940" d="M51 0l264 1505h215l-151 -860l399 430h269l-422 -457l243 -618h-247l-187 473l-108 -129l-60 -344h-215z" />
<glyph unicode="l" horiz-adv-x="501" d="M96 324l209 1181h215l-209 -1181q-1 -4 -2 -11.5t2 -26.5t11 -33t28 -26t51 -12l-36 -215q-13 0 -34.5 2t-74.5 19.5t-90.5 48t-61.5 96.5q-14 41 -14 91q0 32 6 67z" />
<glyph unicode="m" horiz-adv-x="1351" d="M51 0l189 1075h108l88 -106q8 47 40 73.5t60 29.5l27 3q7 0 18 -1t40 -8.5t52 -21t44.5 -43t25.5 -69.5q60 143 250 143q66 0 116 -17.5t77.5 -46t45.5 -63t23 -68.5t6 -62q0 -10 1 -18q0 -16 -2 -28l-3 -18l-131 -754h-215l131 754q1 4 1.5 11.5t-1.5 25.5t-9.5 32 t-27 25.5t-49.5 11.5q-31 0 -55.5 -11t-37.5 -26.5t-22 -31t-11 -26.5l-3 -11l-131 -754h-215l131 754q6 30 -1 51.5t-20.5 31.5t-28 16t-25.5 7h-11q-31 0 -55.5 -11t-37.5 -26.5t-22 -31t-11 -26.5l-3 -11l-131 -754h-215z" />
<glyph unicode="n" horiz-adv-x="1030" d="M51 0h215l131 752q1 4 3 11.5t11 26t22 33t37.5 26t55.5 11.5h107q4 0 11.5 -0.5t25 -6.5t29.5 -16t20 -32t2 -53l-131 -752h215l133 758q6 39 6 72q0 25 -4 47q-8 50 -31 84.5t-53 56.5t-63 33.5t-60.5 17t-44.5 5.5l-18 1h-107q-4 0 -11.5 -0.5t-27.5 -6.5t-36 -16 t-31.5 -32t-20.5 -53l-88 108h-108z" />
<glyph unicode="o" horiz-adv-x="997" d="M86 324l76 430q1 7 4 18.5t15 44.5t28.5 63.5t47.5 67.5t68 63.5t93.5 45t122.5 18.5h108q13 0 34.5 -2t73.5 -19t89 -47q37 -31 60 -97q14 -39 14 -86q0 -33 -7 -70l-75 -430q-1 -7 -4 -18.5t-15 -45t-28 -64.5t-46.5 -68t-67.5 -64t-93.5 -45.5t-122.5 -18.5h-109 q-13 0 -34.5 2t-73.5 19.5t-89.5 48t-60.5 96.5q-14 40 -14 90q0 32 6 68zM300 302.5q0 -11.5 2 -21.5t8 -23t15 -22t25.5 -15t38.5 -6h109q4 0 11.5 0.5t27 6.5t35 16.5t31 32.5t20.5 53l75 430q2 6 2 15q0 8 -2 22q-2 18 -9.5 32t-27 25.5t-49.5 11.5h-108 q-4 0 -11.5 -0.5t-27 -6.5t-35.5 -16t-31.5 -31.5t-21.5 -51.5l-76 -430q0 -2 -0.5 -6t-0.5 -15.5z" />
<glyph unicode="p" horiz-adv-x="1019" d="M-27 -430l267 1505h108l88 -106q1 4 2.5 11.5t10.5 25.5t22 32t37 25.5t55 11.5h107q13 0 34.5 -2t74 -19t90 -47t60.5 -97q14 -39 14 -86q0 -33 -7 -70l-76 -430q-11 -66 -38 -119.5t-61 -86.5t-73 -57.5t-75.5 -35.5t-66 -17.5t-47.5 -7.5h-18h-215l-78 -430h-215z M303 215h215q4 0 11.5 0.5t27.5 6.5t36 16.5t31.5 32.5t20.5 53l76 430q2 6 2 15q0 8 -2 22q-2 18 -9.5 32t-27.5 25.5t-51 11.5h-107q-4 0 -11.5 -0.5t-27.5 -6.5t-36.5 -16t-32 -31.5t-21.5 -51.5z" />
<glyph unicode="q" horiz-adv-x="1038" d="M86 324l76 430q12 66 39 119t61 85.5t73 56.5t75 35t65.5 17.5t47.5 6.5l18 1h108q30 0 50 -11t27 -26.5t10 -31t2 -26.5l-1 -11l127 106h107l-266 -1505h-216l78 430h-215q-13 0 -34.5 2t-73.5 19.5t-89.5 48t-60.5 96.5q-14 41 -14 90q0 32 6 68zM301 324 q-2 -13 -2 -24q0 -16 4 -29q7 -22 21 -32.5t28.5 -16.5t25.5 -6l11 -1h215l94 539q3 14 3 26q0 14 -4 26q-7 21 -20.5 31t-28 16t-25.5 7h-11h-108q-30 0 -54 -11t-37 -26.5t-21.5 -31t-11.5 -26.5l-3 -11z" />
<glyph unicode="r" horiz-adv-x="692" d="M96 324l133 751h109l90 -106q1 4 3 11.5t11 25.5t21.5 32t36 25.5t53.5 11.5h215l-37 -215h-215q-4 0 -11.5 -0.5t-27 -6.5t-35.5 -16t-31.5 -31.5t-21.5 -51.5l-76 -430q0 -2 -0.5 -6t-0.5 -15.5t2 -21.5t8 -23t15 -22t25.5 -15t38.5 -6l-36 -215q-13 0 -34.5 2 t-74.5 19.5t-90.5 48t-61.5 96.5q-14 41 -14 91q0 32 6 67z" />
<glyph unicode="s" horiz-adv-x="897" d="M45 0h365q7 0 18.5 0.5t46 6.5t67 16.5t73.5 33t73 53t59 80.5t37 111q6 34 6 64q0 41 -11 75q-19 60 -60 94t-94 59t-108 41t-100 31t-70.5 37t-20.5 52q6 30 21 51.5t33 31.5t35 16t29 7h11h364l37 215h-364q-7 0 -18.5 -0.5t-46.5 -6.5t-67.5 -16.5t-73.5 -33 t-73.5 -53t-59.5 -80.5t-38 -111q-6 -35 -6 -65q1 -25 5 -47q10 -48 35 -84t60.5 -59.5t77.5 -42t84 -30.5t80 -24.5t67 -24.5t44 -30.5t11 -42.5q-5 -31 -20 -53t-32.5 -32.5t-34.5 -16.5t-28 -6l-12 -1h-364z" />
<glyph unicode="t" horiz-adv-x="659" d="M121 860l10 66l320 364h67l-39 -215h215l-37 -215h-215l-96 -536q-1 -4 -1.5 -11.5t2 -26.5t10.5 -33t28 -26t51 -12h107l-37 -215h-107q-13 0 -34.5 2t-74 19.5t-90.5 48.5q-36 30 -60 96q-14 41 -15 91q0 32 6 67l96 536h-106z" />
<glyph unicode="u" horiz-adv-x="1038" d="M96 324l133 751h215l-133 -751q-5 -31 2 -53t21 -32.5t28.5 -16.5t25.5 -6l11 -1h109q30 0 53.5 11t36.5 27.5t21.5 32.5t10.5 27l3 11l133 751h215l-133 -751q-1 -4 -1.5 -11.5t2 -26.5t10.5 -33t28 -26t51 -12l-37 -215q-3 0 -9.5 0.5t-25 2.5t-36.5 6t-42.5 13t-46 21 t-43 32t-36.5 44q-94 -119 -191 -119h-109q-13 0 -34.5 2t-73.5 19.5t-89.5 48t-60.5 96.5q-14 40 -14 90q0 32 6 68z" />
<glyph unicode="v" horiz-adv-x="860" d="M96 1075h226l71 -751l340 751h223l-510 -1075h-215z" />
<glyph unicode="w" horiz-adv-x="1464" d="M96 1075h226l71 -751l326 665h190l88 -665l338 751h226l-512 -1075h-215l-82 645l-306 -645h-215z" />
<glyph unicode="x" horiz-adv-x="901" d="M-72 0l383 539l-194 536h237l127 -373l260 373h236l-381 -536l192 -539h-235l-129 373l-258 -373h-238z" />
<glyph unicode="y" horiz-adv-x="1048" d="M27 -430l39 215h366q30 0 53.5 11t36.5 26.5t21.5 31t10.5 26.5l3 11l21 109h-216q-13 0 -34.5 2t-73.5 19.5t-89.5 48t-60.5 96.5q-14 41 -14 90q0 32 6 68l133 751h215l-133 -751q-5 -31 2 -53t21 -32.5t28.5 -16.5t25.5 -6l11 -1h215l152 860h215l-209 -1184 q-12 -66 -39 -119t-61 -85.5t-73 -56.5t-75 -35t-65.5 -17.5t-47.5 -7.5h-18h-366z" />
<glyph unicode="z" horiz-adv-x="808" d="M-10 0l26 152l508 708h-383l37 215h645l-26 -149l-494 -711h369l-37 -215h-645z" />
<glyph unicode="{" horiz-adv-x="663" d="M6 453q9 -1 23 -3t49.5 -12t62 -23t45.5 -37t13 -54l-56 -324q-8 -32 -5.5 -68.5t10.5 -72.5t29.5 -69t51 -58.5t76 -40.5t103.5 -15h65l37 215h-66q-59 0 -77 32.5t-9 78.5l56 322q1 4 1.5 11t1 27t-2.5 38t-12 40t-23.5 38t-41 27t-61.5 11l9 43q35 0 65.5 11t50.5 28 t36.5 37.5t25.5 41.5t15.5 38t8.5 28l2 11l58 321q17 105 127 109h63l39 215h-65q-52 0 -108.5 -18t-112.5 -54t-99.5 -101.5t-58.5 -150.5l-58 -321q-5 -31 -31.5 -55.5t-60 -37.5t-67 -22t-55.5 -11l-23 -3z" />
<glyph unicode="|" horiz-adv-x="436" d="M-6 -324h149l303 1723h-149z" />
<glyph unicode="}" horiz-adv-x="663" d="M-106 -324l34 215h66q105 0 127 111l55 322q1 8 4.5 21t19 46t36 58t60 46t87.5 21l8 43q-48 0 -80 20t-43.5 48.5t-16 57.5t-1.5 49l2 20l57 321q17 105 -90 109h-63l39 215h65q41 0 81 -11t80 -34.5t66 -61.5t38.5 -92t-1.5 -125l-57 -321q-5 -31 13 -55.5t47 -37.5 t59 -22t52 -11l21 -3l-30 -172q-9 -1 -24 -3t-53.5 -12t-69 -23t-58 -37t-33.5 -54l-55 -324q-10 -52 -37.5 -105.5t-72 -104t-115 -82.5t-154.5 -32h-63z" />
<glyph unicode="~" horiz-adv-x="1218" d="M55 432q7 41 25 83t50 85.5t73.5 77.5t101 55t127.5 21q54 0 98.5 -12t77.5 -37t50 -42t42 -47q36 -44 60 -60.5t65 -16.5q105 0 127 110l215 -2q-7 -41 -25 -83.5t-50.5 -86t-74.5 -77t-102.5 -55t-128.5 -21.5q-44 0 -82.5 10t-62 21t-51.5 35.5t-37.5 35t-32.5 37.5 q-36 45 -59 60.5t-66 15.5q-59 0 -88.5 -31.5t-36.5 -77.5z" />
<glyph unicode="&#xa1;" horiz-adv-x="512" d="M35 2h258l35 201l69 768h-129l-198 -768zM264 1186h215l37 215h-215z" />
<glyph unicode="&#xa2;" horiz-adv-x="1067" d="M133 698q37 214 210 369.5t388 167.5l60 164h153l-65 -176q122 -27 206 -111l-159 -172q-51 54 -123 72l-234 -633q14 -2 43 -2q124 0 230 82l100 -170q-168 -127 -369 -127q-41 0 -81 6l-60 -168h-153l75 211q-128 65 -189 196.5t-32 290.5zM348 698q-15 -80 9 -149.5 t79 -114.5l213 580q-111 -26 -196 -114.5t-105 -201.5z" />
<glyph unicode="&#xa3;" horiz-adv-x="964" d="M-49 0h860l37 215h-537q4 1 16 9t33.5 26t41.5 42t38.5 60.5t26.5 77.5q15 87 4 195h340l27 149h-383q-7 105 10 195q3 20 10 42t25.5 54.5t44.5 57.5t71 43t101 18h215l39 215h-215q-90 0 -170 -28.5t-136 -73.5t-99 -102.5t-67 -114.5t-34 -111q-14 -71 -6 -195h-158 l-27 -149h197q7 -126 -4 -195q-9 -48 -39.5 -88t-68 -62.5t-73.5 -38t-61 -21.5l-24 -5z" />
<glyph unicode="&#xa4;" horiz-adv-x="1439" d="M-53 106l344 293q-42 75 -51 161t11.5 165t58 149.5t87.5 124.5l-241 291l125 107l241 -291q151 98 318 98q163 0 282 -98l344 291l88 -107l-344 -291q42 -75 50.5 -161.5t-12 -166t-57.5 -149t-87 -123.5l242 -293l-125 -106l-242 293q-152 -100 -317 -100 q-169 0 -283 100l-344 -293zM461 698q-22 -120 48 -205t191 -85q120 0 219 85t121 205q20 120 -48.5 205.5t-188.5 85.5q-121 0 -221.5 -85.5t-120.5 -205.5z" />
<glyph unicode="&#xa5;" d="M68 256l26 152h268l19 106h-268l26 152h236l-221 733h237l156 -561l350 561h240l-482 -733h236l-27 -152h-268l-18 -106h268l-27 -152h-268l-47 -258h-215l47 258h-268z" />
<glyph unicode="&#xa6;" horiz-adv-x="438" d="M-6 -324l133 754h152l-134 -754h-151zM164 645l133 754h152l-134 -754h-151z" />
<glyph unicode="&#xa7;" horiz-adv-x="915" d="M57 -215l39 215h324q4 0 11.5 0.5t27 6.5t35 16.5t31 32.5t20.5 53q5 30 -2 51.5t-21 31.5t-28.5 16t-25.5 6l-11 1h-109q-13 0 -34.5 2t-73.5 19.5t-89 48t-60 97t-7 157.5q32 184 182 268q-120 82 -88 268q12 66 39 119.5t61 86.5t73 57.5t75 35.5t65.5 17.5t47.5 6.5 l18 1h324l-39 -215h-324q-4 0 -11.5 -0.5t-27 -6.5t-35 -16.5t-31 -32.5t-20.5 -53q-5 -30 2 -51.5t21 -31.5t28.5 -16t25.5 -6l11 -1h109q13 0 34.5 -2t73.5 -19.5t89 -48t60 -97t7 -157.5q-32 -186 -184 -268q122 -87 90 -268q-12 -66 -39 -119.5t-61 -86.5t-73 -57.5 t-75 -35.5t-65.5 -17.5t-47.5 -6.5l-18 -1h-324zM298 517.5q0 -11.5 2 -21.5t8 -23t15 -22t25.5 -15t38.5 -6h109q4 0 11.5 0.5t27 6.5t35 16.5t31 32.5t20.5 53l18 106q0 2 0.5 6t0.5 15.5t-2 21.5t-8 23t-15 22t-25.5 15t-38.5 6h-109q-4 0 -11.5 -0.5t-27 -6.5t-35 -16.5 t-31 -32.5t-20.5 -53l-18 -106q0 -2 -0.5 -6t-0.5 -15.5z" />
<glyph unicode="&#xa8;" horiz-adv-x="724" d="M195 1227l38 215h216l-39 -215h-215zM561 1227l39 215h215l-39 -215h-215z" />
<glyph unicode="&#xa9;" horiz-adv-x="1601" d="M133 698q33 189 155 350.5t299.5 256t366.5 94.5t334 -94.5t210 -256t32 -350.5q-26 -142 -104 -271t-188 -222.5t-248.5 -149t-280.5 -55.5q-189 0 -334 93.5t-210.5 254.5t-31.5 350zM291 698q-26 -146 24 -270.5t161.5 -197t258.5 -72.5t284.5 72.5t232 197 t120.5 270.5q25 147 -25.5 272t-162 198t-258.5 73t-284.5 -73t-231.5 -198t-119 -272zM490 699q27 152 153 259q126 106 277.5 106t240.5 -106l-123 -104q-54 64 -145 64t-166 -64q-74 -65 -90 -155.5t35 -155.5q54 -63 145 -63t166 63l86 -103q-126 -107 -277.5 -107 t-240.5 107q-88 107 -61 259z" />
<glyph unicode="&#xaa;" horiz-adv-x="573" d="M70 516l18 109h430l-18 -109h-430zM100 688l19 109h430l-19 -109h-430zM160 1024q4 23 12.5 43t23.5 36t28.5 28t38 23t41 18t49 16t50.5 13.5t56.5 13t56.5 12.5l2 12q10 53 -43 53h-223l18 107h224q27 0 52 -8.5t46.5 -26.5t31.5 -50.5t3 -74.5l-37 -215 q-11 -60 -60.5 -111t-130.5 -51h-106q-27 0 -52.5 9t-47.5 27t-31.5 51t-1.5 75zM266 1024q-9 -51 45 -55h107q54 0 63 55q9 47 17 92q-26 -6 -69 -16q-97 -21 -127.5 -34t-35.5 -42z" />
<glyph unicode="&#xab;" horiz-adv-x="1200" d="M43 539l483 430h258l-477 -430l326 -430h-258zM494 539l485 430h258l-477 -430l325 -430h-258z" />
<glyph unicode="&#xac;" horiz-adv-x="1003" d="M84 602l39 215h860l-94 -536h-215l55 321h-645z" />
<glyph unicode="&#xad;" horiz-adv-x="788" d="M55 430l37 215h645l-37 -215h-645z" />
<glyph unicode="&#xae;" horiz-adv-x="997" d="M150 971q31 177 177.5 302.5t323.5 125.5t280.5 -125.5t72.5 -302.5t-179 -301.5t-325 -124.5t-279 124.5t-71 301.5zM260 971q-23 -130 53 -223t207 -93q130 0 239 92.5t132 223.5q23 130 -53 222.5t-207 92.5q-130 0 -239 -92t-132 -223zM377 770l69 401h199 q45 0 78 -30t22 -90q-2 -11 -5 -20.5t-5.5 -17t-7.5 -15t-7.5 -12.5t-9.5 -11t-9.5 -8t-11 -7.5t-10 -6.5t-11.5 -6l-9 -5l66 -172h-90l-55 160h-95l-28 -160h-80zM498 1008h118q43 0 50 41q4 22 -7 32.5t-28 10.5h-119z" />
<glyph unicode="&#xaf;" horiz-adv-x="681" d="M203 1270h538l27 149h-539z" />
<glyph unicode="&#xb0;" horiz-adv-x="550" d="M188 1194q15 85 86 145t156 60q84 0 132.5 -60t33.5 -145q-13 -85 -83 -145t-155 -60t-134.5 60t-35.5 145zM293 1194q-6 -41 18.5 -70.5t65.5 -29.5q40 0 74.5 29.5t40.5 70.5q7 41 -16.5 69.5t-63.5 28.5q-42 0 -77 -28.5t-42 -69.5z" />
<glyph unicode="&#xb1;" horiz-adv-x="894" d="M-20 0l36 215h752l-37 -215h-751zM82 592l39 215h268l47 268h215l-47 -268h268l-38 -215h-269l-47 -268h-215l47 268h-268z" />
<glyph unicode="&#xb2;" horiz-adv-x="634" d="M115 645l28 160q14 7 36.5 20.5t82 56t107 85t91.5 103t54 116.5q7 42 -39 47h-65q-49 0 -58 -68l-168 2q6 37 24.5 75.5t48.5 74.5t77.5 59t103.5 23h66q35 0 68 -11.5t62 -35t42.5 -67t3.5 -99.5q-12 -67 -48.5 -130t-80 -105.5t-85 -75.5t-69.5 -49l-28 -15h243 l-28 -166h-469z" />
<glyph unicode="&#xb3;" horiz-adv-x="634" d="M130 832.5q-1 20.5 1 33.5l2 13h168q-5 -30 3 -47t19 -19l11 -2h65q20 0 34 13.5t18 27.5l4 14q2 28 0.5 43.5t-14 23.5t-21.5 10t-22 3h-3h-55l27 144h49q22 0 39.5 8.5t27.5 21t16.5 25t8.5 21.5l2 8q-1 2 0.5 14.5t-8 27.5t-29.5 15h-65q-2 0 -5 -0.5t-11.5 -4 t-15.5 -9.5t-14 -20t-10 -32h-168q2 10 6 25.5t22.5 56t44 71t73.5 56t108 25.5h66q3 0 7.5 -0.5t19 -2t27 -5.5t31.5 -11t32.5 -18t29 -27t21.5 -37.5t10.5 -49.5t-4.5 -64q-13 -89 -92 -162q28 -33 37.5 -66t-0.5 -88q-10 -60 -40 -105t-65 -66.5t-68.5 -34.5t-55.5 -15 l-23 -2h-66q-43 0 -76 13t-51 33.5t-30 45.5t-14.5 50t-3.5 45.5z" />
<glyph unicode="&#xb4;" horiz-adv-x="520" d="M186 1184h162l273 321h-215z" />
<glyph unicode="&#xb5;" horiz-adv-x="1048" d="M-27 -430l267 1505h215l-133 -751q-5 -31 2 -53t21 -32.5t28.5 -16.5t25.5 -6l11 -1h108q30 0 53.5 11t36.5 27.5t21.5 32.5t10.5 27l3 11l133 751h215l-133 -751q-1 -4 -1.5 -11.5t2 -26.5t10.5 -33t28 -26t51 -12l-37 -215q-3 0 -9.5 0.5t-25 2.5t-36.5 6t-42.5 13 t-46 21t-43 32t-36.5 44q-94 -119 -191 -119h-108q-50 0 -105 18l-80 -448h-215z" />
<glyph unicode="&#xb6;" horiz-adv-x="1130" d="M119 969q31 178 179 304t327 126l-152 -860q-179 0 -282.5 126t-71.5 304zM449 -215l284 1614h150l-285 -1614h-149zM707 -215l284 1614h150l-285 -1614h-149z" />
<glyph unicode="&#xb7;" horiz-adv-x="358" d="M55 430l37 215h215l-37 -215h-215z" />
<glyph unicode="&#xb8;" horiz-adv-x="507" d="M-96 -430h84q138 0 218 51t93 131q10 61 -17 109t-81 67l32 181h-172l-43 -238h23q35 0 56.5 -25.5t15.5 -60.5t-36 -60.5t-65 -25.5h-86z" />
<glyph unicode="&#xb9;" horiz-adv-x="571" d="M92 645l29 166h131l74 420h-131l30 168h297l-104 -588h131l-29 -166h-428z" />
<glyph unicode="&#xba;" horiz-adv-x="573" d="M70 516l18 109h430l-18 -109h-430zM100 688l19 109h430l-19 -109h-430zM160 1024l37 215q1 7 4 17.5t16.5 38t32.5 48.5t55.5 38.5t81.5 17.5h109q6 0 17 -1t37 -9.5t44 -23.5t29.5 -48t3.5 -78l-37 -215q-1 -7 -4 -17.5t-16.5 -38.5t-32.5 -49.5t-55 -39t-81 -17.5h-108 q-7 0 -17.5 1t-37 9.5t-45 24t-30 49t-3.5 78.5zM267.5 1010q-2.5 -12 8.5 -26.5t35 -14.5h109q2 0 5.5 0.5t13.5 3.5t18 8t15.5 16.5t10.5 26.5l37 215q-2 2 0.5 14t-8.5 25.5t-35 13.5h-108q-6 0 -15.5 -1.5t-27 -14.5t-21.5 -37l-37 -215q2 -2 -0.5 -14z" />
<glyph unicode="&#xbb;" horiz-adv-x="1200" d="M-33 109h258l486 430l-334 430h-258l325 -430zM420 109h258l483 430l-332 430h-258l326 -430z" />
<glyph unicode="&#xbc;" horiz-adv-x="1464" d="M123 645l29 166h131l73 420h-131l31 168h297l-104 -588h131l-29 -166h-428zM158 0l1081 1399h176l-1081 -1399h-176zM786 129l27 152l256 471h182l-260 -457h99l22 131h168l-23 -131h64l-29 -166h-63l-25 -131h-168l25 131h-275z" />
<glyph unicode="&#xbd;" horiz-adv-x="1492" d="M123 645l29 166h131l73 420h-131l31 168h297l-104 -588h131l-29 -166h-428zM158 0l1081 1399h176l-1081 -1399h-176zM825 -2l29 160q14 7 36.5 20.5t82.5 56t107.5 85t91 103t53.5 116.5q4 25 -7.5 36t-29.5 11h-68q-45 0 -57 -68h-168q6 37 25 76t49 76t77.5 60.5 t102.5 23.5h68q34 0 67 -12t62 -36t43 -67.5t4 -99.5q-11 -66 -47.5 -129t-80 -105t-85 -75t-69.5 -48l-28 -16h244l-31 -168h-471z" />
<glyph unicode="&#xbe;" horiz-adv-x="1470" d="M161 832.5q-1 20.5 1 33.5l2 13h168q-5 -30 3 -47t19 -19l11 -2h65q20 0 34 13.5t18 27.5l3 14q2 28 0.5 43.5t-13.5 23.5t-21 10t-22 3h-3h-55l26 144h49q35 0 58.5 21t29.5 42l7 21q-1 2 0.5 14.5t-8 27.5t-29.5 15h-66q-5 0 -13 -2t-23 -18.5t-19 -45.5h-168 q2 10 6 25.5t22.5 56t44 71t73.5 56t108 25.5h66q3 0 7.5 -0.5t19 -2t27 -5.5t31.5 -11t32.5 -18t29 -27t21.5 -37.5t10.5 -49.5t-4.5 -64q-13 -88 -93 -162q28 -33 37.5 -66t-0.5 -88q-10 -60 -40 -105t-65 -66.5t-68.5 -34.5t-55.5 -15l-23 -2h-65q-43 0 -76 13t-51 33.5 t-30 45.5t-14.5 50t-3.5 45.5zM164 2l1081 1397h176l-1081 -1397h-176zM791 131l26 152l256 471h184l-260 -457h99l22 131h168l-22 -131h63l-29 -166h-63l-23 -131h-168l23 131h-276z" />
<glyph unicode="&#xbf;" horiz-adv-x="894" d="M35.5 201q-12.5 54 1.5 125q7 40 23.5 78.5t34.5 67t49 64t52.5 57t59.5 56.5q3 3 32.5 30.5t35 33t31 30.5t32.5 35t26.5 32.5t27 37.5t19.5 37t18.5 43t10.5 43h154q-27 -152 -90.5 -261t-159.5 -200q-73 -71 -104.5 -109.5t-36.5 -74.5q-11 -58 15.5 -82.5t70.5 -26.5 h106q45 2 81.5 26.5t47.5 82.5h215q-12 -68 -43.5 -124.5t-71 -92.5t-87 -61t-91.5 -35.5t-85 -10.5h-109q-41 0 -81 11t-80 34.5t-66 61.5t-38.5 92zM489 1186l37 215h215l-36 -215h-216z" />
<glyph unicode="&#xc0;" d="M-113 0l619 1399h278l127 -1399h-221l-20 215h-467l-94 -215h-222zM299 430h352l-45 754zM369 1808h215l104 -321h-162z" />
<glyph unicode="&#xc1;" d="M-113 0l619 1399h278l127 -1399h-221l-20 215h-467l-94 -215h-222zM299 430h352l-45 754zM520 1487h162l272 321h-215z" />
<glyph unicode="&#xc2;" d="M-113 0l619 1399h278l127 -1399h-221l-20 215h-467l-94 -215h-222zM287 1489h192l158 162l100 -162h195l-203 321h-129zM299 430h352l-45 754z" />
<glyph unicode="&#xc3;" d="M-113 0l619 1399h278l127 -1399h-221l-20 215h-467l-94 -215h-222zM289 1507q8 44 43.5 108.5t91.5 118.5t106 54q46 0 129.5 -51t112.5 -51t54.5 25.5t36.5 50.5l11 26h109q-5 -32 -28.5 -79.5t-56.5 -92.5t-76.5 -77t-82.5 -32q-36 0 -82 25.5t-88 51.5t-69 26 q-28 0 -54 -26t-38 -52l-13 -25h-106zM299 430h352l-45 754z" />
<glyph unicode="&#xc4;" d="M-113 0l619 1399h278l127 -1399h-221l-20 215h-467l-94 -215h-222zM299 430h352l-45 754zM324 1530l38 215h216l-39 -215h-215zM690 1530l39 215h215l-39 -215h-215z" />
<glyph unicode="&#xc5;" d="M-113 0l619 1399h278l127 -1399h-221l-20 215h-467l-94 -215h-222zM299 430h352l-45 754zM432 1647q15 85 85 144.5t155 59.5t134 -59.5t34 -144.5t-85 -144t-155 -59t-134 59t-34 144zM557 1647q-6 -32 13 -55t51 -23t59 23t33 55t-13 54.5t-51 22.5t-59 -22.5 t-33 -54.5z" />
<glyph unicode="&#xc6;" horiz-adv-x="1599" d="M-133 0l954 1399h324l-8 -51q111 51 223 51h321l-39 -215h-321q-20 -1 -38 -3t-55.5 -13.5t-65.5 -30t-54 -55.5t-35 -87t4 -87t35.5 -55.5t54 -29.5t51.5 -13.5t37 -2.5h215l-38 -215h-215q-13 0 -29.5 -2t-44 -7.5t-53 -19t-51 -33t-44.5 -52.5t-26 -75q-9 -50 4 -87 t35.5 -55.5t54 -29.5t51.5 -13.5t37 -2.5h322l-37 -215h-322q-115 0 -207 51l-8 -51h-213l37 215h-473l-144 -215h-239zM397 430h363q36 166 178 268q-113 113 -80 297l29 162z" />
<glyph unicode="&#xc7;" horiz-adv-x="1034" d="M81 356q0 -39 5 -76t22.5 -83.5t45.5 -83t79 -66.5t119 -41l-24 -135h22q35 0 56.5 -25.5t15.5 -60.5t-35.5 -60.5t-64.5 -25.5h-86l-23 -129h84q138 0 218 51t93 131q10 61 -17 109t-81 67l14 78q73 10 135.5 39t104.5 67.5t75.5 82t53 85t32 75.5t17.5 55l4 20h-215 q-2 -9 -5.5 -23.5t-22 -51.5t-44 -65.5t-74 -51.5t-108.5 -23q-44 0 -77.5 12t-51.5 31t-30 41.5t-15.5 45.5t-4 42t1.5 31l1 12l94 539q1 4 2.5 12t10 30.5t19 42.5t31 45t45.5 43t62.5 30t81.5 12t77.5 -12t52 -31t30.5 -42t15.5 -45.5t4.5 -41.5t-1 -31l-1 -12h215 q2 9 3.5 24.5t1 60t-8 85.5t-31 90.5t-61 85t-104 60t-154.5 24.5t-163 -23.5t-125.5 -61.5t-91 -84t-63 -92t-38 -84t-20.5 -62l-5 -23l-94 -539q-1 -8 -3 -21.5t-2 -52.5z" />
<glyph unicode="&#xc8;" horiz-adv-x="927" d="M80 403q34 188 184 295q-113 113 -80 297q15 85 56 155t94 115t116.5 76t122.5 44.5t113 13.5h324l-39 -215h-324q-15 -1 -29 -3t-43.5 -7.5t-54 -19t-50.5 -32.5t-45 -52t-26 -75q-9 -50 4.5 -87t36 -55.5t54.5 -29.5t52 -13.5t36 -2.5h215l-39 -215h-215 q-16 0 -36.5 -2.5t-56.5 -13.5t-65 -30t-55 -56t-35 -87t4 -87t36 -55.5t54.5 -29.5t51.5 -13.5t36 -2.5h324l-37 -215h-324q-54 0 -108.5 13t-107 44t-89.5 75.5t-53.5 115t-1.5 155.5zM410 1808h215l104 -321h-162z" />
<glyph unicode="&#xc9;" horiz-adv-x="927" d="M80 403q34 188 184 295q-113 113 -80 297q15 85 56 155t94 115t116.5 76t122.5 44.5t113 13.5h324l-39 -215h-324q-15 -1 -29 -3t-43.5 -7.5t-54 -19t-50.5 -32.5t-45 -52t-26 -75q-9 -50 4.5 -87t36 -55.5t54.5 -29.5t52 -13.5t36 -2.5h215l-39 -215h-215 q-16 0 -36.5 -2.5t-56.5 -13.5t-65 -30t-55 -56t-35 -87t4 -87t36 -55.5t54.5 -29.5t51.5 -13.5t36 -2.5h324l-37 -215h-324q-54 0 -108.5 13t-107 44t-89.5 75.5t-53.5 115t-1.5 155.5zM561 1487h162l272 321h-215z" />
<glyph unicode="&#xca;" horiz-adv-x="927" d="M80 403q34 188 184 295q-113 113 -80 297q15 85 56 155t94 115t116.5 76t122.5 44.5t113 13.5h324l-39 -215h-324q-15 -1 -29 -3t-43.5 -7.5t-54 -19t-50.5 -32.5t-45 -52t-26 -75q-9 -50 4.5 -87t36 -55.5t54.5 -29.5t52 -13.5t36 -2.5h215l-39 -215h-215 q-16 0 -36.5 -2.5t-56.5 -13.5t-65 -30t-55 -56t-35 -87t4 -87t36 -55.5t54.5 -29.5t51.5 -13.5t36 -2.5h324l-37 -215h-324q-54 0 -108.5 13t-107 44t-89.5 75.5t-53.5 115t-1.5 155.5zM328 1489h192l158 162l100 -162h195l-203 321h-129z" />
<glyph unicode="&#xcb;" horiz-adv-x="927" d="M80 403q34 188 184 295q-113 113 -80 297q15 85 56 155t94 115t116.5 76t122.5 44.5t113 13.5h324l-39 -215h-324q-15 -1 -29 -3t-43.5 -7.5t-54 -19t-50.5 -32.5t-45 -52t-26 -75q-9 -50 4.5 -87t36 -55.5t54.5 -29.5t52 -13.5t36 -2.5h215l-39 -215h-215 q-16 0 -36.5 -2.5t-56.5 -13.5t-65 -30t-55 -56t-35 -87t4 -87t36 -55.5t54.5 -29.5t51.5 -13.5t36 -2.5h324l-37 -215h-324q-54 0 -108.5 13t-107 44t-89.5 75.5t-53.5 115t-1.5 155.5zM365 1530l38 215h215l-38 -215h-215zM731 1530l39 215h215l-39 -215h-215z" />
<glyph unicode="&#xcc;" horiz-adv-x="501" d="M51 0h215l246 1399h-215zM129 1808h215l105 -321h-162z" />
<glyph unicode="&#xcd;" horiz-adv-x="501" d="M51 0h215l246 1399h-215zM281 1487h161l273 321h-215z" />
<glyph unicode="&#xce;" horiz-adv-x="501" d="M47 1489h193l157 162l101 -162h194l-203 321h-129zM51 0h215l246 1399h-215z" />
<glyph unicode="&#xcf;" horiz-adv-x="501" d="M51 0h215l246 1399h-215zM84 1530l39 215h215l-39 -215h-215zM451 1530l38 215h216l-39 -215h-215z" />
<glyph unicode="&#xd0;" horiz-adv-x="1105" d="M-12 635l186 70l123 694h430q5 0 14.5 -0.5t39 -4t55 -11.5t64 -22t65 -36t58.5 -53.5t44 -74.5t22 -100t-8 -128l-94 -539q-2 -9 -5.5 -24.5t-20 -60t-38 -85.5t-63 -90.5t-91 -85t-125 -60t-163.5 -24.5h-430l94 543l-125 -47zM303 215h215q44 0 81.5 12t63 31 t45.5 41.5t31.5 45.5t19.5 42t11 31l2 12l94 539q10 60 -4.5 104.5t-42.5 64.5t-57.5 31.5t-51.5 12.5l-22 2h-215l-67 -391l145 55l33 -139l-207 -80z" />
<glyph unicode="&#xd1;" horiz-adv-x="1146" d="M51 0l246 1399h215l270 -910l160 910h215l-246 -1399h-215l-270 909l-160 -909h-215zM377 1507q8 44 43.5 108.5t91.5 118.5t106 54q46 0 129.5 -51t112.5 -51t55 25.5t37 50.5l11 26h108q-5 -32 -28.5 -79.5t-56.5 -92.5t-76.5 -77t-82.5 -32q-36 0 -82 25.5t-88 51.5 t-69 26q-28 0 -54 -26t-38 -52l-13 -25h-106z" />
<glyph unicode="&#xd2;" horiz-adv-x="1064" d="M81.5 376q0.5 25 2.5 40l2 14l94 539q2 9 5.5 24.5t20 60t38 85.5t63 90.5t91 85t125 60t163.5 24.5q69 0 125 -14.5t93 -39.5t65 -57.5t42 -68t23 -71t10 -68t0.5 -57.5t-2.5 -39l-2 -15l-94 -539q-2 -9 -5.5 -24.5t-20 -60t-38 -85.5t-63 -90.5t-91 -85t-125 -60 t-163.5 -24.5q-69 0 -125 14.5t-93 39.5t-65 57.5t-42 68t-23 71t-10 68t-0.5 57.5zM298.5 387.5q0.5 -22.5 4 -42.5t15 -45t30 -43t52 -30t77.5 -12t81.5 12t63 31t45.5 41.5t31.5 45.5t19.5 42t10 31l3 12l94 539q1 4 2 12t0.5 30.5t-4.5 42.5t-16 45t-30.5 43t-52 30 t-77.5 12q-60 0 -108 -22t-74 -54t-43 -63.5t-22 -53.5l-5 -22l-94 -539q-1 -4 -2 -12t-0.5 -30.5zM410 1808h215l104 -321h-162z" />
<glyph unicode="&#xd3;" horiz-adv-x="1064" d="M81.5 376q0.5 25 2.5 40l2 14l94 539q2 9 5.5 24.5t20 60t38 85.5t63 90.5t91 85t125 60t163.5 24.5q69 0 125 -14.5t93 -39.5t65 -57.5t42 -68t23 -71t10 -68t0.5 -57.5t-2.5 -39l-2 -15l-94 -539q-2 -9 -5.5 -24.5t-20 -60t-38 -85.5t-63 -90.5t-91 -85t-125 -60 t-163.5 -24.5q-69 0 -125 14.5t-93 39.5t-65 57.5t-42 68t-23 71t-10 68t-0.5 57.5zM298.5 387.5q0.5 -22.5 4 -42.5t15 -45t30 -43t52 -30t77.5 -12t81.5 12t63 31t45.5 41.5t31.5 45.5t19.5 42t10 31l3 12l94 539q1 4 2 12t0.5 30.5t-4.5 42.5t-16 45t-30.5 43t-52 30 t-77.5 12q-60 0 -108 -22t-74 -54t-43 -63.5t-22 -53.5l-5 -22l-94 -539q-1 -4 -2 -12t-0.5 -30.5zM561 1487h162l272 321h-215z" />
<glyph unicode="&#xd4;" horiz-adv-x="1064" d="M81.5 376q0.5 25 2.5 40l2 14l94 539q2 9 5.5 24.5t20 60t38 85.5t63 90.5t91 85t125 60t163.5 24.5q69 0 125 -14.5t93 -39.5t65 -57.5t42 -68t23 -71t10 -68t0.5 -57.5t-2.5 -39l-2 -15l-94 -539q-2 -9 -5.5 -24.5t-20 -60t-38 -85.5t-63 -90.5t-91 -85t-125 -60 t-163.5 -24.5q-69 0 -125 14.5t-93 39.5t-65 57.5t-42 68t-23 71t-10 68t-0.5 57.5zM298.5 387.5q0.5 -22.5 4 -42.5t15 -45t30 -43t52 -30t77.5 -12t81.5 12t63 31t45.5 41.5t31.5 45.5t19.5 42t10 31l3 12l94 539q1 4 2 12t0.5 30.5t-4.5 42.5t-16 45t-30.5 43t-52 30 t-77.5 12q-60 0 -108 -22t-74 -54t-43 -63.5t-22 -53.5l-5 -22l-94 -539q-1 -4 -2 -12t-0.5 -30.5zM328 1489h192l158 162l100 -162h195l-203 321h-129z" />
<glyph unicode="&#xd5;" horiz-adv-x="1064" d="M81.5 376q0.5 25 2.5 40l2 14l94 539q2 9 5.5 24.5t20 60t38 85.5t63 90.5t91 85t125 60t163.5 24.5q69 0 125 -14.5t93 -39.5t65 -57.5t42 -68t23 -71t10 -68t0.5 -57.5t-2.5 -39l-2 -15l-94 -539q-2 -9 -5.5 -24.5t-20 -60t-38 -85.5t-63 -90.5t-91 -85t-125 -60 t-163.5 -24.5q-69 0 -125 14.5t-93 39.5t-65 57.5t-42 68t-23 71t-10 68t-0.5 57.5zM298.5 387.5q0.5 -22.5 4 -42.5t15 -45t30 -43t52 -30t77.5 -12t81.5 12t63 31t45.5 41.5t31.5 45.5t19.5 42t10 31l3 12l94 539q1 4 2 12t0.5 30.5t-4.5 42.5t-16 45t-30.5 43t-52 30 t-77.5 12q-60 0 -108 -22t-74 -54t-43 -63.5t-22 -53.5l-5 -22l-94 -539q-1 -4 -2 -12t-0.5 -30.5zM330 1507q8 44 43.5 108.5t91.5 118.5t106 54q46 0 129.5 -51t112.5 -51t54.5 25.5t36.5 50.5l11 26h109q-5 -32 -28.5 -79.5t-56.5 -92.5t-76.5 -77t-82.5 -32 q-46 0 -127 51.5t-112 51.5q-28 0 -54.5 -26t-38.5 -52l-12 -25h-106z" />
<glyph unicode="&#xd6;" horiz-adv-x="1064" d="M81.5 376q0.5 25 2.5 40l2 14l94 539q2 9 5.5 24.5t20 60t38 85.5t63 90.5t91 85t125 60t163.5 24.5q69 0 125 -14.5t93 -39.5t65 -57.5t42 -68t23 -71t10 -68t0.5 -57.5t-2.5 -39l-2 -15l-94 -539q-2 -9 -5.5 -24.5t-20 -60t-38 -85.5t-63 -90.5t-91 -85t-125 -60 t-163.5 -24.5q-69 0 -125 14.5t-93 39.5t-65 57.5t-42 68t-23 71t-10 68t-0.5 57.5zM298.5 387.5q0.5 -22.5 4 -42.5t15 -45t30 -43t52 -30t77.5 -12t81.5 12t63 31t45.5 41.5t31.5 45.5t19.5 42t10 31l3 12l94 539q1 4 2 12t0.5 30.5t-4.5 42.5t-16 45t-30.5 43t-52 30 t-77.5 12q-60 0 -108 -22t-74 -54t-43 -63.5t-22 -53.5l-5 -22l-94 -539q-1 -4 -2 -12t-0.5 -30.5zM365 1530l38 215h215l-38 -215h-215zM731 1530l39 215h215l-39 -215h-215z" />
<glyph unicode="&#xd7;" horiz-adv-x="905" d="M33 309l270 230l-190 227l180 152l188 -228l267 228l126 -152l-268 -227l189 -230l-181 -151l-186 227l-268 -227z" />
<glyph unicode="&#xd8;" horiz-adv-x="1064" d="M-25 51l125 162q-16 48 -19.5 102.5t1.5 84.5l4 30l94 539q2 9 5.5 24.5t20 60t38 85.5t63 90.5t91 85t125 60t163.5 24.5q168 0 262 -90l86 110l115 -78l-125 -159q16 -47 20 -100.5t0 -83.5l-4 -29l-94 -539q-2 -9 -5.5 -24.5t-20 -60t-38 -85.5t-63 -90.5t-91 -85 t-125 -60t-163.5 -24.5q-167 0 -262 88l-88 -115zM309 483l490 633q-44 68 -152 68q-60 0 -108 -22t-74 -54t-43 -63.5t-22 -53.5l-5 -22zM328 281q42 -66 149 -66q44 0 81.5 12t63 31t45.5 41.5t31.5 45.5t19.5 42t10 31l3 12l84 479z" />
<glyph unicode="&#xd9;" horiz-adv-x="1105" d="M101.5 376q0.5 25 2.5 40l2 14l170 967h216l-170 -967q-1 -4 -2 -12t-0.5 -30.5t4 -42.5t15 -45t30 -43t52 -30t77.5 -12t81.5 12t63 31t45.5 41.5t31.5 45.5t19.5 42t11 31l2 12l170 967h215l-170 -967q-2 -9 -5.5 -24.5t-20 -60t-38 -85.5t-63 -90.5t-91 -85t-125 -60 t-163.5 -24.5q-69 0 -125.5 14.5t-93 39.5t-64.5 57.5t-42 68t-23 71t-10.5 68t-1 57.5zM430 1808h215l105 -321h-162z" />
<glyph unicode="&#xda;" horiz-adv-x="1105" d="M101.5 376q0.5 25 2.5 40l2 14l170 967h216l-170 -967q-1 -4 -2 -12t-0.5 -30.5t4 -42.5t15 -45t30 -43t52 -30t77.5 -12t81.5 12t63 31t45.5 41.5t31.5 45.5t19.5 42t11 31l2 12l170 967h215l-170 -967q-2 -9 -5.5 -24.5t-20 -60t-38 -85.5t-63 -90.5t-91 -85t-125 -60 t-163.5 -24.5q-69 0 -125.5 14.5t-93 39.5t-64.5 57.5t-42 68t-23 71t-10.5 68t-1 57.5zM582 1487h161l273 321h-215z" />
<glyph unicode="&#xdb;" horiz-adv-x="1105" d="M101.5 376q0.5 25 2.5 40l2 14l170 967h216l-170 -967q-1 -4 -2 -12t-0.5 -30.5t4 -42.5t15 -45t30 -43t52 -30t77.5 -12t81.5 12t63 31t45.5 41.5t31.5 45.5t19.5 42t11 31l2 12l170 967h215l-170 -967q-2 -9 -5.5 -24.5t-20 -60t-38 -85.5t-63 -90.5t-91 -85t-125 -60 t-163.5 -24.5q-69 0 -125.5 14.5t-93 39.5t-64.5 57.5t-42 68t-23 71t-10.5 68t-1 57.5zM348 1489h193l157 162l101 -162h194l-202 321h-129z" />
<glyph unicode="&#xdc;" horiz-adv-x="1105" d="M101.5 376q0.5 25 2.5 40l2 14l170 967h216l-170 -967q-1 -4 -2 -12t-0.5 -30.5t4 -42.5t15 -45t30 -43t52 -30t77.5 -12t81.5 12t63 31t45.5 41.5t31.5 45.5t19.5 42t11 31l2 12l170 967h215l-170 -967q-2 -9 -5.5 -24.5t-20 -60t-38 -85.5t-63 -90.5t-91 -85t-125 -60 t-163.5 -24.5q-69 0 -125.5 14.5t-93 39.5t-64.5 57.5t-42 68t-23 71t-10.5 68t-1 57.5zM385 1530l39 215h215l-39 -215h-215zM752 1530l39 215h215l-39 -215h-215z" />
<glyph unicode="&#xdd;" horiz-adv-x="901" d="M113 1399h239l154 -559l352 559h238l-525 -801l-104 -598h-215l104 598zM479 1487h162l272 321h-215z" />
<glyph unicode="&#xde;" horiz-adv-x="1044" d="M51 0l246 1399h215l-49 -277h215q5 0 14.5 -0.5t39 -4t55 -11.5t64 -22t65 -36t58.5 -53.5t44 -74.5t22 -100t-8 -128q-16 -88 -52 -159t-81.5 -114.5t-97 -76t-100 -47t-88 -23t-63.5 -9.5l-24 -1h-215l-45 -262h-215zM350 477h215q9 0 23.5 1.5t53.5 13t71 31.5 t63 64.5t41 104.5q8 46 2.5 79.5t-20.5 57t-35 38.5t-41.5 23t-39.5 12t-30 4l-12 1h-215z" />
<glyph unicode="&#xdf;" horiz-adv-x="1161" d="M-123 -430l37 215q30 0 53.5 11t36.5 26.5t21.5 31t10.5 26.5l3 11l227 1293q12 66 39 119t61.5 85.5t73.5 56.5t75.5 35t66 17.5t47.5 6.5l18 1h129q13 0 34.5 -2t73.5 -19t89 -47t60 -96.5t7 -156.5q-9 -54 -42.5 -108.5t-75.5 -97.5t-83.5 -82t-73 -76t-36.5 -66 q-5 -26 15 -47.5t55 -38.5t77.5 -35.5t84 -45t73.5 -59.5t46.5 -86t2.5 -118q-11 -66 -38 -119.5t-61 -86.5t-72.5 -57.5t-75 -35.5t-66 -17.5t-47.5 -7.5h-18h-216l37 215h215q4 0 11.5 0.5t27.5 6.5t36 16.5t31.5 32.5t20.5 53q6 35 -13 61t-53.5 43.5t-77 34.5t-84.5 40 t-74.5 53.5t-47.5 81t-4 116.5q10 53 43.5 105.5t75 93t82.5 79t72.5 78t37.5 74.5q6 30 -1 51.5t-20.5 31.5t-28 16t-25.5 7h-11h-129q-31 0 -55.5 -11t-37.5 -26.5t-22 -31t-11 -26.5l-3 -11l-227 -1293q-12 -66 -39 -119t-61 -85.5t-72.5 -56.5t-74.5 -35t-65 -17.5 t-47 -7.5h-18z" />
<glyph unicode="&#xe0;" horiz-adv-x="1028" d="M86 324l76 430q1 7 4 18.5t15 44.5t28.5 63.5t47.5 67.5t68.5 63.5t94.5 45t123 18.5h430l-133 -751q0 -2 -0.5 -6t-0.5 -15.5t2 -21.5t8 -23t15 -22t25.5 -15t38.5 -6l-37 -215q-7 0 -18.5 0.5t-44 7t-61.5 18t-62 36t-54 57.5q-90 -119 -190 -119h-107q-13 0 -34.5 2 t-74 19.5t-90 48t-61 97t-8.5 157.5zM301 324q-5 -31 2.5 -53t21.5 -32.5t29 -16.5t26 -6l11 -1h107q31 0 55 11t37 27.5t21.5 32.5t10.5 27l3 11l96 536h-215q-31 0 -55.5 -11t-37.5 -26.5t-22 -31t-11 -26.5l-3 -11zM379 1505h215l104 -321h-161z" />
<glyph unicode="&#xe1;" horiz-adv-x="1028" d="M86 324l76 430q1 7 4 18.5t15 44.5t28.5 63.5t47.5 67.5t68.5 63.5t94.5 45t123 18.5h430l-133 -751q0 -2 -0.5 -6t-0.5 -15.5t2 -21.5t8 -23t15 -22t25.5 -15t38.5 -6l-37 -215q-7 0 -18.5 0.5t-44 7t-61.5 18t-62 36t-54 57.5q-90 -119 -190 -119h-107q-13 0 -34.5 2 t-74 19.5t-90 48t-61 97t-8.5 157.5zM301 324q-5 -31 2.5 -53t21.5 -32.5t29 -16.5t26 -6l11 -1h107q31 0 55 11t37 27.5t21.5 32.5t10.5 27l3 11l96 536h-215q-31 0 -55.5 -11t-37.5 -26.5t-22 -31t-11 -26.5l-3 -11zM530 1184h162l273 321h-215z" />
<glyph unicode="&#xe2;" horiz-adv-x="1028" d="M86 324l76 430q1 7 4 18.5t15 44.5t28.5 63.5t47.5 67.5t68.5 63.5t94.5 45t123 18.5h430l-133 -751q0 -2 -0.5 -6t-0.5 -15.5t2 -21.5t8 -23t15 -22t25.5 -15t38.5 -6l-37 -215q-7 0 -18.5 0.5t-44 7t-61.5 18t-62 36t-54 57.5q-90 -119 -190 -119h-107q-13 0 -34.5 2 t-74 19.5t-90 48t-61 97t-8.5 157.5zM297 1186h192l158 162l101 -162h194l-203 321h-129zM301 324q-5 -31 2.5 -53t21.5 -32.5t29 -16.5t26 -6l11 -1h107q31 0 55 11t37 27.5t21.5 32.5t10.5 27l3 11l96 536h-215q-31 0 -55.5 -11t-37.5 -26.5t-22 -31t-11 -26.5l-3 -11z " />
<glyph unicode="&#xe3;" horiz-adv-x="1028" d="M86 324l76 430q1 7 4 18.5t15 44.5t28.5 63.5t47.5 67.5t68.5 63.5t94.5 45t123 18.5h430l-133 -751q0 -2 -0.5 -6t-0.5 -15.5t2 -21.5t8 -23t15 -22t25.5 -15t38.5 -6l-37 -215q-7 0 -18.5 0.5t-44 7t-61.5 18t-62 36t-54 57.5q-90 -119 -190 -119h-107q-13 0 -34.5 2 t-74 19.5t-90 48t-61 97t-8.5 157.5zM299 1204q8 44 43.5 108.5t92 118.5t106.5 54q46 0 129 -51.5t112 -51.5t55 26t37 52l11 25h108q-8 -45 -43.5 -109.5t-92 -118t-107.5 -53.5q-36 0 -82.5 26t-88.5 51.5t-69 25.5q-28 0 -54 -25.5t-38 -51.5l-12 -26h-107zM301 324 q-5 -31 2.5 -53t21.5 -32.5t29 -16.5t26 -6l11 -1h107q31 0 55 11t37 27.5t21.5 32.5t10.5 27l3 11l96 536h-215q-31 0 -55.5 -11t-37.5 -26.5t-22 -31t-11 -26.5l-3 -11z" />
<glyph unicode="&#xe4;" horiz-adv-x="1028" d="M86 324l76 430q1 7 4 18.5t15 44.5t28.5 63.5t47.5 67.5t68.5 63.5t94.5 45t123 18.5h430l-133 -751q0 -2 -0.5 -6t-0.5 -15.5t2 -21.5t8 -23t15 -22t25.5 -15t38.5 -6l-37 -215q-7 0 -18.5 0.5t-44 7t-61.5 18t-62 36t-54 57.5q-90 -119 -190 -119h-107q-13 0 -34.5 2 t-74 19.5t-90 48t-61 97t-8.5 157.5zM301 324q-5 -31 2.5 -53t21.5 -32.5t29 -16.5t26 -6l11 -1h107q31 0 55 11t37 27.5t21.5 32.5t10.5 27l3 11l96 536h-215q-31 0 -55.5 -11t-37.5 -26.5t-22 -31t-11 -26.5l-3 -11zM334 1227l39 215h215l-39 -215h-215zM700 1227l39 215 h215l-39 -215h-215z" />
<glyph unicode="&#xe5;" horiz-adv-x="1028" d="M86 324l76 430q1 7 4 18.5t15 44.5t28.5 63.5t47.5 67.5t68.5 63.5t94.5 45t123 18.5h430l-133 -751q0 -2 -0.5 -6t-0.5 -15.5t2 -21.5t8 -23t15 -22t25.5 -15t38.5 -6l-37 -215q-7 0 -18.5 0.5t-44 7t-61.5 18t-62 36t-54 57.5q-90 -119 -190 -119h-107q-13 0 -34.5 2 t-74 19.5t-90 48t-61 97t-8.5 157.5zM301 324q-5 -31 2.5 -53t21.5 -32.5t29 -16.5t26 -6l11 -1h107q31 0 55 11t37 27.5t21.5 32.5t10.5 27l3 11l96 536h-215q-31 0 -55.5 -11t-37.5 -26.5t-22 -31t-11 -26.5l-3 -11zM442 1343q15 85 85 145t155 60t134 -60t34 -145 t-85 -143.5t-155 -58.5t-134 58.5t-34 143.5zM567 1343q-6 -32 13 -54.5t51 -22.5t59 22.5t33 54.5t-13 55t-51 23t-59 -23t-33 -55z" />
<glyph unicode="&#xe6;" horiz-adv-x="1495" d="M86 324l76 430q1 7 4 18.5t15 44.5t28.5 63.5t47.5 67.5t68 63.5t93.5 45t122.5 18.5h645q13 0 34.5 -2t74 -19t90 -47t60.5 -96.5t7 -156.5q-1 -7 -4 -18.5t-15 -45t-28 -64.5t-47 -68t-68 -64t-94 -45.5t-123 -18.5h-215l-20 -106q-1 -4 -1.5 -11.5t2 -26.5t10.5 -33 t28 -26t51 -12h430l-37 -215h-430q-7 0 -19 0.5t-45 7.5t-62.5 18.5t-63 37t-54.5 59.5q-101 -123 -186 -123h-109q-13 0 -34.5 2t-73.5 19.5t-89.5 48t-60.5 97t-8 157.5zM301 324q-5 -31 2 -53t21 -32.5t28.5 -16.5t25.5 -6l11 -1h109q30 0 53.5 11t36.5 27.5t21.5 32.5 t10.5 27l3 11l75 430l21 106h-215q-30 0 -54 -11t-37 -26.5t-21.5 -31t-11.5 -26.5l-3 -11zM895 645h215q4 0 11.5 0.5t27.5 6.5t36 16.5t31.5 32.5t20.5 53q6 30 -1 51.5t-21 31.5t-29 16t-26 7h-11h-215z" />
<glyph unicode="&#xe7;" horiz-adv-x="958" d="M80 236q0 -39 12.5 -70.5t26.5 -55t36.5 -41.5t42.5 -29.5t44.5 -19.5t42 -12t34.5 -6l-22 -131h22q35 0 56.5 -25.5t15.5 -60.5t-35.5 -60.5t-64.5 -25.5h-86l-23 -129h84q138 0 218.5 51t93.5 131q10 61 -17.5 109t-81.5 67l13 72q60 4 112 24t86.5 49t62 63t43.5 67 t26.5 60t13.5 44l4 17h-215q-5 -31 -20 -53t-32.5 -32.5t-34.5 -16.5t-28 -6l-12 -1h-107q-48 0 -70.5 27.5t-20.5 54.5l1 27l76 430q6 30 21 51.5t33 31.5t35 16t28 7h12h106q48 0 70 -26.5t20 -53.5l-2 -26h215q11 69 3 119.5t-31 85t-53 57t-62.5 34.5t-60 17.5 t-45.5 6.5l-17 1h-106q-66 0 -123 -17.5t-94.5 -46t-68 -63t-47.5 -68.5t-28.5 -62.5t-15.5 -45.5l-4 -18l-76 -430q-6 -49 -6 -88z" />
<glyph unicode="&#xe8;" horiz-adv-x="958" d="M86 324l76 430q1 7 4 18.5t15 44.5t28.5 63.5t47.5 67.5t68.5 63.5t94.5 45t123 18.5h106q13 0 34.5 -2t74 -19t90 -47t60.5 -96.5t7 -156.5q-1 -7 -3.5 -18.5t-14.5 -45t-28.5 -64.5t-47 -68t-68 -64t-94 -45.5t-122.5 -18.5h-215l-21 -106q-1 -4 -1.5 -11.5t2 -26.5 t10.5 -33t28 -26t51 -12h430l-37 -215h-430q-13 0 -34.5 2t-74 19.5t-90 48t-61 97t-8.5 157.5zM358 645h215q4 0 11.5 0.5t27.5 6.5t36 16.5t31.5 32.5t20.5 53q6 30 -1 51.5t-21 31.5t-29 16t-26 7h-11h-106q-4 0 -11.5 -0.5t-27.5 -6.5t-36.5 -16t-32 -31.5t-21.5 -51.5z M379 1505h215l104 -321h-161z" />
<glyph unicode="&#xe9;" horiz-adv-x="958" d="M86 324l76 430q1 7 4 18.5t15 44.5t28.5 63.5t47.5 67.5t68.5 63.5t94.5 45t123 18.5h106q13 0 34.5 -2t74 -19t90 -47t60.5 -96.5t7 -156.5q-1 -7 -3.5 -18.5t-14.5 -45t-28.5 -64.5t-47 -68t-68 -64t-94 -45.5t-122.5 -18.5h-215l-21 -106q-1 -4 -1.5 -11.5t2 -26.5 t10.5 -33t28 -26t51 -12h430l-37 -215h-430q-13 0 -34.5 2t-74 19.5t-90 48t-61 97t-8.5 157.5zM358 645h215q4 0 11.5 0.5t27.5 6.5t36 16.5t31.5 32.5t20.5 53q6 30 -1 51.5t-21 31.5t-29 16t-26 7h-11h-106q-4 0 -11.5 -0.5t-27.5 -6.5t-36.5 -16t-32 -31.5t-21.5 -51.5z M530 1184h162l273 321h-215z" />
<glyph unicode="&#xea;" horiz-adv-x="958" d="M86 324l76 430q1 7 4 18.5t15 44.5t28.5 63.5t47.5 67.5t68.5 63.5t94.5 45t123 18.5h106q13 0 34.5 -2t74 -19t90 -47t60.5 -96.5t7 -156.5q-1 -7 -3.5 -18.5t-14.5 -45t-28.5 -64.5t-47 -68t-68 -64t-94 -45.5t-122.5 -18.5h-215l-21 -106q-1 -4 -1.5 -11.5t2 -26.5 t10.5 -33t28 -26t51 -12h430l-37 -215h-430q-13 0 -34.5 2t-74 19.5t-90 48t-61 97t-8.5 157.5zM297 1186h192l158 162l101 -162h194l-203 321h-129zM358 645h215q4 0 11.5 0.5t27.5 6.5t36 16.5t31.5 32.5t20.5 53q6 30 -1 51.5t-21 31.5t-29 16t-26 7h-11h-106 q-4 0 -11.5 -0.5t-27.5 -6.5t-36.5 -16t-32 -31.5t-21.5 -51.5z" />
<glyph unicode="&#xeb;" horiz-adv-x="958" d="M86 324l76 430q1 7 4 18.5t15 44.5t28.5 63.5t47.5 67.5t68.5 63.5t94.5 45t123 18.5h106q13 0 34.5 -2t74 -19t90 -47t60.5 -96.5t7 -156.5q-1 -7 -3.5 -18.5t-14.5 -45t-28.5 -64.5t-47 -68t-68 -64t-94 -45.5t-122.5 -18.5h-215l-21 -106q-1 -4 -1.5 -11.5t2 -26.5 t10.5 -33t28 -26t51 -12h430l-37 -215h-430q-13 0 -34.5 2t-74 19.5t-90 48t-61 97t-8.5 157.5zM334 1227l39 215h215l-39 -215h-215zM358 645h215q4 0 11.5 0.5t27.5 6.5t36 16.5t31.5 32.5t20.5 53q6 30 -1 51.5t-21 31.5t-29 16t-26 7h-11h-106q-4 0 -11.5 -0.5 t-27.5 -6.5t-36.5 -16t-32 -31.5t-21.5 -51.5zM700 1227l39 215h215l-39 -215h-215z" />
<glyph unicode="&#xec;" horiz-adv-x="499" d="M96 324l133 751h215l-133 -751q0 -2 -0.5 -6t-0.5 -15.5t2 -21.5t8 -23t15 -22t25.5 -15t38.5 -6l-37 -215q-13 0 -34.5 2t-73.5 19.5t-89.5 48t-60.5 97t-8 157.5zM125 1505h215l104 -321h-161z" />
<glyph unicode="&#xed;" horiz-adv-x="499" d="M96 324l133 751h215l-133 -751q0 -2 -0.5 -6t-0.5 -15.5t2 -21.5t8 -23t15 -22t25.5 -15t38.5 -6l-37 -215q-13 0 -34.5 2t-73.5 19.5t-89.5 48t-60.5 97t-8 157.5zM276 1184h162l273 321h-215z" />
<glyph unicode="&#xee;" horiz-adv-x="499" d="M43 1186h193l157 162l101 -162h194l-203 321h-129zM96 324l133 751h215l-133 -751q0 -2 -0.5 -6t-0.5 -15.5t2 -21.5t8 -23t15 -22t25.5 -15t38.5 -6l-37 -215q-13 0 -34.5 2t-73.5 19.5t-89.5 48t-60.5 97t-8 157.5z" />
<glyph unicode="&#xef;" horiz-adv-x="499" d="M80 1227l39 215h215l-39 -215h-215zM96 324l133 751h215l-133 -751q0 -2 -0.5 -6t-0.5 -15.5t2 -21.5t8 -23t15 -22t25.5 -15t38.5 -6l-37 -215q-13 0 -34.5 2t-73.5 19.5t-89.5 48t-60.5 97t-8 157.5zM446 1227l39 215h215l-38 -215h-216z" />
<glyph unicode="&#xf0;" horiz-adv-x="989" d="M61.5 254.5q-3.5 36.5 4.5 69.5l38 215q12 68 43 124t71 91.5t88 60t93 35t86 10.5h215l7 43q20 110 -48 211l-122 -125l-99 96l127 127q-75 58 -194 101l98 192q158 -44 264 -125l144 144l96 -97l-142 -143q131 -169 91 -381l-103 -579q-15 -85 -58 -150.5t-99.5 -101.5 t-113 -54t-108.5 -18h-106q-57 0 -104 15t-76.5 40t-51.5 58t-29.5 69t-11 72.5zM281 324q-13 -109 90 -109h104q112 4 129 109l58 321h-216q-110 -5 -127 -106z" />
<glyph unicode="&#xf1;" horiz-adv-x="1030" d="M51 0h215l131 752q1 4 3 11.5t11 26t22 33t37.5 26t55.5 11.5h107q4 0 11.5 -0.5t25 -6.5t29.5 -16t20 -32t2 -53l-131 -752h215l133 758q11 69 2.5 119t-31.5 84.5t-53 56.5t-63 33.5t-60.5 17t-44.5 5.5l-18 1h-107q-4 0 -11.5 -0.5t-27.5 -6.5t-36 -16t-31.5 -32 t-20.5 -53l-88 108h-108zM168 1204q8 44 43.5 108.5t92 118.5t106.5 54q46 0 129 -51.5t112 -51.5t55 26t37 52l11 25h108q-5 -32 -28.5 -79.5t-56.5 -92.5t-76.5 -77t-82.5 -32q-46 0 -127 51.5t-112 51.5q-18 0 -35 -10.5t-29 -25.5t-22 -30.5t-15 -26.5l-4 -10h-106z" />
<glyph unicode="&#xf2;" horiz-adv-x="997" d="M86 324l76 430q1 7 4 18.5t15 44.5t28.5 63.5t47.5 67.5t68 63.5t93.5 45t122.5 18.5h108q13 0 34.5 -2t73.5 -19t89 -47t60 -96.5t7 -156.5l-75 -430q-1 -7 -4 -18.5t-15 -45t-28 -64.5t-46.5 -68t-67.5 -64t-93.5 -45.5t-122.5 -18.5h-109q-13 0 -34.5 2t-73.5 19.5 t-89.5 48t-60.5 97t-8 157.5zM300 302.5q0 -11.5 2 -21.5t8 -23t15 -22t25.5 -15t38.5 -6h109q4 0 11.5 0.5t27 6.5t35 16.5t31 32.5t20.5 53l75 430q1 4 1.5 11.5t-1.5 25.5t-9.5 32t-27 25.5t-49.5 11.5h-108q-4 0 -11.5 -0.5t-27 -6.5t-35.5 -16t-31.5 -31.5t-21.5 -51.5 l-76 -430q0 -2 -0.5 -6t-0.5 -15.5zM379 1505h215l104 -321h-161z" />
<glyph unicode="&#xf3;" horiz-adv-x="997" d="M86 324l76 430q1 7 4 18.5t15 44.5t28.5 63.5t47.5 67.5t68 63.5t93.5 45t122.5 18.5h108q13 0 34.5 -2t73.5 -19t89 -47t60 -96.5t7 -156.5l-75 -430q-1 -7 -4 -18.5t-15 -45t-28 -64.5t-46.5 -68t-67.5 -64t-93.5 -45.5t-122.5 -18.5h-109q-13 0 -34.5 2t-73.5 19.5 t-89.5 48t-60.5 97t-8 157.5zM300 302.5q0 -11.5 2 -21.5t8 -23t15 -22t25.5 -15t38.5 -6h109q4 0 11.5 0.5t27 6.5t35 16.5t31 32.5t20.5 53l75 430q1 4 1.5 11.5t-1.5 25.5t-9.5 32t-27 25.5t-49.5 11.5h-108q-4 0 -11.5 -0.5t-27 -6.5t-35.5 -16t-31.5 -31.5t-21.5 -51.5 l-76 -430q0 -2 -0.5 -6t-0.5 -15.5zM530 1184h162l273 321h-215z" />
<glyph unicode="&#xf4;" horiz-adv-x="997" d="M86 324l76 430q1 7 4 18.5t15 44.5t28.5 63.5t47.5 67.5t68 63.5t93.5 45t122.5 18.5h108q13 0 34.5 -2t73.5 -19t89 -47t60 -96.5t7 -156.5l-75 -430q-1 -7 -4 -18.5t-15 -45t-28 -64.5t-46.5 -68t-67.5 -64t-93.5 -45.5t-122.5 -18.5h-109q-13 0 -34.5 2t-73.5 19.5 t-89.5 48t-60.5 97t-8 157.5zM297 1186h192l158 162l101 -162h194l-203 321h-129zM300 302.5q0 -11.5 2 -21.5t8 -23t15 -22t25.5 -15t38.5 -6h109q4 0 11.5 0.5t27 6.5t35 16.5t31 32.5t20.5 53l75 430q1 4 1.5 11.5t-1.5 25.5t-9.5 32t-27 25.5t-49.5 11.5h-108 q-4 0 -11.5 -0.5t-27 -6.5t-35.5 -16t-31.5 -31.5t-21.5 -51.5l-76 -430q0 -2 -0.5 -6t-0.5 -15.5z" />
<glyph unicode="&#xf5;" horiz-adv-x="997" d="M86 324l76 430q1 7 4 18.5t15 44.5t28.5 63.5t47.5 67.5t68 63.5t93.5 45t122.5 18.5h108q13 0 34.5 -2t73.5 -19t89 -47t60 -96.5t7 -156.5l-75 -430q-1 -7 -4 -18.5t-15 -45t-28 -64.5t-46.5 -68t-67.5 -64t-93.5 -45.5t-122.5 -18.5h-109q-13 0 -34.5 2t-73.5 19.5 t-89.5 48t-60.5 97t-8 157.5zM299 1204q8 44 43.5 108.5t92 118.5t106.5 54q46 0 129 -51.5t112 -51.5t55 26t37 52l11 25h108q-8 -45 -43.5 -109.5t-92 -118t-107.5 -53.5q-36 0 -82.5 26t-88.5 51.5t-69 25.5q-28 0 -54 -25.5t-38 -51.5l-12 -26h-107zM300 302.5 q0 -11.5 2 -21.5t8 -23t15 -22t25.5 -15t38.5 -6h109q4 0 11.5 0.5t27 6.5t35 16.5t31 32.5t20.5 53l75 430q1 4 1.5 11.5t-1.5 25.5t-9.5 32t-27 25.5t-49.5 11.5h-108q-4 0 -11.5 -0.5t-27 -6.5t-35.5 -16t-31.5 -31.5t-21.5 -51.5l-76 -430q0 -2 -0.5 -6t-0.5 -15.5z" />
<glyph unicode="&#xf6;" horiz-adv-x="997" d="M86 324l76 430q1 7 4 18.5t15 44.5t28.5 63.5t47.5 67.5t68 63.5t93.5 45t122.5 18.5h108q13 0 34.5 -2t73.5 -19t89 -47t60 -96.5t7 -156.5l-75 -430q-1 -7 -4 -18.5t-15 -45t-28 -64.5t-46.5 -68t-67.5 -64t-93.5 -45.5t-122.5 -18.5h-109q-13 0 -34.5 2t-73.5 19.5 t-89.5 48t-60.5 97t-8 157.5zM300 302.5q0 -11.5 2 -21.5t8 -23t15 -22t25.5 -15t38.5 -6h109q4 0 11.5 0.5t27 6.5t35 16.5t31 32.5t20.5 53l75 430q1 4 1.5 11.5t-1.5 25.5t-9.5 32t-27 25.5t-49.5 11.5h-108q-4 0 -11.5 -0.5t-27 -6.5t-35.5 -16t-31.5 -31.5t-21.5 -51.5 l-76 -430q0 -2 -0.5 -6t-0.5 -15.5zM334 1227l39 215h215l-39 -215h-215zM700 1227l39 215h215l-39 -215h-215z" />
<glyph unicode="&#xf7;" horiz-adv-x="1003" d="M55 430l37 215h860l-37 -215h-860zM322 109l36 215h215l-36 -215h-215zM434 754l39 215h215l-39 -215h-215z" />
<glyph unicode="&#xf8;" horiz-adv-x="1009" d="M37 45l72 92q-37 72 -17 187l76 430q1 7 4 18.5t15 44.5t28.5 63.5t47.5 67.5t68 63.5t93.5 45t122.5 18.5h108q78 0 150 -39l55 72l115 -78l-72 -92q36 -80 17 -184l-76 -430q-1 -7 -4 -18.5t-15 -45t-28 -64.5t-46.5 -68t-67.5 -64t-93.5 -45.5t-122.5 -18.5h-109 q-77 0 -151 39l-53 -70zM324 416l338 436q-24 8 -44 8h-108q-4 0 -11.5 -0.5t-27 -6.5t-35.5 -16t-31.5 -31.5t-21.5 -51.5zM350 223q13 -8 45 -8h109q4 0 11.5 0.5t27 6.5t35 16.5t31 32.5t20.5 53l59 335z" />
<glyph unicode="&#xf9;" horiz-adv-x="1038" d="M96 324l133 751h215l-133 -751q-5 -31 2 -53t21 -32.5t28.5 -16.5t25.5 -6l11 -1h109q30 0 53.5 11t36.5 27.5t21.5 32.5t10.5 27l3 11l133 751h215l-133 -751q-1 -4 -1.5 -11.5t2 -26.5t10.5 -33t28 -26t51 -12l-37 -215q-3 0 -9.5 0.5t-25 2.5t-36.5 6t-42.5 13t-46 21 t-43 32t-36.5 44q-94 -119 -191 -119h-109q-13 0 -34.5 2t-73.5 19.5t-89.5 48t-60.5 97t-8 157.5zM389 1505h215l105 -321h-162z" />
<glyph unicode="&#xfa;" horiz-adv-x="1038" d="M96 324l133 751h215l-133 -751q-5 -31 2 -53t21 -32.5t28.5 -16.5t25.5 -6l11 -1h109q30 0 53.5 11t36.5 27.5t21.5 32.5t10.5 27l3 11l133 751h215l-133 -751q-1 -4 -1.5 -11.5t2 -26.5t10.5 -33t28 -26t51 -12l-37 -215q-3 0 -9.5 0.5t-25 2.5t-36.5 6t-42.5 13t-46 21 t-43 32t-36.5 44q-94 -119 -191 -119h-109q-13 0 -34.5 2t-73.5 19.5t-89.5 48t-60.5 97t-8 157.5zM541 1184h161l273 321h-215z" />
<glyph unicode="&#xfb;" horiz-adv-x="1038" d="M96 324l133 751h215l-133 -751q-5 -31 2 -53t21 -32.5t28.5 -16.5t25.5 -6l11 -1h109q30 0 53.5 11t36.5 27.5t21.5 32.5t10.5 27l3 11l133 751h215l-133 -751q-1 -4 -1.5 -11.5t2 -26.5t10.5 -33t28 -26t51 -12l-37 -215q-3 0 -9.5 0.5t-25 2.5t-36.5 6t-42.5 13t-46 21 t-43 32t-36.5 44q-94 -119 -191 -119h-109q-13 0 -34.5 2t-73.5 19.5t-89.5 48t-60.5 97t-8 157.5zM307 1186h193l157 162l101 -162h194l-202 321h-129z" />
<glyph unicode="&#xfc;" horiz-adv-x="1038" d="M96 324l133 751h215l-133 -751q-5 -31 2 -53t21 -32.5t28.5 -16.5t25.5 -6l11 -1h109q30 0 53.5 11t36.5 27.5t21.5 32.5t10.5 27l3 11l133 751h215l-133 -751q-1 -4 -1.5 -11.5t2 -26.5t10.5 -33t28 -26t51 -12l-37 -215q-3 0 -9.5 0.5t-25 2.5t-36.5 6t-42.5 13t-46 21 t-43 32t-36.5 44q-94 -119 -191 -119h-109q-13 0 -34.5 2t-73.5 19.5t-89.5 48t-60.5 97t-8 157.5zM344 1227l39 215h215l-39 -215h-215zM711 1227l39 215h215l-39 -215h-215z" />
<glyph unicode="&#xfd;" horiz-adv-x="1048" d="M27 -430l39 215h366q30 0 53.5 11t36.5 26.5t21.5 31t10.5 26.5l3 11l21 109h-216q-13 0 -34.5 2t-73.5 19.5t-89.5 48t-60.5 97t-8 157.5l133 751h215l-133 -751q-5 -31 2 -53t21 -32.5t28.5 -16.5t25.5 -6l11 -1h215l152 860h215l-209 -1184q-12 -66 -39 -119 t-61 -85.5t-73 -56.5t-75 -35t-65.5 -17.5t-47.5 -7.5h-18h-366zM541 1184h161l273 321h-215z" />
<glyph unicode="&#xfe;" horiz-adv-x="1019" d="M-27 -430l342 1935h215l-94 -536q1 4 2.5 11.5t10.5 25.5t22 32t37 25.5t55 11.5h107q13 0 34.5 -2t74 -19t90 -47t60.5 -96.5t7 -156.5l-76 -430q-11 -66 -38 -119.5t-61 -86.5t-73 -57.5t-75.5 -35.5t-66 -17.5t-47.5 -7.5h-18h-215l-78 -430h-215zM303 215h215 q4 0 11.5 0.5t27.5 6.5t36 16.5t31.5 32.5t20.5 53l76 430q1 4 1.5 11.5t-1.5 25.5t-9.5 32t-27.5 25.5t-51 11.5h-107q-4 0 -11.5 -0.5t-27.5 -6.5t-36.5 -16t-32 -31.5t-21.5 -51.5z" />
<glyph unicode="&#xff;" horiz-adv-x="1048" d="M27 -430l39 215h366q30 0 53.5 11t36.5 26.5t21.5 31t10.5 26.5l3 11l21 109h-216q-13 0 -34.5 2t-73.5 19.5t-89.5 48t-60.5 97t-8 157.5l133 751h215l-133 -751q-5 -31 2 -53t21 -32.5t28.5 -16.5t25.5 -6l11 -1h215l152 860h215l-209 -1184q-12 -66 -39 -119 t-61 -85.5t-73 -56.5t-75 -35t-65.5 -17.5t-47.5 -7.5h-18h-366zM344 1227l39 215h215l-39 -215h-215zM711 1227l39 215h215l-39 -215h-215z" />
<glyph unicode="&#x152;" horiz-adv-x="1570" d="M81.5 376q0.5 25 2.5 40l2 14l94 539q2 9 5.5 24.5t20 60t38 85.5t63 90.5t91 85t125 60t163.5 24.5q207 0 297 -131q75 65 169.5 98t178.5 33h322l-39 -215h-322q-20 -1 -38 -3t-55.5 -13.5t-65.5 -30t-54 -55.5t-35 -87t4 -87t35.5 -55.5t54.5 -29.5t52 -13.5t37 -2.5 h215l-39 -215h-215q-13 0 -29.5 -2t-44 -7.5t-53 -19t-51 -33t-44.5 -52.5t-26 -75q-9 -50 4 -87t35.5 -55.5t54 -29.5t51.5 -13.5t37 -2.5h322l-37 -215h-322q-85 0 -168 32.5t-135 98.5q-138 -131 -342 -131q-69 0 -125 14.5t-93 39.5t-65 57.5t-42 68t-23 71t-10 68 t-0.5 57.5zM298.5 387.5q0.5 -22.5 4 -42.5t15 -45t30 -43t52 -30t77.5 -12t81.5 12t63 31t45.5 41.5t31.5 45.5t19.5 42t10 31l3 12q36 166 178 268q-106 106 -84 271q1 4 2 12t0.5 30.5t-4.5 42.5t-16 45t-30.5 43t-52 30t-77.5 12q-60 0 -108 -22t-74 -54t-43 -63.5 t-22 -53.5l-5 -22l-94 -539q-1 -4 -2 -12t-0.5 -30.5z" />
<glyph unicode="&#x153;" horiz-adv-x="1495" d="M86 324l76 430q1 7 4 18.5t15 44.5t28.5 63.5t47.5 67.5t68 63.5t93.5 45t122.5 18.5h108q13 0 35 -2t76 -20.5t90 -51.5q91 74 229 74h107q13 0 34.5 -2t74 -19t90 -47t60.5 -96.5t7 -156.5q-1 -7 -4 -18.5t-15 -45t-28 -64.5t-47 -68t-68 -64t-94 -45.5t-123 -18.5 h-215l-20 -106q-1 -4 -1.5 -11.5t2 -26.5t10.5 -33t28 -26t51 -12h430l-37 -215h-430q-14 0 -36 2t-76.5 20.5t-90.5 51.5q-95 -74 -227 -74h-109q-13 0 -34.5 2t-73.5 19.5t-89.5 48t-60.5 97t-8 157.5zM300 302.5q0 -11.5 2 -21.5t8 -23t15 -22t25.5 -15t38.5 -6h109 q4 0 11.5 0.5t27 6.5t35 16.5t31 32.5t20.5 53l75 430q1 4 1.5 11.5t-1.5 25.5t-9.5 32t-27 25.5t-49.5 11.5h-108q-4 0 -11.5 -0.5t-27 -6.5t-35.5 -16t-31.5 -31.5t-21.5 -51.5l-76 -430q0 -2 -0.5 -6t-0.5 -15.5zM895 645h215q4 0 11.5 0.5t27.5 6.5t36 16.5t31.5 32.5 t20.5 53q6 30 -1 51.5t-21 31.5t-29 16t-26 7h-11h-107q-4 0 -11.5 -0.5t-27.5 -6.5t-36.5 -16t-32 -31.5t-21.5 -51.5z" />
<glyph unicode="&#x178;" horiz-adv-x="901" d="M113 1399h239l154 -559l352 559h238l-525 -801l-104 -598h-215l104 598zM283 1530l39 215h215l-39 -215h-215zM649 1530l39 215h215l-39 -215h-215z" />
<glyph unicode="&#x2c6;" horiz-adv-x="788" d="M188 1186h193l158 162l100 -162h195l-203 321h-129z" />
<glyph unicode="&#x2dc;" horiz-adv-x="788" d="M190 1204q8 44 43.5 108.5t92 118.5t106.5 54q46 0 129.5 -51.5t112.5 -51.5t54.5 26t36.5 52l11 25h109q-5 -32 -28.5 -79.5t-56.5 -92.5t-76.5 -77t-82.5 -32q-45 0 -127 51.5t-113 51.5q-28 0 -54 -25.5t-38 -51.5l-12 -26h-107z" />
<glyph unicode="&#x2000;" horiz-adv-x="925" />
<glyph unicode="&#x2001;" horiz-adv-x="1851" />
<glyph unicode="&#x2002;" horiz-adv-x="925" />
<glyph unicode="&#x2003;" horiz-adv-x="1851" />
<glyph unicode="&#x2004;" horiz-adv-x="617" />
<glyph unicode="&#x2005;" horiz-adv-x="462" />
<glyph unicode="&#x2006;" horiz-adv-x="308" />
<glyph unicode="&#x2007;" horiz-adv-x="308" />
<glyph unicode="&#x2008;" horiz-adv-x="231" />
<glyph unicode="&#x2009;" horiz-adv-x="370" />
<glyph unicode="&#x200a;" horiz-adv-x="102" />
<glyph unicode="&#x2010;" horiz-adv-x="788" d="M55 430l37 215h645l-37 -215h-645z" />
<glyph unicode="&#x2011;" horiz-adv-x="788" d="M55 430l37 215h645l-37 -215h-645z" />
<glyph unicode="&#x2012;" horiz-adv-x="788" d="M55 430l37 215h645l-37 -215h-645z" />
<glyph unicode="&#x2013;" horiz-adv-x="751" d="M-12 463h751l27 149h-752z" />
<glyph unicode="&#x2014;" horiz-adv-x="1290" d="M-12 463l26 149h1291l-27 -149h-1290z" />
<glyph unicode="&#x2018;" horiz-adv-x="397" d="M125 827l45 254q12 71 42 130t63.5 92.5t66 56.5t53.5 31l21 8l47 -96q-48 -18 -82.5 -47t-50 -58.5t-24 -56t-8.5 -43.5l-1 -17h127l-45 -254h-254z" />
<glyph unicode="&#x2019;" horiz-adv-x="399" d="M141 924q48 18 82.5 47t50.5 58t24.5 56t9.5 43l1 17h-129l45 254h256l-45 -254q-13 -71 -43 -130t-64 -92.5t-66.5 -56.5t-53.5 -31l-21 -8z" />
<glyph unicode="&#x201a;" horiz-adv-x="399" d="M-61 -221q48 18 83.5 47t51 58t24.5 56t10 44l1 16h-129l43 254h256l-43 -254q-13 -71 -43 -130t-64.5 -92t-67 -56t-53.5 -31l-22 -8z" />
<glyph unicode="&#x201c;" horiz-adv-x="794" d="M125 827l45 254q12 71 42 130t63.5 92.5t66 56.5t53.5 31l21 8l47 -96q-48 -18 -82.5 -47t-50 -58.5t-24 -56t-8.5 -43.5l-1 -17h127l-45 -254h-254zM520 827l45 254q12 71 42 130t64 92.5t66.5 56.5t54.5 31l21 8l47 -96q-48 -18 -83 -47t-50.5 -58.5t-24.5 -56 t-10 -43.5v-17h129l-45 -254h-256z" />
<glyph unicode="&#x201d;" horiz-adv-x="794" d="M141 924q48 18 82.5 47t50.5 58t24.5 56t9.5 43l1 17h-129l45 254h256l-45 -254q-13 -71 -43 -130t-64 -92.5t-66.5 -56.5t-53.5 -31l-21 -8zM539 924q47 18 81.5 47t50 58t24 56t9.5 43l1 17h-127l45 254h254l-46 -254q-13 -71 -42.5 -130t-63.5 -92.5t-65.5 -56.5 t-52.5 -31l-21 -8z" />
<glyph unicode="&#x201e;" horiz-adv-x="794" d="M-61 -221q48 18 83.5 47t51 58t24.5 56t10 44l1 16h-129l43 254h256l-43 -254q-13 -71 -43 -130t-64.5 -92t-67 -56t-53.5 -31l-22 -8zM336 -221q48 18 82.5 47t50.5 58t24.5 56t9.5 44l1 16h-127l43 254h254l-43 -254q-13 -71 -43 -130t-64 -92t-66.5 -56t-53.5 -31 l-21 -8z" />
<glyph unicode="&#x2022;" horiz-adv-x="636" d="M74 539q-19 -102 40.5 -175t161.5 -73q103 0 187.5 72.5t103.5 175.5q19 101 -41.5 173t-163.5 72q-101 0 -185 -72t-103 -173z" />
<glyph unicode="&#x2026;" horiz-adv-x="1396" d="M6 154l180 151l125 -151l-178 -152zM481 154l178 151l127 -151l-180 -152zM956 154l179 151l125 -151l-179 -152z" />
<glyph unicode="&#x202f;" horiz-adv-x="370" />
<glyph unicode="&#x2039;" horiz-adv-x="747" d="M43 539l483 430h258l-477 -430l326 -430h-258z" />
<glyph unicode="&#x203a;" horiz-adv-x="749" d="M-33 109h258l486 430l-334 430h-258l325 -430z" />
<glyph unicode="&#x205f;" horiz-adv-x="462" />
<glyph unicode="&#x20ac;" horiz-adv-x="1304" d="M-43 283l27 155l192 45q-6 49 -6 105l-166 -39l27 156l157 34q42 181 164.5 332.5t295.5 239.5t356 88q233 0 389 -137l-156 -175q-115 97 -272 97q-176 0 -328.5 -111t-214.5 -280l842 194l-27 -156l-850 -194q0 -61 8 -105l824 189l-29 -154l-741 -170 q54 -85 143.5 -133.5t202.5 -48.5q163 0 305 96l94 -174q-206 -137 -436 -137q-189 0 -333 93t-210 249z" />
<glyph unicode="&#x2122;" horiz-adv-x="1157" d="M145 1290l19 109h430l-19 -109h-161l-76 -430h-109l76 430h-160zM606 860l94 539h117l105 -269l200 269h117l-94 -539h-109l58 336l-211 -283l-111 283l-57 -336h-109z" />
<glyph unicode="&#xe000;" horiz-adv-x="1075" d="M0 0v1075h1075v-1075h-1075z" />
<glyph unicode="&#xfb01;" horiz-adv-x="1116" d="M-111 -430l37 215q31 0 55 11t37 26.5t21.5 31t10.5 26.5l3 11l172 969h-108l37 215h104q-52 60 -37 152q10 57 36 103t59 74.5t71.5 49t74.5 30t65 15t47 5.5l18 1h545l-37 -215h-545q-30 0 -54 -11t-37 -26.5t-21.5 -31t-11.5 -26.5l-3 -11q-1 -4 -1.5 -11.5t0 -26.5 t4.5 -33t16 -26t30 -12h215l-37 -215h-215l-172 -969q-12 -66 -39 -119t-61 -85.5t-73 -56.5t-75 -35t-65.5 -17.5t-47.5 -7.5h-18zM713 324l133 751h215l-133 -751q0 -2 -0.5 -6t-0.5 -15.5t2 -21.5t8 -23t15 -22t25.5 -15t38.5 -6l-37 -215q-13 0 -34.5 2t-73.5 19.5 t-89.5 48t-60.5 97t-8 157.5z" />
<glyph unicode="&#xfb02;" horiz-adv-x="1118" d="M-111 -430l37 215q31 0 55 11t37 26.5t21.5 31t10.5 26.5l3 11l172 969h-108l37 215h104q-52 60 -37 152q10 57 36 103t59 74.5t71.5 49t74.5 30t65 15t47 5.5l18 1h545l-209 -1181q-1 -4 -1.5 -11.5t2 -26.5t10.5 -33t28 -26t51 -12l-37 -215q-13 0 -34.5 2t-74 19.5 t-90 48t-61 97t-8.5 157.5l172 966h-330q-30 0 -54 -11t-37 -26.5t-21.5 -31t-11.5 -26.5l-3 -11q-1 -4 -1.5 -11.5t0 -26.5t4.5 -33t16 -26t30 -12h215l-37 -215h-215l-172 -969q-12 -66 -39 -119t-61 -85.5t-73 -56.5t-75 -35t-65.5 -17.5t-47.5 -7.5h-18z" />
</font>
</defs>
</svg>
