<?xml version="1.0" standalone="no"?>
<!DOCTYPE svg PUBLIC "-//W3C//DTD SVG 1.1//EN" "http://www.w3.org/Graphics/SVG/1.1/DTD/svg11.dtd" >
<svg xmlns="http://www.w3.org/2000/svg">
<metadata>
This is a custom SVG webfont generated by Font Squirrel.
Copyright   :  1989 1992 1994 1996 1998 1999 2000 2001 Adobe Systems Incorporated All rights reserved
Designer    : Robert Slimbach
Foundry     : Adobe Systems Incorporated
Foundry URL : httpwwwadobecomtype
</metadata>
<defs>
<font id="AdobeGaramondProRegular" horiz-adv-x="1024" >
<font-face units-per-em="2048" ascent="1485" descent="-563" />
<missing-glyph horiz-adv-x="512" />
<glyph unicode=" "  horiz-adv-x="512" />
<glyph unicode="&#x09;" horiz-adv-x="512" />
<glyph unicode="&#xa0;" horiz-adv-x="512" />
<glyph unicode="!" horiz-adv-x="450" d="M111 84q0 51 32.5 86t81.5 35q51 0 83 -35t32 -86q0 -49 -32 -81t-83 -32q-47 0 -80.5 31t-33.5 82zM125 1264q0 37 23.5 48t77 11t77 -11.5t23.5 -47.5q0 -31 -15 -183l-59 -661q-10 -10 -27.5 -10t-25.5 10l-60 661q-14 152 -14 183z" />
<glyph unicode="&#x22;" horiz-adv-x="827" d="M162 1384q0 31 19.5 40.5t68.5 9.5t68.5 -9.5t19.5 -40.5q0 -8 -10 -79l-54 -330q-25 -25 -49 0l-53 330q-10 71 -10 79zM489 1384q0 31 19.5 40.5t69 9.5t69 -9.5t19.5 -40.5q0 -8 -11 -79l-53 -330q-25 -25 -49 0l-53 330q-11 71 -11 79z" />
<glyph unicode="#" d="M18 391l31 103h223l88 331h-229l33 103h223l92 350h88l-94 -350h238l92 350h90l-94 -350h207l-27 -103h-209l-90 -331h203l-31 -103h-201l-104 -385h-80l102 385h-243l-105 -385h-78l103 385h-228zM354 494h242l88 331h-240z" />
<glyph unicode="$" d="M113 338q6 10 19 13t26 -7q70 -231 268 -274l68 546l-78 39q-98 49 -164 135.5t-66 192.5q0 139 104.5 231.5t287.5 96.5l18 157q8 10 33.5 10.5t36.5 -10.5l-21 -159q78 -2 205 -31q39 -96 43 -231q-4 -10 -19.5 -12.5t-25.5 5.5q-18 47 -33.5 76t-62.5 72t-113 57 l-61 -495l86 -45q246 -129 245 -351q0 -156 -114.5 -255t-309.5 -99l-22 -193q-12 -8 -34.5 -8t-33.5 8l25 197q-156 10 -250 66q-57 67 -57 268zM324 1030q0 -141 190 -246l55 467q-139 -2 -192 -67.5t-53 -153.5zM494 63q115 -2 190.5 52.5t75.5 169.5q0 86 -40 159.5 t-163 139.5z" />
<glyph unicode="%" horiz-adv-x="1728" d="M92 913q0 90 31 177.5t104.5 154t178 66.5t178 -66.5t104.5 -153.5t31 -178q0 -88 -31 -175t-105.5 -154.5t-177 -67.5t-177 67.5t-105.5 154.5t-31 175zM240 913.5q0 -51.5 6 -101.5t22.5 -108.5t52 -94.5t87 -36t87 36t51 95.5t20.5 108.5t5 100.5t-5 100.5 t-20.5 108.5t-51 95t-87 35.5t-87 -35.5t-52 -94t-22.5 -108.5t-6 -101.5zM408 -37l827 1372q39 4 68 -35l-834 -1382q-25 0 -43 12.5t-18 32.5zM1010 369q0 90 30.5 177t104.5 153.5t178 66.5t178 -66.5t104.5 -153.5t30.5 -177q0 -88 -30.5 -175.5t-105.5 -155t-177 -67.5 t-177 67.5t-105.5 155t-30.5 175.5zM1157 368.5q0 -51.5 6 -101.5t22.5 -108.5t52.5 -94t87 -35.5t87 35.5t51.5 95t20.5 108.5t5 100.5t-5 100.5t-20.5 108.5t-51.5 95.5t-87 36t-87 -36t-52.5 -94.5t-22.5 -108.5t-6 -101.5z" />
<glyph unicode="&#x26;" horiz-adv-x="1675" d="M129 340q0 147 86 249.5t246 196.5q-158 109 -158 248q0 119 86 198t201 79q117 0 190.5 -68.5t73.5 -175.5q0 -47 -14.5 -84t-54.5 -69.5t-59 -46t-79 -46.5q203 -125 391 -401q39 53 105.5 163.5t107.5 194.5q45 90 45 113q0 25 -53 31l-69 8q-10 8 -9.5 24.5 t13.5 24.5h168q178 0 288 8q10 -8 11.5 -24.5t-7.5 -24.5l-90 -14q-53 -8 -100 -48t-68.5 -71t-66.5 -105q-61 -100 -238 -342l68 -102q74 -111 145.5 -147.5t151.5 -36.5q113 0 184 73q12 -2 19.5 -12t3.5 -24q-111 -137 -326 -138q-154 0 -219 60q-33 27 -125 188 q-221 -248 -447 -248q-199 0 -300 114t-101 255zM283 401q0 -137 85 -223t220 -86q193 0 352 189q-76 131 -190.5 257t-235.5 205q-90 -45 -160.5 -136t-70.5 -206zM434 1083q0 -127 168 -223q123 84 123 213q0 74 -37 126t-106 52q-66 0 -107 -51t-41 -117z" />
<glyph unicode="'" horiz-adv-x="481" d="M154 1384q0 31 19.5 40.5t68.5 9.5t68.5 -9.5t19.5 -40.5q0 -8 -11 -79l-53 -330q-25 -25 -49 0l-53 330q-10 71 -10 79z" />
<glyph unicode="(" horiz-adv-x="655" d="M164 553q0 285 115.5 522.5t306.5 364.5q29 -2 28 -31q-315 -332 -315 -856t315 -856q0 -29 -28 -31q-190 127 -306 364.5t-116 522.5z" />
<glyph unicode=")" horiz-adv-x="655" d="M41 -303q315 332 315 856t-315 856q0 29 29 31q190 -127 306 -364.5t116 -522.5t-116 -522.5t-306 -364.5q-29 2 -29 31z" />
<glyph unicode="*" horiz-adv-x="806" d="M78 1204q-4 14 3 27.5t21 15.5l256 -129l23 266q23 18 49 0l21 -266l256 129q14 -2 21 -15t3 -28l-235 -164l233 -161q4 -14 -3 -28.5t-21 -16.5l-254 133l-21 -267q-25 -20 -49 0l-23 267l-254 -133q-14 2 -21 16t-3 29l233 161z" />
<glyph unicode="+" d="M119 371v100h334v336h120v-336h334v-100h-334v-371h-120v371h-334z" />
<glyph unicode="," horiz-adv-x="512" d="M108.5 -225.5q-4.5 18.5 6.5 26.5q168 53 168 179q0 25 -10.5 44t-27 31.5t-30.5 20.5t-30.5 14t-18.5 8q-35 18 -35 60q0 37 26.5 64.5t73.5 27.5q61 0 111.5 -53.5t50.5 -147.5q0 -115 -73.5 -188.5t-192.5 -108.5q-14 4 -18.5 22.5z" />
<glyph unicode="-" horiz-adv-x="655" d="M66 410q0 31 16 51l477 45q31 -20 31 -66q0 -31 -17 -51l-477 -45q-30 25 -30 66z" />
<glyph unicode="." horiz-adv-x="512" d="M141 84q0 51 33 86t82 35q51 0 83 -35t32 -86q0 -49 -32 -81t-83 -32q-47 0 -81 31t-34 82z" />
<glyph unicode="/" horiz-adv-x="669" d="M61 -33l428 1438h119l-428 -1438h-119z" />
<glyph unicode="0" d="M88 641q0 166 42 312.5t141.5 252t240.5 105.5t240.5 -105.5t141.5 -252t42 -312.5q0 -125 -24.5 -240.5t-74 -214t-133 -157t-192.5 -58.5t-192.5 58.5t-133 157t-74 214t-24.5 240.5zM270 641q0 -608 242 -608t242 608t-242 608t-242 -608z" />
<glyph unicode="1" d="M241 1169.5q-1 16.5 11 22.5q215 39 338 119q14 0 20 -11q-8 -74 -8 -256v-794q0 -125 13.5 -160t74.5 -39l86 -6q10 -8 8 -27.5t-12 -23.5q-121 6 -244 6q-127 0 -245 -6q-10 4 -12.5 23.5t8.5 27.5l83 6q61 4 75 39t14 160v696q0 113 -16.5 150t-82.5 43l-98 8 q-12 6 -13 22.5z" />
<glyph unicode="2" d="M53 20q0 8 23 23q68 43 129 102.5t184 192.5q293 315 293 563q0 141 -66.5 220t-189.5 79q-172 0 -266 -205q-14 -8 -31.5 0.5t-17.5 26.5q49 133 160.5 211t250.5 78q154 0 246 -92.5t92 -241.5q0 -199 -219 -451l-125 -143q-186 -213 -186 -238q0 -18 63 -18h254 q141 0 193 45q39 35 65 84q29 12 45 -12q-49 -190 -94 -250q-127 6 -264 6h-297q-160 0 -227 -6q-15 6 -15 26z" />
<glyph unicode="3" d="M84 12q0 33 22.5 56.5t57.5 23.5q47 0 98 -74q43 -61 109 -61q113 0 239.5 122t126.5 279q0 143 -68.5 238.5t-195.5 95.5q-129 0 -221 -100q-27 4 -40 23.5t-5 48.5q244 109 328 178q109 88 108 196q0 80 -48 128t-120 48q-168 0 -276 -180q-16 -4 -29.5 5.5t-13.5 23.5 q47 109 150.5 178.5t219.5 69.5q127 0 206 -63.5t79 -172.5q0 -72 -45 -133t-174 -129q-14 -27 24 -31q125 -10 211 -93t86 -222q0 -233 -198 -406q-104 -90 -221 -133t-207 -43q-82 0 -142.5 30.5t-60.5 96.5z" />
<glyph unicode="4" d="M41 422q0 25 37 78l657 917q23 29 47 29h35q31 0 31 -16q0 -8 -10 -23l-652 -901q-10 -25 0.5 -29t57.5 -4h317q37 0 47 9.5t10 43.5v377q0 29 19 41q47 31 104 35q20 2 24.5 -12.5t4.5 -51.5v-395q0 -29 7 -38t34 -9h131q14 -10 14 -41t-14 -45h-111q-41 0 -51 -7 t-10 -38v-92q0 -125 13.5 -158t74.5 -41l53 -6q10 -8 8.5 -27.5t-12.5 -23.5q-111 6 -213 6q-121 0 -256 -6q-10 4 -12 23.5t8 27.5l92 6q61 4 76.5 40t15.5 159v86q0 37 -9 44t-50 7h-489q-29 0 -29 35z" />
<glyph unicode="5" d="M129 -109.5q-2 23.5 12 33.5q246 14 417 151.5t171 342.5q0 104 -50 179t-136 114t-175 56t-190 19q-23 0 -27 14.5t9 49.5l108 364q16 51 54 56l493 69q8 2 13.5 -4t5.5 -14q-23 -74 -74 -127l-387 -55q-35 -4 -47.5 -14.5t-22.5 -41.5l-37 -122q-12 -35 29 -37l43 -4 q104 -10 194.5 -38t172 -78t129 -136t47.5 -197q0 -168 -117 -310.5t-283 -218t-334 -81.5q-16 6 -18 29.5z" />
<glyph unicode="6" d="M82 483q0 156 63.5 326t210.5 315q252 246 588 291q10 -4 13.5 -19.5t-5.5 -23.5q-94 -33 -148 -54.5t-146.5 -77.5t-159.5 -130q-233 -248 -234 -621q0 -195 71 -325.5t214 -130.5q111 0 171 88t60 225q0 143 -64.5 242.5t-187.5 99.5q-39 0 -94 -16q-20 10 -6 33 q98 61 201 61q145 0 235 -103.5t90 -263.5q0 -182 -120.5 -305t-311.5 -123q-215 0 -327.5 145.5t-112.5 366.5z" />
<glyph unicode="7" d="M59 1067q47 129 70 221q49 -6 217 -6h346q250 0 275 6q14 -4 14 -18q-82 -125 -193 -350l-522 -1051q-25 -4 -45 7t-24 32l579 1171q23 47 13.5 61.5t-58.5 14.5h-409q-94 0 -136.5 -17.5t-83.5 -86.5q-31 -13 -43 16z" />
<glyph unicode="8" d="M119 313q0 102 73.5 182t202.5 162q-231 127 -233 322q-2 152 106.5 242t270.5 90q145 0 242.5 -79t97.5 -220q0 -27 -4.5 -52.5t-15.5 -48t-19.5 -40t-28.5 -38t-29.5 -30.5t-37 -29.5t-35 -25t-38 -26t-34.5 -22.5q125 -72 197.5 -159.5t72.5 -221.5 q0 -160 -113.5 -254t-295.5 -94q-156 0 -267.5 84t-111.5 258zM266 332q0 -131 70 -215t182 -84q109 0 173.5 67.5t64.5 180.5q0 205 -303 342q-187 -127 -187 -291zM309 1022q0 -96 74 -163.5t195 -127.5q164 117 163 277q0 98 -61.5 169.5t-155.5 71.5 q-100 0 -157.5 -66.5t-57.5 -160.5z" />
<glyph unicode="9" d="M96 893q0 182 121 300t299 118q188 0 298 -145.5t110 -377.5q0 -178 -76 -360t-225 -315q-104 -94 -237.5 -154.5t-250.5 -81.5q-12 4 -16 21.5t4 25.5q182 55 303 144q152 113 233.5 287.5t81.5 449.5q0 78 -12 149.5t-38.5 141t-79 111.5t-122.5 42 q-102 0 -165.5 -74.5t-63.5 -207.5t63.5 -238.5t172.5 -105.5q57 0 90 8q14 -8 6 -25q-70 -59 -184 -59q-129 0 -220.5 95t-91.5 251z" />
<glyph unicode=":" horiz-adv-x="512" d="M141 84q0 51 33 86t82 35q51 0 83 -35t32 -86q0 -49 -32 -81t-83 -32q-47 0 -81 31t-34 82zM141 686q0 51 33 86t82 35q51 0 83 -35t32 -86q0 -49 -32 -81t-83 -32q-47 0 -81 31t-34 82z" />
<glyph unicode=";" horiz-adv-x="512" d="M108.5 -225.5q-4.5 18.5 6.5 26.5q168 53 168 179q0 25 -10.5 44t-27 31.5t-30.5 20.5t-30.5 14t-18.5 8q-35 18 -35 60q0 37 26.5 64.5t73.5 27.5q61 0 111.5 -53.5t50.5 -147.5q0 -115 -73.5 -188.5t-192.5 -108.5q-14 4 -18.5 22.5zM141 686q0 51 33 86t82 35 q51 0 83 -35t32 -86q0 -49 -32 -81t-83 -32q-47 0 -81 31t-34 82z" />
<glyph unicode="&#x3c;" d="M115 375v92l796 379v-119l-649 -303v-4l649 -305v-117z" />
<glyph unicode="=" d="M119 217v100h788v-100h-788zM119 524v101h788v-101h-788z" />
<glyph unicode="&#x3e;" d="M113 -2v117l649 305v4l-649 303v119l796 -379v-92z" />
<glyph unicode="?" horiz-adv-x="657" d="M131 1245q0 33 21.5 55.5t60.5 22.5q127 0 239.5 -129t112.5 -289q0 -76 -24.5 -122t-53.5 -62l-161 -86q-72 -37 -72 -90q0 -37 20 -119q-6 -12 -20 -15t-23 5q-74 121 -73 202q0 57 26.5 87t83.5 61l101 53q113 59 112 150q0 80 -45 125q-66 66 -237 65q-18 0 -43 25.5 t-25 60.5zM143 84q0 51 33 86t82 35q51 0 83 -35t32 -86q0 -49 -32 -81t-83 -32q-47 0 -81 31t-34 82z" />
<glyph unicode="@" horiz-adv-x="1566" d="M92 313q0 348 239.5 566.5t569.5 218.5q281 0 442.5 -157t161.5 -376q0 -205 -145.5 -349t-384.5 -144q-147 0 -148 45q0 20 17 63l51 129l-4 2q-92 -96 -208 -167.5t-179 -71.5q-41 0 -62.5 26.5t-21.5 65.5q0 41 38 130t117 185q211 258 410 258q23 0 45.5 -12 t30.5 -33l51 105q23 8 53.5 -0.5t44.5 -24.5q-203 -465 -239 -567q-14 -35 -3 -51.5t50 -14.5q170 6 284.5 119t114.5 299q0 213 -151.5 342t-382.5 129q-293 0 -471.5 -209t-178.5 -504q0 -98 31 -191t97.5 -179t190.5 -139.5t292 -53.5q147 0 317 72q27 -12 17 -39 q-166 -104 -396 -104q-131 0 -250.5 38.5t-220 114.5t-160 199.5t-59.5 279.5zM582 193q0 -27 24 -27q45 0 164 106q70 61 146.5 170t97.5 164q-20 59 -88 60q-53 0 -129 -62q-84 -68 -149.5 -196.5t-65.5 -214.5z" />
<glyph unicode="A" horiz-adv-x="1275" d="M-52 22q0 15 7 23l68 6q86 8 122 101q10 29 41 101.5t66 162.5t74 192l209 553q36 94 35 135q0 6 -1 11q53 16 107 77q25 0 31 -18q23 -76 90 -274l280 -824q45 -131 77 -170t97 -47l56 -6q9 -7 9 -23v-4q-1 -18 -9 -24q-127 6 -248 6q-57 0 -236 -6q-12 6 -13 24.5 t9 26.5l60 6q72 6 71 37q0 29 -26 109l-90 278q-10 35 -24.5 43t-59.5 8h-310q-39 0 -53 -8t-25 -41l-71 -215q-45 -135 -45 -170q0 -37 59 -41l68 -6q10 -8 10 -26.5t-14 -24.5q-29 2 -213 6q-31 0 -197 -6q-11 6 -11 28zM422 615q6 -7 49 -7h252q45 0 52 12q2 4 3 10 q0 14 -10 42l-111 334q-35 104 -47 129h-4q-12 -20 -49 -121l-129 -357q-8 -23 -8 -34q0 -6 2 -8z" />
<glyph unicode="B" horiz-adv-x="1239" d="M98 1341q176 16 441 17q231 0 344 -58q156 -76 155 -256q0 -104 -53 -168.5t-156 -111.5q0 -25 39 -31q102 -18 188.5 -106t86.5 -236q0 -184 -138.5 -290.5t-406.5 -106.5q-27 0 -113 3t-133 3q-8 0 -235 -6q-10 4 -11.5 22.5t7.5 28.5l37 6q80 14 96 53t16 203v778 q0 119 -16.5 156t-83.5 43l-66 6q-11 9 -11 25q0 19 13 26zM430 338q0 -174 43 -223q47 -57 162 -58q145 0 233 71t88 216t-93 247.5t-314 102.5q-80 0 -99.5 -10t-19.5 -43v-303zM430 813q0 -43 14 -51q11 -7 64 -7q13 0 29 1q164 6 242.5 64.5t78.5 197.5q0 141 -88 208.5 t-217 67.5q-66 0 -94 -12q-29 -8 -29 -53v-416z" />
<glyph unicode="C" horiz-adv-x="1425" d="M90 668q0 166 69.5 308t188.5 234q223 174 553 174q184 0 363 -49q41 -10 57 -8q6 -123 29 -301q-8 -10 -26.5 -12t-29.5 8q-66 299 -420 299q-250 0 -414.5 -160t-164.5 -463q0 -311 173 -489t435 -178q176 0 279.5 88t148.5 205q10 8 28.5 5t24.5 -14 q-10 -76 -41.5 -162.5t-56.5 -117.5q-29 -4 -72 -21q-41 -14 -138 -30.5t-185 -16.5q-305 0 -510 137q-291 202 -291 564z" />
<glyph unicode="D" horiz-adv-x="1597" d="M85 20q0 16 7 25l47 6q88 12 105.5 51t17.5 205v778q0 113 -17.5 152t-78.5 47l-45 6q-12 8 -12 26.5t14 24.5q279 16 514 17q285 0 450 -62q203 -74 309.5 -234.5t106.5 -369.5q0 -197 -92 -356.5t-266 -253.5q-182 -98 -459 -98q-74 0 -189.5 8t-144.5 8 q-111 0 -256 -6q-11 4 -11 26zM430 354q0 -166 41 -223q59 -84 252 -84q289 0 432 172t143 469q0 76 -14 150.5t-58 159.5t-113 148.5t-187.5 105.5t-272.5 42q-164 0 -202 -28q-20 -16 -21 -156v-756z" />
<glyph unicode="E" horiz-adv-x="1196" d="M60 20q0 16 8 25l67 6q86 8 106.5 50t20.5 206v737q0 166 -18.5 207t-106.5 52l-33 4q-8 6 -7 26.5t12 24.5q133 -6 241 -6h385q252 0 277 6q10 -31 32 -273q-6 -10 -24.5 -11t-26.5 7q-14 43 -18 56.5t-18.5 44t-28 43t-37 28t-53.5 23.5q-51 12 -199 12h-147 q-45 0 -53.5 -11t-8.5 -71v-409q0 -41 10.5 -49.5t57.5 -8.5h118q137 0 174 12.5t50 71.5l16 84q8 10 27.5 9t25.5 -11q0 -20 -4 -92t-4 -115q0 -41 4 -109.5t4 -86.5q-6 -10 -25.5 -11.5t-27.5 9.5l-18 80q-14 66 -64 77q-37 10 -158 11h-118q-47 0 -57.5 -8.5t-10.5 -47.5 v-288q0 -172 39 -213q47 -47 248 -47.5t262 30.5q63 35 145 199q10 8 27.5 4t24.5 -18q-33 -160 -93 -285q-276 6 -548 6h-185q-96 0 -278 -6q-12 4 -12 26z" />
<glyph unicode="F" horiz-adv-x="1101" d="M81 20q0 16 7 25l51 6q86 10 104.5 50t18.5 206v737q0 166 -18.5 207t-104.5 52l-33 4q-8 6 -7 26.5t12 24.5q129 -6 237 -6h377q250 0 276 6q0 -154 7 -271q-4 -10 -21.5 -12t-28.5 6q-14 82 -43.5 129t-99.5 66q-45 12 -199 12h-124q-45 0 -53.5 -11t-8.5 -71v-432 q0 -41 10.5 -48t57.5 -7h139q137 0 174 12q12 4 20.5 10.5t16.5 21.5t14 40l19 82q8 8 27.5 8t25.5 -8q0 -20 -4 -93t-4 -114t4 -109.5t4 -89.5q-6 -8 -24.5 -8t-28.5 8l-21 80q-16 63 -65 78q-37 10 -158 10h-139q-47 0 -57.5 -8t-10.5 -47v-285q0 -166 18.5 -207 t106.5 -49l70 -6q8 -6 7 -26.5t-11 -24.5q-182 6 -273 6q-111 0 -256 -6q-11 4 -11 26z" />
<glyph unicode="G" horiz-adv-x="1529" d="M94 659q0 289 185 486q229 240 649 239q129 0 260 -30q88 -19 118 -19h9q0 -92 31 -297q-4 -12 -26 -14t-30 8q-41 158 -146.5 224.5t-273.5 66.5q-281 0 -426 -170t-145 -420q0 -309 158.5 -505.5t455.5 -196.5q186 0 226 61q20 29 20 117v82q0 129 -19.5 158.5 t-113.5 39.5l-90 11q-12 6 -11 26.5t11 24.5q88 -6 293 -6q115 0 217 6q11 -7 11 -27q0 -15 -9 -24l-33 -4q-59 -6 -73.5 -43t-14.5 -129v-115q0 -127 49 -146q12 -12 -2 -24q-31 0 -100 -19q-201 -53 -367 -53q-399 0 -624 228q-189 188 -189 464z" />
<glyph unicode="H" horiz-adv-x="1650" d="M92 1358q31 0 119 -3t139 -3q104 0 238 6q10 -4 11 -24.5t-7 -26.5l-39 -4q-86 -8 -104.5 -50.5t-18.5 -208.5v-235q0 -47 14.5 -56.5t87.5 -9.5h586q74 0 88.5 9.5t14.5 56.5v235q0 166 -18.5 208t-106.5 51l-39 4q-8 6 -7 26.5t11 24.5q141 -6 248 -6q104 0 241 6 q10 -4 11.5 -24.5t-7.5 -26.5l-43 -4q-86 -8 -104 -50.5t-18 -208.5v-737q0 -166 18 -206t104 -50l50 -6q7 -5 7 -22v-5q-1 -20 -12 -24q-147 6 -247 6q-113 0 -248 -6q-10 4 -11 22.5t7 28.5l39 6q92 14 108.5 52t16.5 204v289q0 47 -14.5 56.5t-88.5 9.5h-586 q-74 0 -88 -9.5t-14 -56.5v-289q0 -164 19.5 -206t105.5 -50l59 -6q8 -6 7.5 -26.5t-11.5 -24.5q-166 6 -260 6q-39 0 -79 -1t-86 -3t-72 -2q-10 4 -11.5 22.5t7.5 28.5l34 6q84 14 101.5 53t17.5 203v737q0 162 -20.5 207t-100.5 52l-53 4q-7 5 -7 22q0 24 11 29z" />
<glyph unicode="I" horiz-adv-x="692" d="M79 20q0 16 7 25l51 6q88 10 106.5 51t18.5 209v729q0 170 -18.5 212t-106.5 51l-51 4q-7 5 -7 22v4q1 20 11 25q154 -6 258 -6q100 0 254 6q10 -4 11 -25v-4q0 -17 -7 -22l-51 -4q-88 -8 -106.5 -50.5t-18.5 -212.5v-729q0 -168 18.5 -209t106.5 -51l51 -6q7 -5 7 -22 v-5q-1 -20 -11 -24q-154 6 -254 6q-104 0 -258 -6q-11 4 -11 26z" />
<glyph unicode="J" horiz-adv-x="706" d="M-78 -369q0 29 21.5 62t52.5 33q37 0 76 -13q51 -14 86 -14q55 0 82 53q53 109 53 514v774q0 168 -24.5 211t-116.5 52l-52 4q-8 6 -7 26.5t11 24.5q178 -6 275 -6q111 0 233 6q11 -5 12 -29q0 -17 -8 -22l-30 -4q-88 -12 -106.5 -53.5t-18.5 -209.5v-759 q0 -283 -47 -398q-53 -129 -160 -212t-244 -83q-88 0 -88 43z" />
<glyph unicode="K" horiz-adv-x="1382" d="M92 1358q150 -6 258 -6q104 0 238 6q10 -4 11 -24.5t-7 -26.5l-39 -4q-86 -8 -104.5 -50.5t-18.5 -208.5v-235q0 -78 26.5 -78t57.5 23q16 14 57 53t47 45l222 219q119 113 159 170q14 20 14.5 32.5t-34.5 20.5l-55 13q-10 10 -9.5 26.5t13.5 24.5q109 -6 225 -6 q111 0 203 6q10 -8 12 -25.5t-8 -25.5q-104 -8 -191 -58q-90 -51 -286 -237l-185 -174q-47 -47 -47 -63.5t39 -63.5q387 -444 512 -576q74 -74 164 -84l55 -6q9 -7 9 -21v-7q-2 -19 -13 -23q-80 6 -229 6q-109 0 -250 -6q-10 4 -13 22.5t5 28.5l47 8q49 6 49 21q0 10 -29 47 q-2 2 -170 192l-163 185q-123 137 -152 157q-23 14 -47 15q-23 0 -29 -20.5t-6 -78.5v-264q0 -166 17.5 -207t101.5 -49l55 -6q8 -6 7 -26.5t-11 -24.5q-150 6 -250 6q-113 0 -237 -6q-10 4 -11.5 22.5t7.5 28.5l41 6q80 12 96 51t16 205v737q0 168 -18.5 209t-104.5 50 l-51 4q-7 5 -7 22q0 24 11 29z" />
<glyph unicode="L" horiz-adv-x="1132" d="M71 20q0 16 7 25l61 6q86 8 104.5 49t18.5 207v737q0 168 -19.5 209t-113.5 50l-51 4q-7 5 -7 22v4q1 20 11 25q172 -6 266 -6q98 0 252 6q10 -4 11 -24.5t-7 -26.5l-49 -4q-88 -8 -106.5 -49.5t-18.5 -209.5v-712q0 -102 8 -147.5t35 -73.5q47 -47 223 -48q203 0 250 27 q74 43 135 203q8 8 30 3t22 -15q0 -20 -33 -134t-53 -153q-158 6 -510 6h-189q-94 0 -266 -6q-11 4 -11 26z" />
<glyph unicode="M" horiz-adv-x="1867" d="M50 23q0 15 7 22l45 6q70 10 94.5 38t32.5 130q23 248 35 451q14 248 23 456q1 14 0 27q0 76 -21 104q-25 33 -116 46l-33 4q-8 8 -6 26.5t14 24.5q92 -6 162 -6q102 0 170 6q-1 -8 -1 -17q0 -101 107 -321l234 -473q102 -209 141 -281h4q49 84 158 307l192 392 q125 254 146 325q8 37 10 68q70 -6 154 -6q86 0 182 6q8 -6 9 -25.5t-7 -25.5l-43 -4q-94 -8 -120 -47q-24 -35 -24 -132v-16q14 -735 23 -891q2 -47 3 -57t7 -41t15.5 -38t28 -17.5t46.5 -12.5l66 -6q9 -7 8 -21v-6q-2 -18 -12 -24q-125 6 -242 6q-121 0 -248 -6 q-10 8 -12 25.5t8 25.5l60 6q72 8 86 38t14 136l-6 854h-4q-6 -10 -30 -58t-55.5 -112.5t-47.5 -95.5l-183 -358q-164 -319 -221 -467q-6 -8 -20 -8q-12 0 -19 8q-27 82 -180 409l-184 396q-16 37 -61.5 139t-69.5 155h-4q-8 -127 -21 -364q-14 -291 -14 -481 q0 -115 16 -151t76 -40l78 -6q10 -10 9 -28.5t-11 -22.5q-104 6 -228 6q-104 0 -209 -6q-11 9 -11 29z" />
<glyph unicode="N" horiz-adv-x="1603" d="M55 1358q86 -6 232 -6q53 0 94 6q41 -102 350 -451l199 -223q270 -301 338 -371h4q8 10 8 86v439q0 358 -41 424q-18 27 -127 41l-35 4q-10 8 -9 27.5t13 23.5q141 -6 242 -6q106 0 211 6q12 -8 13 -26v-3q0 -15 -9 -22l-29 -4q-100 -16 -114 -43q-31 -66 -31 -422v-490 q0 -305 6 -358q-8 -23 -39 -23q-39 55 -262 309l-475 541q-12 14 -112.5 132t-125.5 145h-4q-10 -31 -10 -133v-447q0 -358 37 -424q18 -33 104 -39l64 -6q8 -12 7 -27.5t-11 -23.5q-137 6 -240 6q-106 0 -213 -6q-10 8 -12 25.5t8 25.5l55 6q76 10 90 41q27 68 27 422v592 q0 98 -45 147q-39 39 -127 50l-35 4q-9 7 -9 23q0 21 13 28z" />
<glyph unicode="O" horiz-adv-x="1628" d="M94 662q0 309 207 515.5t522 206.5q336 0 523.5 -205.5t187.5 -496.5q0 -307 -206 -511t-505 -204q-330 0 -529.5 203t-199.5 492zM299 727q0 -94 18.5 -188.5t60.5 -187.5t103.5 -162.5t156.5 -113.5t212 -44q201 0 340 151.5t139 435.5q0 133 -30.5 254t-92 223.5 t-169 164t-249.5 61.5q-86 0 -166.5 -30.5t-156.5 -96.5t-121 -186.5t-45 -280.5z" />
<glyph unicode="P" horiz-adv-x="1124" d="M96 1341q125 16 406 17q260 0 393 -82q164 -102 164 -307q0 -225 -205 -326q-129 -61 -283 -61q-10 4 -11 21.5t9 19.5q301 55 301 344q0 152 -86 239.5t-243 87.5q-80 0 -95.5 -11t-15.5 -62v-914q0 -166 19.5 -206t115.5 -50l56 -6q8 -8 7 -27.5t-12 -23.5 q-174 6 -266 6q-115 0 -250 -6q-10 4 -11 22.5t7 28.5l43 6q88 12 105.5 51t17.5 205v756q0 137 -14.5 174t-81.5 45l-74 8q-9 7 -9 24q0 20 13 27z" />
<glyph unicode="Q" horiz-adv-x="1628" d="M94 662q0 309 207 515.5t522 206.5q336 0 523.5 -205.5t187.5 -496.5q0 -248 -138.5 -433.5t-357.5 -250.5q-4 -10 17 -31q272 -262 456 -321q88 -29 191 -29q55 0 98 18q8 -2 11 -12l2 -8q0 -5 -3 -10q-94 -53 -229 -54q-166 0 -332 76q-193 90 -379 271 q-43 43 -66.5 55t-70.5 20q-123 18 -201 50q-205 76 -321.5 248t-116.5 391zM299 727q0 -94 18.5 -188.5t60.5 -187.5t103.5 -162.5t156.5 -113.5t212 -44q201 0 340 151.5t139 435.5q0 133 -30.5 254t-92 223.5t-169 164t-249.5 61.5q-86 0 -166.5 -30.5t-156.5 -96.5 t-121 -186.5t-45 -280.5z" />
<glyph unicode="R" horiz-adv-x="1320" d="M81 20q0 16 7 25l51 6q86 10 104.5 50t18.5 206v735q0 150 -14.5 191t-75.5 49l-66 8q-10 8 -10 26.5t13 24.5q184 16 456 17q229 0 342 -62q170 -88 170 -286q0 -131 -78.5 -217t-177.5 -125q-12 -14 10 -50q139 -223 227.5 -342.5t184.5 -201.5q57 -51 141 -58 q8 -4 10 -13v-2q0 -8 -8 -13q-31 -10 -90 -11q-135 0 -226 53.5t-198 205.5q-27 39 -98.5 151.5t-101.5 157.5q-25 35 -55.5 50t-90.5 15q-70 0 -83 -6t-13 -39v-258q0 -166 17.5 -205t105.5 -51l43 -6q8 -8 7 -27.5t-11 -23.5q-137 6 -244 6q-111 0 -256 -6q-11 4 -11 26z M430 750q0 -59 6 -68q10 -10 142 -10q141 0 210 53q102 80 103 254q0 133 -84 224t-244 91q-92 0 -112.5 -10t-20.5 -55v-479z" />
<glyph unicode="S" horiz-adv-x="1001" d="M84 330q8 10 25.5 12t23.5 -6q90 -305 352 -305q123 0 189.5 68.5t66.5 166.5q0 84 -33.5 152.5t-134.5 134.5l-194 127q-221 145 -221 352q0 152 111.5 252t305.5 100q92 0 191 -26q41 -12 72 -12q37 -98 36 -250q-6 -10 -24.5 -12.5t-26.5 6.5q-12 45 -28.5 78.5 t-46 71.5t-82 59.5t-121.5 21.5q-135 0 -189.5 -68.5t-54.5 -158.5q0 -143 174 -252l164 -103q256 -158 256 -393q0 -170 -119 -274.5t-317 -104.5q-188 0 -320 76q-18 33 -34.5 123t-20.5 164z" />
<glyph unicode="T" horiz-adv-x="1351" d="M14 1110q47 135 78 305q4 4 19.5 4t19.5 -4q4 -25 16.5 -38t42 -18t48 -6t67.5 -1h830q84 0 110.5 9t48.5 48q8 4 21.5 2t15.5 -8q-16 -61 -25 -163q-6 -70 -7 -114q0 -20 1 -34q-6 -12 -25.5 -13.5t-27.5 8.5q-14 123 -51 150q-70 51 -238 51h-145q-45 0 -52 -9t-7 -60 v-912q0 -166 18.5 -207t104.5 -49l65 -6q8 -6 7 -26.5t-11 -24.5q-176 6 -268 6q-88 0 -285 -6q-10 4 -11 23.5t11 27.5l74 6q86 8 106.5 50t20.5 206v916q0 47 -8.5 56t-53.5 9h-112q-197 0 -252 -51q-51 -45 -92 -141q-12 -8 -30 -3t-24 17z" />
<glyph unicode="U" horiz-adv-x="1527" d="M76 1358q154 -6 254 -6t252 6q10 -4 11 -23.5t-7 -25.5l-49 -4q-86 -8 -104.5 -50.5t-18.5 -207.5v-443q0 -264 96 -405.5t319 -141.5q211 0 310.5 147.5t99.5 397.5v236q0 354 -39 424q-20 37 -102 43l-51 4q-8 10 -7.5 26.5t11.5 22.5q117 -6 233 -6q104 0 215 6 q12 -8 12 -24.5t-8 -24.5l-49 -4q-82 -6 -102 -50q-29 -68 -29 -417v-232q0 -336 -143 -489q-66 -72 -170.5 -111t-221.5 -39q-252 0 -382 113q-160 133 -160 483v484q0 166 -18.5 207.5t-104.5 50.5l-51 4q-7 5 -8 21q1 23 12 28z" />
<glyph unicode="V" horiz-adv-x="1384" d="M6 1358q88 -6 213 -6q119 0 248 6q10 -6 12 -23.5t-8 -27.5l-31 -4q-92 -12 -96 -39q14 -70 102 -287q180 -455 291 -707q29 59 66 145.5t77 181.5t54 128q125 293 190 459q18 49 19 80q0 29 -92 39l-37 4q-10 10 -8 27.5t12 23.5q86 -6 213 -6q96 0 199 6q10 -6 11 -25 v-4q0 -15 -7 -22l-62 -4q-66 -6 -106 -72q-84 -139 -230 -471l-110 -252q-158 -365 -213 -535q-8 -6 -23 -6q-14 0 -31 6q-29 113 -94 273l-360 889q-37 90 -70 124.5t-96 43.5l-37 4q-9 7 -9 22q0 20 13 29z" />
<glyph unicode="W" horiz-adv-x="1966" d="M0 1358q82 -6 211 -6q125 0 233 6q12 -4 13.5 -21.5t-8.5 -27.5l-48 -4q-68 -6 -67 -35q0 -31 106 -275q113 -252 355 -764q113 233 157 332q33 70 33 84.5t-16 52.5q-96 219 -226 492q-27 53 -54 80.5t-77 32.5l-49 4q-10 12 -9 27.5t13 21.5q88 -6 219 -6q156 0 226 6 q10 -4 12 -20.5t-8 -28.5l-53 -4q-59 -4 -67 -24q-1 -4 -1 -9q0 -23 25 -80q59 -141 157 -356q70 145 121 268q29 66 41 104.5t10 60t-14 28t-39 8.5l-61 4q-25 37 4 49q82 -6 192 -6q127 0 197 6q10 -4 12 -20.5t-8 -28.5l-59 -4q-18 -2 -34 -7.5t-30 -17.5t-24.5 -22.5 t-22.5 -32t-18.5 -31.5t-20.5 -37t-18 -35q-82 -145 -160 -325q-18 -37 -19 -49q0 -14 15 -50q29 -66 100.5 -223.5t108.5 -243.5q100 227 184 433q80 193 164 407q61 170 61 186q0 43 -67 48l-60 4q-29 33 2 49q117 -6 197 -6q111 0 190 6q12 -4 14 -21v-3q0 -15 -10 -25 l-38 -4q-72 -6 -107 -61.5t-137 -295.5l-150 -346q-135 -313 -256 -629q-10 -6 -24 -6q-16 0 -29 6q-43 117 -248 582q-180 -367 -256 -582q-10 -6 -24.5 -6t-30.5 6q-61 150 -141 330q-43 94 -179.5 393t-211.5 461q-25 53 -38.5 76.5t-42 45t-69.5 26.5l-49 4q-9 7 -9 20 q0 22 15 29z" />
<glyph unicode="X" horiz-adv-x="1316" d="M-24 22q0 16 10 23l51 6q74 8 129 55.5t115 126.5q233 311 278 377q18 27 19 41q0 12 -25 47l-307 441q-53 76 -90 108.5t-88 44.5l-66 15q-8 8 -6 27.5t10 23.5q145 -6 238 -6q141 0 231 6q10 -4 12 -22.5t-8 -28.5l-57 -4q-61 -4 -61.5 -27t61.5 -113 q229 -336 262 -375q90 113 274 418q29 47 29 68q0 18 -67 26l-54 7q-10 10 -9 27.5t13 23.5q109 -6 217 -6q100 0 197 6q10 -8 12 -25.5t-8 -25.5l-49 -4q-88 -8 -219 -175q-80 -102 -266 -362q-20 -31 -21 -39q0 -18 27 -53l346 -488q90 -125 186 -135l72 -6q9 -9 9 -24v-3 q-1 -16 -11 -24q-141 6 -258 6q-154 0 -264 -6q-25 25 -4 51l59 6q70 6 70 27q0 27 -45 90q-262 371 -293 412q-45 -57 -138.5 -196.5t-150.5 -240.5q-27 -47 -27 -65q0 -20 60 -27l55 -6q10 -10 9 -26.5t-11 -24.5q-111 6 -221 6q-113 0 -211 -6q-16 7 -16 28z" />
<glyph unicode="Y" horiz-adv-x="1175" d="M-2 1358q98 -6 238 -6q141 0 219 6q12 -4 14 -23.5t-8 -27.5l-27 -4q-86 -12 -86 -37q0 -31 64 -158q197 -391 231 -455q117 199 193 346q133 248 133 270.5t-86 33.5l-37 4q-10 10 -9 27.5t13 23.5q111 -6 197 -6t190 6q12 -8 13 -26v-3q0 -15 -9 -22l-57 -11 q-20 -4 -39 -13t-34 -19.5t-33.5 -33t-30 -36.5t-32 -47t-30.5 -50.5t-34.5 -60.5t-37.5 -63l-129 -223q-68 -117 -82 -166t-14 -166v-107q0 -166 20.5 -210t102.5 -50l78 -6q8 -10 7 -28.5t-11 -22.5q-190 6 -279 6q-106 0 -268 -6q-10 4 -11 22.5t7 28.5l63 6 q86 8 104.5 49t18.5 211v105q0 86 -10 127t-55 127l-242 471q-49 94 -80 120.5t-82 34.5l-57 11q-9 9 -9 22q0 21 13 29z" />
<glyph unicode="Z" horiz-adv-x="1312" d="M55 18q33 31 104.5 120t119.5 159l442 629q180 258 199 291q25 43 24 55q0 16 -74 16h-305q-244 0 -305 -67q-51 -55 -90 -140q-14 -6 -29.5 -2t-21.5 17q47 135 84 307q8 6 16.5 6t18.5 -6q4 -35 38.5 -43t163.5 -8h541q203 0 236 6q12 -2 12 -19q-78 -68 -336 -438 l-338 -487q-203 -295 -203 -317.5t58 -28.5q53 -4 303 -5q293 0 379 48q80 45 143 188q41 14 51 -14q-41 -211 -92 -291q-170 6 -373 6h-526q-88 0 -229 -6q-11 6 -11 24z" />
<glyph unicode="[" horiz-adv-x="655" d="M240 -307v1712h141q33 0 70.5 -1t84 -3t70.5 -2q27 -16 2 -45l-182 -21q-33 -2 -51 -20q-27 -27 -27 -320v-889q0 -293 27 -319q18 -18 51 -21l182 -20q25 -29 -2 -45q-25 0 -71 -2t-83.5 -3t-70.5 -1h-141z" />
<glyph unicode="\" horiz-adv-x="632" d="M61 1405h119l391 -1438h-118z" />
<glyph unicode="]" horiz-adv-x="655" d="M47 -256l182 20q33 2 52 21q27 27 26 319v889q0 293 -26 320q-18 18 -52 20l-182 21q-25 29 2 45q25 0 71 2t84 3t70 1h142v-1712h-142q-33 0 -70.5 1t-83.5 3t-71 2q-27 16 -2 45z" />
<glyph unicode="^" d="M100 500l363 782h98l361 -782h-127l-283 637l-283 -637h-129z" />
<glyph unicode="_" d="M0 -154h1024v-102h-1024v102z" />
<glyph unicode="`" horiz-adv-x="737" d="M129 1278q0 18 39 51q43 29 70 29q25 0 47 -47l161 -330q0 -12 -15 -19.5t-28 -5.5l-239 261q-35 36 -35 61z" />
<glyph unicode="a" horiz-adv-x="827" d="M72 162q0 61 36.5 100t133.5 74l243 88q35 12 35 59l2 95q4 178 -149 178q-49 0 -89 -23.5t-42 -68.5q-4 -57 -21 -70q-49 -39 -117 -39q-29 0 -28 29q0 78 133 165t248 87q111 0 164 -62q49 -57 49 -162v-16l-13 -356q-1 -13 0 -26q0 -153 95 -153q27 0 51 13 q25 14 26 14q14 0 15 -27q0 -6 -20.5 -27.5t-63.5 -42t-88 -20.5q-84 0 -133 64q-18 29 -33 28q-6 0 -80 -40q-94 -51 -147 -52q-90 0 -144 47q-63 58 -63 144zM229 186q0 -39 31 -81t98 -42q29 0 69 17.5t56 34.5q23 23 27 96l4 121q0 27 -20 26q-23 0 -84 -20 q-98 -33 -139.5 -65t-41.5 -87z" />
<glyph unicode="b" d="M61 1357.5q0 16.5 9 20.5q14 6 58 20.5t87 31t78 34.5q14 0 20 -12q-8 -143 -8 -254v-387q0 -43 21 -43q117 68 235 68q172 0 281.5 -115t109.5 -287q0 -205 -132 -334t-339 -129q-86 0 -174 27q-80 27 -86 27q-20 0 -43 -31q-2 -2 -8 -2q-14 0 -20 12q4 57 4 174v977 q0 92 -9.5 117.5t-54.5 52.5l-20 12q-9 4 -9 20.5zM305 279q0 -115 51 -179q55 -68 156 -67q135 0 201.5 97t66.5 243q0 164 -82 269.5t-229 105.5q-88 0 -139 -33q-25 -16 -25 -117v-319z" />
<glyph unicode="c" horiz-adv-x="819" d="M74 379q0 184 129 320.5t366 136.5q104 0 183 -35q31 -27 30 -82q0 -29 -13 -52.5t-32 -23.5q-16 0 -28 14q-88 109 -205 109q-115 0 -199 -88t-84 -242q0 -133 88 -241.5t242 -108.5q143 0 227 123q12 4 23.5 -5t13.5 -24q-49 -104 -145.5 -156.5t-196.5 -52.5 q-174 0 -280 105q-119 115 -119 303z" />
<glyph unicode="d" horiz-adv-x="1042" d="M72 365q0 211 141 341t354 130q86 0 138 -19q12 0 12 29v309q0 92 -9.5 117.5t-54.5 52.5l-20 12q-8 4 -8 20.5t8 20.5q147 47 221 86q14 0 20 -12q-6 -184 -6 -254v-899q0 -137 10.5 -187.5t49.5 -50.5q27 0 88 21q12 -4 12 -30.5t-14 -35.5q-162 -23 -271 -65 q-23 0 -22 16v35q0 55 -4 64h-8q-137 -94 -258 -95q-168 0 -273.5 114t-105.5 280zM240 432q0 -150 80.5 -256t224.5 -106q100 0 157 57q14 14 15 76v403q0 47 -23 80q-61 86 -172 86q-133 0 -207.5 -99.5t-74.5 -240.5z" />
<glyph unicode="e" horiz-adv-x="811" d="M72 373q0 193 115.5 328t295.5 135q127 0 209 -74t82 -170q0 -37 -8 -53q-8 -14 -121 -15h-379q-39 0 -47 -8t-8 -47q0 -162 91 -272.5t249 -110.5q109 0 188 100q33 10 37 -24q-47 -96 -138 -143.5t-183 -47.5q-195 0 -297 135q-86 113 -86 267zM233 596q0 -10 15 -10 h145q186 0 213 20q12 8 12 39q0 51 -37.5 90t-119.5 39q-84 0 -155 -61.5t-73 -116.5z" />
<glyph unicode="f" horiz-adv-x="593" d="M61 24q0 15 9 21l47 6q55 8 66.5 36t11.5 142v433q0 43 -5.5 51t-35.5 8h-72q-23 14 -6 39l88 43q31 16 31 41q0 213 63 360q47 106 139 183t230 77q84 0 142 -34.5t58 -88.5q0 -31 -23.5 -52t-53.5 -21q-29 0 -50 24q-78 90 -163 90q-98 0 -146 -112q-45 -115 -45 -346 v-60q0 -41 4 -49t31 -8h233q16 -16 10 -48t-24 -38h-219q-25 0 -30 -8t-5 -51v-433q0 -115 12.5 -144.5t65.5 -33.5l74 -6q10 -8 8 -27.5t-12 -23.5q-137 6 -224 6q-104 0 -196 -6q-13 5 -13 30z" />
<glyph unicode="g" horiz-adv-x="913" d="M57 -313q0 49 23 75q20 20 71.5 70.5t67.5 67.5q37 37 17 49q-61 16 -105.5 62t-44.5 100q0 12 31 34q51 33 108 95q20 25 21 39q-154 82 -154 247q0 131 98.5 220.5t235.5 89.5q102 0 197 -41q76 -33 125 -33h165q15 -7 15 -33v-12q-4 -37 -27 -39h-147q4 -35 4 -105 q0 -57 -18.5 -111t-55.5 -103.5t-107.5 -80t-162.5 -30.5q-16 0 -90 6q-90 -53 -91 -113q0 -37 37 -61.5t107 -24.5q33 0 114.5 3t129.5 3q287 0 286 -225q0 -164 -152.5 -275.5t-357.5 -111.5q-172 0 -256 73t-84 165zM211 -260q0 -88 70.5 -145.5t203.5 -57.5t218 64.5 t85 154.5q0 178 -233 178h-70q-141 0 -176 -22q-98 -61 -98 -172zM258 547q0 -106 55.5 -173t130.5 -67q80 0 124 58.5t44 154.5q0 111 -46 183.5t-136 72.5q-76 0 -124 -63.5t-48 -165.5z" />
<glyph unicode="h" horiz-adv-x="1054" d="M43 24q0 15 8 21l51 6q55 6 66.5 35t11.5 143v926q0 92 -9 117.5t-54 52.5l-21 12q-8 4 -8 20.5t8 20.5q147 47 221 86q14 0 21 -12q-6 -184 -6 -254v-430q0 -33 8 -39q137 106 276 107q137 0 201 -74t64 -191v-342q0 -115 12 -143.5t65 -34.5l56 -6q9 -7 8 -21v-7 q-2 -19 -12 -23q-111 6 -205 6q-109 0 -191 -6q-10 4 -12 23.5t8 27.5l41 6q55 8 66.5 36t11.5 142v293q0 102 -49 160.5t-145 58.5q-94 0 -160 -55q-29 -25 -36 -42t-7 -71v-344q0 -113 12 -141.5t66 -36.5l43 -6q10 -6 8 -26.5t-12 -24.5q-92 6 -193 6q-102 0 -201 -6 q-12 5 -12 30z" />
<glyph unicode="i" horiz-adv-x="526" d="M71 24q0 15 9 21l43 6q55 8 66.5 36t11.5 142v359q0 63 -7.5 81.5t-48.5 45.5l-18 12q-6 6 -6 19.5t8 17.5q123 43 211 100q16 0 20 -12q-8 -143 -8 -254v-369q0 -113 12.5 -141.5t65.5 -36.5l43 -6q9 -7 9 -21q0 -3 -1 -7q-2 -19 -12 -23q-92 6 -193 6q-106 0 -192 -6 q-13 5 -13 30zM158 1167q0 49 31.5 80t78.5 31q45 0 74 -30.5t29 -76.5q0 -53 -31 -79.5t-78 -26.5t-75.5 29.5t-28.5 72.5z" />
<glyph unicode="j" horiz-adv-x="518" d="M-27 -504q72 35 121 92q111 129 111 484v516q0 63 -7.5 81.5t-47.5 45.5l-19 12q-6 6 -6 19.5t8 17.5q123 43 211 100q16 0 21 -12q-8 -143 -9 -254v-496q0 -215 -43 -319q-78 -188 -311 -334q-18 2 -27 16q-5 8 -4 18q-1 6 2 13zM162 1169q0 49 31.5 79t78.5 30 q45 0 74 -30.5t29 -76.5q0 -51 -32 -78.5t-77 -27.5q-47 0 -75.5 29.5t-28.5 74.5z" />
<glyph unicode="k" horiz-adv-x="987" d="M47 23q0 15 10 22l45 6q55 8 66.5 36t11.5 142v926q0 92 -9 117.5t-54 52.5l-21 12q-8 4 -8 20.5t8 20.5q147 47 221 86q14 0 21 -12q-6 -184 -6 -254v-702q0 -20 6 -25.5t31 -5.5q61 0 139 80l84 90q72 78 72 94q0 14 -46 21l-49 6q-14 4 -14 25.5t14 25.5h47 q172 0 326 16q10 -4 12 -23.5t-8 -27.5l-65 -12q-53 -10 -129 -72q-27 -20 -187 -172q-31 -29 -14 -49q45 -59 137 -164q145 -164 193 -209q37 -33 106 -45l29 -4q9 -7 9 -24v-4q-1 -19 -13 -23q-90 6 -195 6q-125 0 -213 -6q-12 6 -13 25.5t9 25.5l37 6q51 6 51 21 q0 16 -35 57l-219 254q-27 29 -63 29q-27 0 -33 -10.5t-6 -59.5v-113q0 -113 12 -141.5t66 -36.5l49 -6q10 -8 8 -27.5t-12 -23.5q-102 6 -199 6q-104 0 -197 -6q-12 5 -12 29z" />
<glyph unicode="l" horiz-adv-x="505" d="M47 24q0 15 8 21l47 6q55 8 66.5 36t11.5 142v926q0 92 -9 117.5t-54 52.5l-21 12q-8 4 -8 20.5t8 20.5q147 47 221 86q14 0 21 -12q-6 -184 -6 -254v-969q0 -113 12 -141.5t66 -36.5l49 -6q9 -7 8 -21v-7q-2 -19 -12 -23q-102 6 -199 6q-104 0 -197 -6q-12 5 -12 30z " />
<glyph unicode="m" horiz-adv-x="1611" d="M65 24q0 15 9 21l49 6q55 8 66.5 36t11.5 142v359q0 63 -7.5 81.5t-48.5 45.5l-18 12q-6 6 -6 19.5t8 17.5q41 14 108.5 47t96.5 53q16 0 22 -14q-4 -47 -4 -96q0 -23 23 -23q147 104 272 105q76 0 124 -28t93 -93q20 -4 51 16q150 104 279 105q119 0 181.5 -72 t62.5 -182v-353q0 -113 12 -141.5t66 -36.5l49 -6q9 -7 8 -21v-7q-2 -19 -12 -23q-102 6 -199 6q-100 0 -186 -6q-10 4 -12.5 23.5t7.5 27.5l37 6q55 8 66.5 36t11.5 142v297q0 211 -190 211q-115 0 -170 -71q-31 -39 -31 -123v-314q0 -113 12.5 -141.5t65.5 -36.5l43 -6 q10 -8 8 -27.5t-12 -23.5q-92 6 -192.5 6t-186.5 -6q-10 4 -12.5 23.5t8.5 27.5l37 6q55 8 66 36t11 142v297q0 211 -188 211q-111 0 -172 -73q-31 -37 -31 -117v-318q0 -113 11.5 -141.5t66.5 -36.5l37 -6q10 -8 8 -27.5t-12 -23.5q-82 6 -186.5 6t-198.5 -6q-13 5 -13 30z " />
<glyph unicode="n" horiz-adv-x="1075" d="M71 24q0 15 9 21l43 6q55 8 66.5 36t11.5 142v359q0 63 -7.5 81.5t-48.5 45.5l-18 12q-6 6 -6 19.5t8 17.5q41 14 108.5 47t96.5 53q16 0 22 -14q-4 -47 -4 -96q0 -23 23 -23q168 104 287 105q121 0 180 -72t59 -182v-353q0 -113 12.5 -141.5t65.5 -36.5l45 -6 q9 -7 9 -21q0 -3 -1 -7q-2 -19 -12 -23q-92 6 -193 6q-106 0 -190 -6q-10 4 -12 23.5t8 27.5l39 6q55 8 66.5 36t11.5 142v306q0 203 -193 202q-121 0 -174 -71q-31 -41 -31 -123v-314q0 -113 11.5 -141.5t66.5 -36.5l37 -6q10 -8 8 -27.5t-12 -23.5q-82 6 -187 6 q-106 0 -192 -6q-13 5 -13 30z" />
<glyph unicode="o" horiz-adv-x="995" d="M72 393q0 190 126 316.5t310 126.5q176 0 296 -119t120 -305q0 -193 -121 -317t-311 -124q-180 0 -300 117t-120 305zM248 420q0 -154 68.5 -270.5t195.5 -116.5q123 0 179.5 103.5t56.5 242.5q0 154 -66 274.5t-199 120.5q-104 0 -169.5 -94t-65.5 -260z" />
<glyph unicode="p" horiz-adv-x="1038" d="M45 -499q0 15 8 22l43 6q55 8 66.5 35.5t11.5 142.5v881q0 63 -7 81.5t-48 45.5l-19 12q-6 6 -6 19.5t8 17.5q123 51 203 110q18 0 25 -14q-8 -74 -8 -94q0 -27 18 -27q4 2 26.5 14.5t49 25t60.5 26.5t74 22.5t77 8.5q152 0 246 -107.5t94 -267.5q0 -213 -141.5 -351.5 t-358.5 -138.5q-76 0 -113 9q-29 -6 -28 -58v-215q0 -111 11 -138.5t66 -35.5l80 -10q10 -8 8 -27.5t-12 -23.5q-147 6 -229 6q-106 0 -193 -6q-12 4 -12 29zM326 207q0 -47 13 -71.5t48 -51.5q59 -45 148 -45q123 0 194.5 102.5t71.5 266.5q0 133 -73 231t-204 98 q-121 0 -174 -57q-25 -31 -24 -121v-352z" />
<glyph unicode="q" horiz-adv-x="1017" d="M72 373q0 215 142 339t349 124q98 0 170 -21q53 -14 72 -14q16 0 55 35q14 0 23 -19q-16 -66 -17 -248v-862q0 -111 12.5 -138.5t65.5 -35.5l60 -10q9 -7 8 -22q0 -25 -13 -29q-117 6 -208 6q-96 0 -213 -6q-10 4 -12.5 23.5t7.5 27.5l64 6q55 6 66.5 34.5t11.5 143.5 v266q0 49 -19 50q-88 -51 -209 -52q-109 0 -192.5 40t-129.5 102.5t-69.5 129.5t-23.5 130zM244 438q0 -170 90 -277.5t233 -107.5q106 0 133 33q14 16 15 82v305q0 156 -27 205q-53 94 -176 94q-117 0 -192.5 -94.5t-75.5 -239.5z" />
<glyph unicode="r" horiz-adv-x="679" d="M75 24q0 15 9 21l39 6q55 8 66.5 36t11.5 142v359q0 63 -7.5 81.5t-48.5 45.5l-18 12q-6 6 -6 19.5t8 17.5q94 33 207 100q16 -4 16 -14v-119q0 -14 6 -18q147 123 226 123q39 0 65.5 -22.5t26.5 -59.5q0 -45 -29 -70t-59 -25q-20 0 -45 15q-49 33 -90 33q-43 0 -74 -41 q-27 -37 -27 -158v-279q0 -115 12.5 -144.5t69.5 -33.5l74 -6q10 -8 8 -27.5t-12 -23.5q-143 6 -228 6q-109 0 -188 -6q-13 5 -13 30z" />
<glyph unicode="s" horiz-adv-x="661" d="M61 240q8 10 23.5 10t24.5 -8q66 -211 217 -211q59 0 98 33.5t39 97.5q0 43 -26.5 82t-54.5 59.5t-77 46.5q-100 57 -151.5 115.5t-51.5 136.5q0 109 79 171.5t200 62.5q139 0 180 -37q33 -80 33 -166q-6 -10 -23.5 -12.5t-25.5 6.5q-57 150 -180 149q-59 0 -95.5 -34.5 t-36.5 -90.5q0 -31 12.5 -55.5t42 -48t46 -32.5t57.5 -34q100 -57 154.5 -117.5t54.5 -158.5q0 -111 -86 -172.5t-209 -61.5q-141 0 -219 62q-26 62 -26 157q-1 24 1 50z" />
<glyph unicode="t" horiz-adv-x="628" d="M69 748q0 10 5 16q92 29 131 63q47 43 86 121q4 3 12 3q4 0 9 -1q15 -2 22 -12v-92q0 -27 5 -33t32 -6h227q17 -14 17 -42v-3q-1 -31 -15 -41h-231q-25 0 -31 -8t-6 -41v-383q0 -109 28.5 -168.5t120.5 -59.5q29 0 56 11q10 4 29.5 16t21.5 12q12 0 18 -12t2 -22 q-80 -94 -215 -95q-123 0 -168 58.5t-45 163.5v469q0 41 -6 50t-37 9h-57q-11 8 -11 27z" />
<glyph unicode="u" horiz-adv-x="1048" d="M92 799q125 2 219 37q18 -2 21 -15q-6 -51 -6 -178v-342q0 -117 41 -176t149 -59q94 0 166 61q41 37 41 119v336q0 68 -7 97.5t-19.5 39.5t-49.5 24l-26 11q-10 6 -10.5 22.5t12.5 22.5q168 4 239 37q16 -4 19 -15q-6 -59 -7 -178v-344q0 -131 11.5 -177t52.5 -46 q33 0 80 10q10 -8 10 -30.5t-12 -28.5q-209 -43 -268 -76q-18 0 -25 14v84q0 29 -18 29q-168 -106 -283 -107q-131 0 -189.5 63.5t-58.5 192.5v342q0 102 -8 129t-53 45l-25 11q-9 7 -8 19q-1 21 12 26z" />
<glyph unicode="v" horiz-adv-x="884" d="M10 813q76 -6 193 -6q61 0 166 6q10 -6 11 -24.5t-9 -26.5l-25 -4q-47 -8 -54 -22.5t9 -59.5q59 -178 154 -391q27 -59 32 -66q12 10 39 78q14 39 61.5 160t55.5 141q37 92 37 127q0 25 -37 31l-47 6q-10 10 -8 27.5t12 23.5q96 -6 154 -6q57 0 143 6q10 -6 12 -25 q0 -3 1 -5q0 -14 -9 -21l-31 -4q-14 -2 -25 -6t-19.5 -9.5t-18.5 -16.5t-15.5 -17.5t-16.5 -25.5t-16 -28.5t-19 -36.5l-19 -38q-20 -39 -91 -204t-98 -233q-2 -8 -26.5 -67.5t-40.5 -100.5q-6 -8 -21 -8q-18 0 -26 8q-20 72 -78 213l-172 416q-2 6 -11.5 27.5t-11.5 28 t-10 22.5t-13 22.5t-14.5 18.5t-17.5 16t-19.5 9.5t-25.5 7.5l-41 6q-9 10 -8 24q-1 22 14 27z" />
<glyph unicode="w" horiz-adv-x="1351" d="M4 813q94 -6 182 -6q96 0 179 6q12 -6 13 -23.5t-9 -25.5l-47 -8q-45 -6 -46 -29q0 -27 33 -106l127 -314q8 -20 17.5 -41.5t14.5 -33t5 -13.5q8 6 47 98l101 248q23 57 22 92q0 15 -4 27q-23 55 -94 72l-33 8q-10 10 -8 27.5t14 21.5q76 -6 170 -6q90 0 195 6 q12 -4 14 -22.5t-8 -26.5l-43 -8q-59 -12 -67 -27q-2 -4 -2 -10q0 -18 16 -57q2 -6 155 -383q23 -53 27 -58q6 6 29 58q49 109 139 362q20 59 20 88q0 20 -37 27l-51 8q-12 8 -10 26.5t12 22.5q90 -6 162 -6q66 0 133 6q12 -6 14 -23q0 -3 1 -6q0 -13 -9 -20l-41 -8 q-35 -8 -55 -33t-55 -96q-84 -176 -193 -465q-59 -152 -69 -187q-10 -8 -27 -8q-14 0 -23 8q-43 129 -84 226l-98 235q-41 104 -47 104.5t-45 -100.5l-106 -256q-55 -131 -82 -209q-8 -8 -24.5 -8t-25.5 8q-10 35 -61 170l-188 463q-35 82 -58.5 109.5t-64.5 38.5l-33 8 q-7 7 -7 22q0 20 13 27z" />
<glyph unicode="x" horiz-adv-x="884" d="M27 813q121 -6 178 -6q53 0 174 6q10 -6 11 -24.5t-9 -26.5l-31 -6q-41 -8 -43 -21.5t25 -50.5l98 -143q16 -25 27 -35q8 6 118 174q25 41 22 53t-38 23l-24 6q-10 8 -7.5 27.5t15.5 23.5q72 -6 149 -6q90 0 150 6q12 -6 13 -24.5t-9 -26.5l-31 -6q-80 -16 -102 -35 q-51 -41 -193 -234q-18 -25 -18 -37t20 -38l191 -269q37 -51 65.5 -72.5t69.5 -23.5l33 -2q9 -7 8 -21v-7q-2 -19 -12 -23q-115 6 -203 6q-96 0 -195 -6q-12 4 -14 23.5t8 27.5l59 6q43 4 50.5 19.5t-15.5 42.5l-106 153q-35 51 -45 60q-14 -14 -37 -50l-86 -135 q-32 -48 -32 -65v-1q1 -17 38 -24l35 -6q10 -8 8 -27.5t-12 -23.5q-76 6 -152 6q-70 0 -149 -6q-12 6 -13.5 25.5t9.5 25.5l47 8q53 8 102 62q25 25 94.5 121t87.5 118q25 29 6 54l-184 260q-51 76 -123 88l-32 6q-9 7 -9 21q0 25 13 30z" />
<glyph unicode="y" horiz-adv-x="897" d="M16 813q98 -6 195 -6q80 0 178 6q12 -4 13 -23.5t-9 -27.5l-51 -10q-45 -10 -45 -27q0 -25 59 -193l66 -188q53 -143 59 -145q12 8 76 151l70 162q72 170 71 205q0 27 -49 35l-63 10q-10 8 -9 27.5t13 23.5q98 -6 180 -6q70 0 156 6q12 -6 13 -25v-3q0 -16 -9 -23l-35 -6 q-49 -8 -84 -54.5t-90 -162.5l-115 -236q-156 -317 -336 -717q-43 -96 -131 -96q-43 0 -66.5 24.5t-23.5 63.5t23.5 60.5t58.5 21.5h39q45 0 68 37q80 125 118 227q20 55 21 88q0 43 -35 142l-160 438q-23 63 -32 84.5t-31.5 45t-57.5 30.5l-51 10q-9 7 -8 21q-1 25 14 30z " />
<glyph unicode="z" horiz-adv-x="772" d="M43 604q4 43 25.5 124t42.5 116q6 4 12 4l12 -4q4 -25 29.5 -31t116.5 -6h290q94 0 125 6q12 -6 11 -20q-63 -88 -152 -234l-248 -416q-28 -47 -27 -63q0 -19 66 -19h70q184 0 241 62q25 29 66 119q10 6 25.5 3t19.5 -16q-31 -170 -76 -235q-102 6 -229 6h-184 q-178 0 -216 -6q-12 6 -12 20q74 90 197 301l217 369q23 43 17.5 52t-36.5 9h-141q-102 0 -141 -30q-37 -29 -74 -119q-8 -10 -25.5 -7t-21.5 15z" />
<glyph unicode="{" horiz-adv-x="655" d="M137 526q-18 23 0 45q59 4 98 20.5t55.5 44.5t20.5 50.5t4 55t-14 204.5q-16 190 -16 217q0 258 290 258q20 -20 0 -41q-102 -16 -137 -68t-35 -128q0 -66 21 -205q18 -125 18 -211q0 -176 -153 -215v-8q154 -39 153 -215q0 -55 -18 -211q-20 -174 -21 -205 q0 -76 35 -128t137 -69q8 -6 8.5 -19t-8.5 -22q-291 0 -290 258q0 72 16 220q14 125 14 202q0 33 -4 55.5t-20.5 50t-55.5 44t-98 20.5z" />
<glyph unicode="|" horiz-adv-x="489" d="M184 -512v2048h121v-2048h-121z" />
<glyph unicode="}" horiz-adv-x="655" d="M72 -302q0 13 8 19q102 16 137 68.5t35 128.5q0 31 -21 205q-18 156 -18 211q0 176 154 215v8q-154 39 -154 215q0 86 18 211q20 139 21 205q0 76 -35 128t-137 68q-20 20 0 41q291 0 291 -258q0 -27 -17 -217q-14 -172 -14 -204.5t4 -55t20.5 -50.5t55.5 -44.5t98 -20.5 q18 -23 0 -45q-59 -4 -98 -20.5t-55.5 -44t-20.5 -50t-4 -55.5q0 -78 14 -202q16 -147 17 -220q0 -258 -291 -258q-8 9 -8 22z" />
<glyph unicode="~" d="M156 264q47 115 92 164q43 43 117 43h253q76 0 109 25.5t74 107.5q20 8 40.5 1t26.5 -30q-51 -129 -94 -167q-45 -39 -115 -39h-253q-76 0 -109 -26t-74 -107q-20 -8 -40.5 -1.5t-26.5 29.5z" />
<glyph unicode="&#xa1;" horiz-adv-x="450" d="M111 686q0 51 32.5 86t81.5 35q51 0 83 -35t32 -86q0 -49 -32 -81t-83 -32q-47 0 -80.5 31t-33.5 82zM125 -485q0 31 14 182l60 661q10 10 27.5 10.5t25.5 -10.5l59 -661q14 -152 15 -182q0 -37 -23.5 -48.5t-77 -11.5t-77 11.5t-23.5 48.5z" />
<glyph unicode="&#xa2;" d="M133 625q0 197 128 316.5t325 135.5l20 176q33 18 68 0l-21 -172q63 0 164 -22q45 -39 45 -105q0 -29 -8 -50t-16 -21q-12 0 -29 18q-66 78 -166 103l-82 -682q33 -8 82 -9q129 0 236 115q14 2 24 -6t8 -19q-115 -186 -362 -186l-25 -209q-35 -20 -67 0l26 215 q-154 18 -252 125t-98 277zM274 690q0 -109 56.5 -207t167.5 -143l80 670q-131 2 -217.5 -85.5t-86.5 -234.5z" />
<glyph unicode="&#xa3;" d="M31 8q0 53 98 133q141 121 141 447q0 18 -5 23t-27 5h-168q-12 10 -12.5 33t12.5 33h166q20 0 25 3t3 15q-2 35 -2 121q0 213 123 351.5t313 138.5q74 0 115 -31q23 -20 23 -47q0 -29 -21.5 -57.5t-38.5 -28.5q-10 0 -31 14q-80 63 -139 64q-78 0 -135 -76t-57 -211 q0 -61 14 -225q2 -20 8 -25.5t33 -5.5h301q14 -10 14 -33.5t-14 -32.5h-299q-27 0 -35 -5t-8 -23q0 -258 -195 -424l3 -4q76 10 163 -2q45 -6 181 -64q125 -53 188 -53q102 0 80 147q-6 35 8 53.5t41 18.5q31 0 52.5 -27.5t21.5 -64.5q0 -82 -96.5 -155.5t-225.5 -73.5 q-76 0 -223 79q-139 76 -211 76q-70 0 -70 -67q0 -20 -28.5 -38t-48.5 -18q-37 0 -37 37z" />
<glyph unicode="&#xa4;" d="M72 665.5q0 155.5 94 270.5l-92 92q4 31 33.5 59.5t66.5 38.5l84 -104q113 82 256 82t256 -82l84 104q37 -10 66.5 -38.5t33.5 -59.5l-92 -92q94 -115 94 -270.5t-94 -270.5l92 -92q-4 -31 -33.5 -59.5t-66.5 -38.5l-84 104q-113 -82 -256 -82t-256 82l-84 -104 q-37 10 -66.5 38.5t-33.5 59.5l92 92q-94 115 -94 270.5zM188 666q0 -145 97.5 -244.5t228.5 -99.5q129 0 227.5 100t98.5 244q0 141 -98.5 242.5t-227.5 101.5q-131 0 -228.5 -101.5t-97.5 -242.5z" />
<glyph unicode="&#xa5;" d="M7 1271.5q1 14.5 13 20.5q78 -6 222 -6q119 0 194 6q10 -4 11.5 -19.5t-7.5 -23.5l-78 -14q-41 -8 -40 -31q0 -14 71 -145l105 -187q63 -115 67 -114q20 0 64 80l78 143q106 201 106 217q0 29 -47 37l-78 14q-10 8 -8 23.5t14 19.5q92 -6 193 -6q76 0 153 6 q10 -6 11.5 -20.5t-7.5 -22.5l-49 -10q-41 -8 -75.5 -52t-96.5 -149l-182 -313h279q10 -8 10 -32.5t-10 -33.5h-306v-165h306q10 -10 10 -33t-10 -33h-310v-176q0 -125 14.5 -161t73.5 -42l76 -8q10 -8 8 -25.5t-12 -21.5q-111 6 -238 6q-119 0 -229 -6q-10 4 -12 21.5 t8 25.5l76 8q61 8 74.5 43t13.5 160v176h-311q-10 10 -10.5 32.5t10.5 33.5h307v165h-307q-10 8 -10.5 33t10.5 33h278l-209 354q-53 90 -79.5 119t-84.5 41l-43 10q-8 8 -7 22.5z" />
<glyph unicode="&#xa6;" horiz-adv-x="489" d="M184 -358v716h121v-716h-121zM184 666v716h121v-716h-121z" />
<glyph unicode="&#xa7;" horiz-adv-x="1036" d="M102 848q0 190 166 363t379 173q78 0 118 -29.5t40 -64.5q0 -23 -19.5 -44t-48.5 -21q-35 0 -57 16q-88 59 -168 59q-51 0 -86 -33.5t-35 -88.5q0 -74 59.5 -150t231.5 -233q131 -121 191.5 -232.5t60.5 -245.5q0 -203 -163 -387t-392 -184q-72 0 -118 28.5t-46 73.5 q0 29 19.5 51.5t52.5 22.5q29 0 51 -18q86 -72 174 -72q51 0 96 35t45 92q0 20 -5 40.5t-18.5 45.5t-23.5 43t-33.5 47t-37 45.5t-43 47t-40.5 41.5l-44 44l-39 39q-133 133 -200 242t-67 254zM203 938q0 -43 6 -81t29.5 -98.5t80 -137t142.5 -162.5q160 -162 217 -256 t57 -213q98 88 99 237q0 133 -60.5 237.5t-189.5 227.5q-166 158 -220.5 249t-54.5 216q-106 -90 -106 -219z" />
<glyph unicode="&#xa8;" horiz-adv-x="737" d="M90 1149q-2 45 26.5 75.5t73.5 30.5q43 0 73 -29.5t30 -68.5q0 -47 -28.5 -77.5t-74.5 -30.5q-43 0 -70.5 26.5t-29.5 73.5zM444 1151q0 43 30 73.5t75 30.5q43 0 70.5 -29.5t27.5 -66.5q0 -49 -27.5 -79.5t-70.5 -30.5t-73 27.5t-32 74.5z" />
<glyph unicode="&#xa9;" horiz-adv-x="1617" d="M92 676q0 297 206 502.5t511 205.5t511 -205.5t206 -502.5t-206 -503t-511 -206t-511 206t-206 503zM209 678q0 -266 173 -448.5t427 -182.5t427 182.5t173 448.5q0 264 -173 445.5t-427 181.5t-427 -181.5t-173 -445.5zM420 672q0 182 131 296.5t328 114.5q49 0 103 -7 t95 -16t49 -9q6 -35 13.5 -99.5t11.5 -91.5q-6 -10 -20.5 -12t-22.5 6q-55 174 -242 174q-139 0 -216 -97t-77 -247q0 -162 84 -260t222 -98q166 0 251 194q25 20 41 -6q-4 -41 -20 -103.5t-35 -93.5q-150 -47 -250 -47q-213 0 -329.5 119t-116.5 283z" />
<glyph unicode="&#xaa;" horiz-adv-x="679" d="M68 635q0 78 79 113q55 20 131 46.5t89 30.5q45 16 45 52v24q0 68 -21.5 105.5t-87.5 37.5q-80 0 -92 -63q-8 -43 -18 -53q-14 -10 -47 -22.5t-46 -12.5q-29 0 -28 27q0 47 61 94q115 92 236 92q96 0 134 -46t34 -130l-11 -250q-4 -115 70 -115q29 0 59 21 q12 0 17.5 -10.5t-0.5 -18.5q-63 -66 -148 -65q-51 0 -94 40q-18 18 -31 19q-10 0 -32 -12q-86 -47 -144 -47q-78 0 -116.5 41t-38.5 102zM203 651q0 -31 22.5 -59.5t69.5 -28.5q57 0 90 33q16 20 16 51l5 107q0 14 -3.5 20t-13.5 6t-20.5 -3t-34.5 -11q-4 -2 -18.5 -6 t-20.5 -6t-18.5 -8.5t-19.5 -10.5l-17.5 -10t-15.5 -13t-11 -16.5t-8 -21t-2 -23.5z" />
<glyph unicode="&#xab;" horiz-adv-x="774" d="M106 389q-27 33 0 64q57 68 244 307q27 -4 35 -27l-143 -287q-10 -25 0 -49l143 -291q-8 -20 -35 -26q-209 268 -244 309zM403 389q-27 33 0 64q57 68 244 307q27 -4 35 -27l-143 -287q-10 -25 0 -49l143 -291q-8 -20 -35 -26q-209 268 -244 309z" />
<glyph unicode="&#xac;" d="M68 524v101h888v-523h-120v422h-768z" />
<glyph unicode="&#xad;" horiz-adv-x="655" d="M66 410q0 31 16 51l477 45q31 -20 31 -66q0 -31 -17 -51l-477 -45q-30 25 -30 66z" />
<glyph unicode="&#xae;" horiz-adv-x="655" d="M61 1126.5q0 108.5 78 184t188.5 75.5t188.5 -75.5t78 -184t-78 -184.5t-188.5 -76t-188.5 76t-78 184.5zM125 1126q0 -88 59.5 -151.5t143.5 -63.5t143 63.5t59 151.5q0 90 -59 152.5t-143 62.5t-143.5 -62.5t-59.5 -152.5zM208 1014q-1 8 3 10l8 2q16 4 19.5 11t3.5 32 v117q0 39 -23 41h-8q-4 6 -3 13t5 9q86 4 115 4q102 0 102 -69q0 -39 -37 -58q-6 -2 0 -14q33 -70 51 -82q14 -10 19 -12q4 0 4 -6t-4 -8q-10 -2 -29 -3q-49 0 -76 43q-2 4 -28 52q-6 12 -18.5 12t-12.5 -10v-29q0 -25 4 -33t25 -10l6 -2q2 -2 2 -10t-2 -10q-10 0 -29.5 1 t-32 1t-32 -1t-27.5 -1q-4 2 -5 10zM299 1147q0 -10 4 -12t21 -2q41 0 41 41q0 51 -39 51q-27 0 -27 -17v-61z" />
<glyph unicode="&#xaf;" horiz-adv-x="737" d="M145 1130.5q0 36.5 17 59.5h418q14 -23 14 -59.5t-14 -57.5h-418q-17 21 -17 57.5z" />
<glyph unicode="&#xb0;" horiz-adv-x="618" d="M61 1073q0 104 72 171t176.5 67t176 -66.5t71.5 -171.5q0 -111 -70.5 -174t-177 -63t-177.5 63t-71 174zM166 1073q0 -78 41 -126t102.5 -48t102.5 48t41 126t-41 126t-102.5 48t-102.5 -48t-41 -126z" />
<glyph unicode="&#xb1;" d="M119 0v100h788v-100h-788zM119 520v101h334v333h120v-333h334v-101h-334v-348h-120v348h-334z" />
<glyph unicode="&#xb2;" horiz-adv-x="737" d="M59 655q0 12 4 19q88 55 213 180q188 188 189 340q0 80 -42 126t-112 46q-109 0 -184 -129q-12 -8 -25.5 -1t-13.5 19q84 195 285 195q111 0 176 -58.5t65 -152.5q0 -127 -155 -283l-115 -114q-70 -70 -70 -82q0 -16 29 -17h146q80 0 121.5 13.5t72.5 60.5q27 10 39 -14 q-10 -20 -22.5 -51t-20.5 -48.5t-17.5 -36t-19.5 -26.5q-102 4 -231 4h-148q-92 0 -153 -4q-11 10 -11 14z" />
<glyph unicode="&#xb3;" horiz-adv-x="737" d="M86 645q0 29 19.5 47.5t48.5 18.5q33 0 67 -54q23 -37 66 -36q74 0 153.5 70.5t79.5 182.5q0 76 -42 129.5t-128 53.5q-84 0 -147 -60q-37 18 -27 56q162 68 217 104q63 43 64 115q0 51 -32 79.5t-77 28.5q-100 0 -174 -118q-27 -2 -35 22q39 78 108.5 122t155.5 44 t141.5 -43t55.5 -102q0 -47 -32.5 -86t-116.5 -78q-6 -10 -1 -15.5t17 -5.5q82 0 141.5 -53t59.5 -141q0 -147 -142 -252q-147 -109 -295 -109q-145 0 -145 80z" />
<glyph unicode="&#xb4;" horiz-adv-x="737" d="M272 977l177 334q27 49 49 49q27 0 63 -31q35 -29 35 -53q0 -23 -33 -55l-256 -267q-31 -4 -35 23z" />
<glyph unicode="&#xb5;" horiz-adv-x="1048" d="M164 -424q0 66 5 226.5t5 226.5v745q0 33 21 33h116q18 -2 21 -14q-6 -51 -6 -220v-276q0 -217 149 -217q119 0 197 127q41 66 41 127v446q0 27 20 27h115q16 -4 18 -14q0 -14 -1 -60.5t-1 -89.5v-444q0 -123 47 -123q59 0 97 51q10 -8 17 -24.5t1 -24.5 q-53 -111 -182 -111q-59 0 -93 45t-38 117q0 8 -2 11t-4 3h-7h-6q-61 -96 -123.5 -135t-142.5 -39q-74 0 -139 51q-10 2 -14.5 -5t-4.5 -27v-35q0 -125 40 -256t40 -150q0 -37 -49 -67.5t-92 -30.5q-25 0 -35 25.5t-10 101.5z" />
<glyph unicode="&#xb6;" d="M121 657q0 221 150.5 335t418.5 114q190 0 248 -10q8 -6 8 -21.5t-8 -21.5l-80 -15q-78 -14 -93 -34.5t-15 -100.5v-950q0 -393 -242 -393q-70 0 -125 36.5t-55 112.5q0 78 59 107q33 0 65.5 -19.5t39.5 -42.5q-29 -35 -29 -69q0 -29 19.5 -46.5t48 -17.5t55 18.5 t51.5 81t25 160.5v289q0 39 -10.5 52.5t-33.5 13.5q-213 0 -355 115.5t-142 305.5z" />
<glyph unicode="&#xb7;" horiz-adv-x="512" d="M141 416q0 51 33 86t82 35q51 0 83 -35t32 -86q0 -49 -32 -81t-83 -32q-47 0 -81 31t-34 82z" />
<glyph unicode="&#xb8;" horiz-adv-x="737" d="M219 -381q0 16 12.5 31.5t32.5 15.5q18 0 51 -26.5t43 -26.5q49 0 50 57q0 35 -32 69t-81 52v10l123 199h63l-69 -113q-14 -25 16 -43q84 -55 84 -129q0 -68 -57.5 -113.5t-130.5 -45.5q-105 0 -105 63z" />
<glyph unicode="&#xb9;" horiz-adv-x="737" d="M177 1359q-1 13 7 19q100 16 250 72q14 0 15 -10q-4 -43 -5 -150v-469q0 -82 13.5 -103.5t72.5 -29.5l35 -4q8 -6 7 -22.5t-9 -20.5q-123 4 -188.5 4t-179.5 -4q-8 4 -9.5 20.5t7.5 22.5l34 4q59 8 72.5 29.5t13.5 103.5v396q0 63 -11 87.5t-52 28.5l-64 6q-8 7 -9 20z " />
<glyph unicode="&#xba;" horiz-adv-x="792" d="M66 791q0 137 96 226t241 89q139 0 231.5 -85t92.5 -216q0 -137 -93 -225t-243 -88q-143 0 -234 84t-91 215zM217 811.5q0 -106.5 48 -186.5t141 -80q88 0 128.5 71.5t40.5 165.5q0 100 -47 185.5t-141 85.5q-72 0 -121 -67.5t-49 -174z" />
<glyph unicode="&#xbb;" horiz-adv-x="774" d="M92 106l144 291q10 25 0 49l-144 287q8 23 35 27q186 -240 244 -307q27 -31 0 -64q-35 -41 -244 -309q-27 6 -35 26zM389 106l143 291q10 25 0 49l-143 287q8 23 35 27q186 -240 244 -307q27 -31 0 -64q-35 -41 -244 -309q-27 6 -35 26z" />
<glyph unicode="&#xbc;" horiz-adv-x="1597" d="M89 1219.5q-1 13.5 7 19.5q100 16 250 72q14 0 14 -11q-4 -43 -4 -149v-469q0 -82 13.5 -103.5t72.5 -29.5l35 -4q8 -6 7 -22.5t-9 -20.5q-123 4 -188.5 4t-180.5 -4q-8 4 -9 20.5t7 22.5l35 4q59 8 72.5 29.5t13.5 103.5v395q0 63 -11 88t-52 29l-64 6q-8 6 -9 19.5z M283 -29q575 872 893 1368q43 0 63 -47q-430 -647 -901 -1374q-51 0 -55 53zM819 258q0 16 19 41l436 561q18 25 43 25q45 0 45 -11q0 -4 -4 -12l-422 -540q-10 -18 -4 -21.5t41 -3.5h184q25 0 31 5t6 28v223q0 16 12 25q41 23 94 22q23 0 23 -39v-235q0 -18 5 -23.5 t26 -5.5h76q12 -8 12 -29.5t-12 -29.5h-68q-27 0 -33 -5.5t-6 -27.5v-29q0 -90 10 -108.5t70 -24.5l37 -4q6 -8 5 -23.5t-9 -19.5q-86 4 -176 4q-129 0 -183 -4q-8 4 -10 19.5t6 23.5l37 4q61 8 72.5 27.5t11.5 105.5v25q0 25 -6 31t-33 6h-317q-19 0 -19 20z" />
<glyph unicode="&#xbd;" horiz-adv-x="1597" d="M103 1219.5q-1 13.5 8 19.5q100 16 249 72q14 0 15 -11q-4 -43 -4 -149v-469q0 -82 13 -103.5t73 -29.5l35 -4q8 -6 7 -22.5t-10 -20.5q-123 4 -188 4t-180 -4q-8 4 -9 20.5t7 22.5l35 4q59 8 72.5 29.5t13.5 103.5v395q0 63 -11.5 88t-52.5 29l-63 6q-9 6 -10 19.5z M266 -29q575 872 893 1368q43 0 64 -47q-430 -647 -901 -1374q-52 0 -56 53zM909 10q0 12 4 19q88 55 213 180q188 188 189 340q0 80 -42 126t-112 46q-109 0 -184 -129q-12 -8 -25.5 -1t-13.5 19q84 195 285 195q111 0 176 -58.5t65 -152.5q0 -127 -155 -283l-115 -114 q-70 -70 -70 -82q0 -16 29 -17h145q80 0 122 13.5t73 60.5q27 10 39 -14q-10 -20 -22.5 -51t-20.5 -48.5t-17.5 -36t-19.5 -26.5q-102 4 -231 4h-148q-92 0 -153 -4q-11 10 -11 14z" />
<glyph unicode="&#xbe;" horiz-adv-x="1597" d="M76 506q0 29 19.5 47t47.5 18q33 0 68 -53q23 -37 65 -37q74 0 154 71t80 183q0 76 -42 129.5t-128 53.5q-84 0 -147 -60q-37 18 -27 55q162 68 217 105q63 43 63 115q0 51 -31.5 79.5t-76.5 28.5q-100 0 -174 -119q-27 -2 -35 23q39 78 108.5 122t155.5 44t141.5 -43 t55.5 -103q0 -47 -33 -86t-117 -78q-6 -10 -1 -15t18 -5q82 0 141 -53.5t59 -141.5q0 -147 -141 -251q-147 -109 -295 -109q-145 0 -145 80zM354 -29q575 872 893 1368q43 0 64 -47q-430 -647 -901 -1374q-52 0 -56 53zM860 258q0 16 19 41l436 561q18 25 43 25q45 0 45 -11 q0 -4 -4 -12l-422 -540q-10 -18 -4 -21.5t41 -3.5h184q25 0 31 5t6 28v223q0 16 12 25q41 23 94 22q23 0 23 -39v-235q0 -18 5 -23.5t26 -5.5h75q12 -8 12.5 -29.5t-12.5 -29.5h-67q-27 0 -33 -5.5t-6 -27.5v-29q0 -90 10 -108.5t70 -24.5l37 -4q6 -8 5 -23.5t-9 -19.5 q-86 4 -177 4q-129 0 -182 -4q-8 4 -10 19.5t6 23.5l37 4q61 8 72.5 27.5t11.5 105.5v25q0 25 -6 31t-33 6h-317q-19 0 -19 20z" />
<glyph unicode="&#xbf;" horiz-adv-x="657" d="M92 -127q0 76 24.5 122t53.5 62l162 86q72 37 71 90q0 37 -20 119q6 12 20.5 15.5t22.5 -5.5q74 -121 74 -202q0 -57 -27 -87t-84 -61l-100 -53q-113 -59 -113 -149q0 -80 45 -125q66 -66 238 -66q18 0 42.5 -25.5t24.5 -60.5q0 -33 -21.5 -55.5t-60.5 -22.5 q-127 0 -239.5 129t-112.5 289zM287 686q0 51 32.5 86t81.5 35q51 0 83 -35t32 -86q0 -49 -31.5 -81t-83.5 -32q-47 0 -80.5 31t-33.5 82z" />
<glyph unicode="&#xc0;" horiz-adv-x="1275" d="M-52 18.5q-1 18.5 7 26.5l68 6q86 8 122 101q10 29 41 101.5t66 162.5t74 192l209 553q41 109 34 146q53 16 107 77q25 0 31 -18q23 -76 90 -274l280 -824q45 -131 77 -170t97 -47l56 -6q10 -8 9 -26.5t-9 -24.5q-127 6 -248 6q-57 0 -236 -6q-12 6 -13 24.5t9 26.5l60 6 q72 6 71 37q0 29 -26 109l-90 278q-10 35 -24.5 43t-59.5 8h-310q-39 0 -53 -8t-25 -41l-71 -215q-45 -135 -45 -170q0 -37 59 -41l68 -6q10 -8 10 -26.5t-14 -24.5q-29 2 -213 6q-31 0 -197 -6q-10 6 -11 24.5zM342 1626q-16 33 16.5 82t53.5 49q14 0 55 -26l289 -236 q4 -16 -2 -30.5t-19 -18.5l-342 147q-43 19 -51 33zM422 615.5q6 -7.5 49 -7.5h252q45 0 52 11.5t-7 52.5l-111 334q-35 104 -47 129h-4q-12 -20 -49 -121l-129 -357q-12 -34 -6 -41.5z" />
<glyph unicode="&#xc1;" horiz-adv-x="1275" d="M-52 18.5q-1 18.5 7 26.5l68 6q86 8 122 101q10 29 41 101.5t66 162.5t74 192l209 553q41 109 34 146q53 16 107 77q25 0 31 -18q23 -76 90 -274l280 -824q45 -131 77 -170t97 -47l56 -6q10 -8 9 -26.5t-9 -24.5q-127 6 -248 6q-57 0 -236 -6q-12 6 -13 24.5t9 26.5l60 6 q72 6 71 37q0 29 -26 109l-90 278q-10 35 -24.5 43t-59.5 8h-310q-39 0 -53 -8t-25 -41l-71 -215q-45 -135 -45 -170q0 -37 59 -41l68 -6q10 -8 10 -26.5t-14 -24.5q-29 2 -213 6q-31 0 -197 -6q-10 6 -11 24.5zM422 615.5q6 -7.5 49 -7.5h252q45 0 52 11.5t-7 52.5 l-111 334q-35 104 -47 129h-4q-12 -20 -49 -121l-129 -357q-12 -34 -6 -41.5zM524 1485l289 235q39 27 55 27q33 0 58 -47q27 -51 14 -84q-14 -16 -53 -33l-342 -147q-12 4 -18.5 18.5t-2.5 30.5z" />
<glyph unicode="&#xc2;" horiz-adv-x="1275" d="M-52 18.5q-1 18.5 7 26.5l68 6q86 8 122 101q10 29 41 101.5t66 162.5t74 192l209 553q41 109 34 146q53 16 107 77q25 0 31 -18q23 -76 90 -274l280 -824q45 -131 77 -170t97 -47l56 -6q10 -8 9 -26.5t-9 -24.5q-127 6 -248 6q-57 0 -236 -6q-12 6 -13 24.5t9 26.5l60 6 q72 6 71 37q0 29 -26 109l-90 278q-10 35 -24.5 43t-59.5 8h-310q-39 0 -53 -8t-25 -41l-71 -215q-45 -135 -45 -170q0 -37 59 -41l68 -6q10 -8 10 -26.5t-14 -24.5q-29 2 -213 6q-31 0 -197 -6q-10 6 -11 24.5zM373 1468l250 236q41 41 86 0l249 -236q0 -37 -24 -41 l-238 121q-33 16 -65 0l-232 -121q-26 0 -26 41zM422 615.5q6 -7.5 49 -7.5h252q45 0 52 11.5t-7 52.5l-111 334q-35 104 -47 129h-4q-12 -20 -49 -121l-129 -357q-12 -34 -6 -41.5z" />
<glyph unicode="&#xc3;" horiz-adv-x="1275" d="M-52 18.5q-1 18.5 7 26.5l68 6q86 8 122 101q10 29 41 101.5t66 162.5t74 192l209 553q41 109 34 146q53 16 107 77q25 0 31 -18q23 -76 90 -274l280 -824q45 -131 77 -170t97 -47l56 -6q10 -8 9 -26.5t-9 -24.5q-127 6 -248 6q-57 0 -236 -6q-12 6 -13 24.5t9 26.5l60 6 q72 6 71 37q0 29 -26 109l-90 278q-10 35 -24.5 43t-59.5 8h-310q-39 0 -53 -8t-25 -41l-71 -215q-45 -135 -45 -170q0 -37 59 -41l68 -6q10 -8 10 -26.5t-14 -24.5q-29 2 -213 6q-31 0 -197 -6q-10 6 -11 24.5zM391 1395q6 33 32 92t48 80q41 47 109 47h125q66 0 95 15.5 t68 68.5q25 16 35 -10q-25 -106 -80 -160q-35 -33 -104 -33h-115q-70 0 -104.5 -24.5t-67.5 -84.5q-8 -6 -22.5 -3.5t-18.5 12.5zM422 615.5q6 -7.5 49 -7.5h252q45 0 52 11.5t-7 52.5l-111 334q-35 104 -47 129h-4q-12 -20 -49 -121l-129 -357q-12 -34 -6 -41.5z" />
<glyph unicode="&#xc4;" horiz-adv-x="1275" d="M-52 18.5q-1 18.5 7 26.5l68 6q86 8 122 101q10 29 41 101.5t66 162.5t74 192l209 553q41 109 34 146q53 16 107 77q25 0 31 -18q23 -76 90 -274l280 -824q45 -131 77 -170t97 -47l56 -6q10 -8 9 -26.5t-9 -24.5q-127 6 -248 6q-57 0 -236 -6q-12 6 -13 24.5t9 26.5l60 6 q72 6 71 37q0 29 -26 109l-90 278q-10 35 -24.5 43t-59.5 8h-310q-39 0 -53 -8t-25 -41l-71 -215q-45 -135 -45 -170q0 -37 59 -41l68 -6q10 -8 10 -26.5t-14 -24.5q-29 2 -213 6q-31 0 -197 -6q-10 6 -11 24.5zM358 1528q-4 45 25 79.5t76 34.5q45 0 74.5 -33.5t29.5 -76.5 q0 -45 -28.5 -77t-75.5 -32q-101 1 -101 105zM422 615.5q6 -7.5 49 -7.5h252q45 0 52 11.5t-7 52.5l-111 334q-35 104 -47 129h-4q-12 -20 -49 -121l-129 -357q-12 -34 -6 -41.5zM754 1528q0 47 29.5 80.5t76.5 33.5q45 0 71.5 -33.5t26.5 -76.5q0 -47 -26.5 -78t-71.5 -31 q-102 1 -106 105z" />
<glyph unicode="&#xc5;" horiz-adv-x="1275" d="M-52 18.5q-1 18.5 7 26.5l68 6q86 8 122 101q10 29 41 101.5t66 162.5t74 192l209 553q41 109 34 146q53 16 107 77q25 0 31 -18q23 -76 90 -274l280 -824q45 -131 77 -170t97 -47l56 -6q10 -8 9 -26.5t-9 -24.5q-127 6 -248 6q-57 0 -236 -6q-12 6 -13 24.5t9 26.5l60 6 q72 6 71 37q0 29 -26 109l-90 278q-10 35 -24.5 43t-59.5 8h-310q-39 0 -53 -8t-25 -41l-71 -215q-45 -135 -45 -170q0 -37 59 -41l68 -6q10 -8 10 -26.5t-14 -24.5q-29 2 -213 6q-31 0 -197 -6q-10 6 -11 24.5zM422 615.5q6 -7.5 49 -7.5h252q45 0 52 11.5t-7 52.5 l-111 334q-35 104 -47 129h-4q-12 -20 -49 -121l-129 -357q-12 -34 -6 -41.5zM473 1611.5q0 67.5 50 117t124 49.5t124 -49.5t50 -117t-49 -116.5t-125 -49t-125 49t-49 116.5zM555 1612q0 -47 26.5 -78t65.5 -31q41 0 66.5 31t25.5 78t-26.5 76.5t-65.5 29.5t-65.5 -30.5 t-26.5 -75.5z" />
<glyph unicode="&#xc6;" horiz-adv-x="1740" d="M-100 18.5q-2 18.5 12 26.5l63 10q39 6 69 36t75 112q205 375 497 944q49 92 50 117q0 18 -45 24l-123 19q-10 10 -8 28.5t14 22.5q143 -6 239 -6h537q252 0 276 6q10 -29 33 -271q-6 -10 -24.5 -12t-26.5 6q-37 117 -68 150q-33 35 -88 47q-43 10 -198 10h-148 q-43 0 -51 -11t-8 -71v-409q0 -41 10 -49.5t57 -8.5h119q137 0 174 12.5t49 71.5l17 84q8 10 27.5 9t25.5 -11q0 -20 -4 -92t-4 -115q0 -41 4 -109.5t4 -86.5q-6 -10 -25.5 -11.5t-27.5 9.5l-19 80q-14 66 -63 77q-35 10 -158 11h-119q-47 0 -57 -8.5t-10 -47.5v-288 q0 -172 37 -213q47 -47 249.5 -47.5t260.5 30.5q63 35 145 199q8 8 26.5 4t24.5 -18q-31 -156 -92 -285q-276 6 -549 6h-188q-92 0 -273 -6q-10 4 -11 22.5t7 28.5l70 6q84 8 104.5 50t20.5 206v301q0 45 -11.5 52.5t-78.5 7.5h-168q-63 0 -79.5 -11.5t-53.5 -78.5 q-135 -252 -207 -435q-18 -43 -12 -59t43 -23l110 -16q8 -10 8 -27.5t-10 -23.5q-123 6 -225 6q-45 0 -118 -3t-93 -3q-12 6 -14 24.5zM514 745.5q8 -6.5 68 -6.5h137q68 0 79 8.5t11 57.5v399q0 63 -12 74h-11q-16 -8 -47 -64q-109 -207 -217 -430q-16 -32 -8 -38.5z" />
<glyph unicode="&#xc7;" horiz-adv-x="1425" d="M90 668q0 166 69.5 308t188.5 234q223 174 553 174q184 0 363 -49q41 -10 57 -8q6 -123 29 -301q-8 -10 -26.5 -12t-29.5 8q-66 299 -420 299q-250 0 -414.5 -160t-164.5 -463q0 -311 173 -489t435 -178q176 0 279.5 88t148.5 205q10 8 28.5 5t24.5 -14 q-10 -76 -41.5 -162.5t-56.5 -117.5q-29 -4 -72 -21q-121 -43 -290 -45l-56 -88q-14 -23 17 -45q88 -59 88 -135q0 -70 -60.5 -119t-136.5 -49q-53 0 -81.5 18.5t-28.5 49.5q0 16 13 32.5t33.5 16.5t54.5 -28t46 -28q51 0 51 60q0 37 -33.5 71.5t-85.5 55.5v10l111 178 q-283 4 -475 135q-131 88 -211 232t-80 332z" />
<glyph unicode="&#xc8;" horiz-adv-x="1196" d="M60 16.5q-1 18.5 8 28.5l67 6q86 8 106.5 50t20.5 206v737q0 166 -18.5 207t-106.5 52l-33 4q-8 6 -7 26.5t12 24.5q133 -6 241 -6h385q252 0 277 6q10 -31 32 -273q-6 -10 -24.5 -11t-26.5 7q-14 43 -18 56.5t-18.5 44t-28 43t-37 28t-53.5 23.5q-51 12 -199 12h-147 q-45 0 -53.5 -11t-8.5 -71v-409q0 -41 10.5 -49.5t57.5 -8.5h118q137 0 174 12.5t50 71.5l16 84q8 10 27.5 9t25.5 -11q0 -20 -4 -92t-4 -115q0 -41 4 -109.5t4 -86.5q-6 -10 -25.5 -11.5t-27.5 9.5l-18 80q-14 66 -64 77q-37 10 -158 11h-118q-47 0 -57.5 -8.5t-10.5 -47.5 v-288q0 -172 39 -213q47 -47 248 -47.5t262 30.5q63 35 145 199q10 8 27.5 4t24.5 -18q-33 -160 -93 -285q-276 6 -548 6h-185q-96 0 -278 -6q-11 4 -12 22.5zM291 1624q-16 31 12 84q25 47 57 47q16 0 56 -26l289 -236q4 -16 -2.5 -30.5t-18.5 -18.5l-342 147 q-43 19 -51 33z" />
<glyph unicode="&#xc9;" horiz-adv-x="1196" d="M60 16.5q-1 18.5 8 28.5l67 6q86 8 106.5 50t20.5 206v737q0 166 -18.5 207t-106.5 52l-33 4q-8 6 -7 26.5t12 24.5q133 -6 241 -6h385q252 0 277 6q10 -31 32 -273q-6 -10 -24.5 -11t-26.5 7q-14 43 -18 56.5t-18.5 44t-28 43t-37 28t-53.5 23.5q-51 12 -199 12h-147 q-45 0 -53.5 -11t-8.5 -71v-409q0 -41 10.5 -49.5t57.5 -8.5h118q137 0 174 12.5t50 71.5l16 84q8 10 27.5 9t25.5 -11q0 -20 -4 -92t-4 -115q0 -41 4 -109.5t4 -86.5q-6 -10 -25.5 -11.5t-27.5 9.5l-18 80q-14 66 -64 77q-37 10 -158 11h-118q-47 0 -57.5 -8.5t-10.5 -47.5 v-288q0 -172 39 -213q47 -47 248 -47.5t262 30.5q63 35 145 199q10 8 27.5 4t24.5 -18q-33 -160 -93 -285q-276 6 -548 6h-185q-96 0 -278 -6q-11 4 -12 22.5zM504 1495l289 236q39 27 55 26q33 0 57 -47q27 -51 15 -84q-14 -16 -54 -33l-342 -147q-12 4 -18 18.5t-2 30.5z " />
<glyph unicode="&#xca;" horiz-adv-x="1196" d="M60 16.5q-1 18.5 8 28.5l67 6q86 8 106.5 50t20.5 206v737q0 166 -18.5 207t-106.5 52l-33 4q-8 6 -7 26.5t12 24.5q133 -6 241 -6h385q252 0 277 6q10 -31 32 -273q-6 -10 -24.5 -11t-26.5 7q-14 43 -18 56.5t-18.5 44t-28 43t-37 28t-53.5 23.5q-51 12 -199 12h-147 q-45 0 -53.5 -11t-8.5 -71v-409q0 -41 10.5 -49.5t57.5 -8.5h118q137 0 174 12.5t50 71.5l16 84q8 10 27.5 9t25.5 -11q0 -20 -4 -92t-4 -115q0 -41 4 -109.5t4 -86.5q-6 -10 -25.5 -11.5t-27.5 9.5l-18 80q-14 66 -64 77q-37 10 -158 11h-118q-47 0 -57.5 -8.5t-10.5 -47.5 v-288q0 -172 39 -213q47 -47 248 -47.5t262 30.5q63 35 145 199q10 8 27.5 4t24.5 -18q-33 -160 -93 -285q-276 6 -548 6h-185q-96 0 -278 -6q-11 4 -12 22.5zM319 1489l250 235q41 41 86 0l250 -235q0 -37 -24 -41l-238 121q-33 16 -65 0l-232 -121q-27 0 -27 41z" />
<glyph unicode="&#xcb;" horiz-adv-x="1196" d="M60 16.5q-1 18.5 8 28.5l67 6q86 8 106.5 50t20.5 206v737q0 166 -18.5 207t-106.5 52l-33 4q-8 6 -7 26.5t12 24.5q133 -6 241 -6h385q252 0 277 6q10 -31 32 -273q-6 -10 -24.5 -11t-26.5 7q-14 43 -18 56.5t-18.5 44t-28 43t-37 28t-53.5 23.5q-51 12 -199 12h-147 q-45 0 -53.5 -11t-8.5 -71v-409q0 -41 10.5 -49.5t57.5 -8.5h118q137 0 174 12.5t50 71.5l16 84q8 10 27.5 9t25.5 -11q0 -20 -4 -92t-4 -115q0 -41 4 -109.5t4 -86.5q-6 -10 -25.5 -11.5t-27.5 9.5l-18 80q-14 66 -64 77q-37 10 -158 11h-118q-47 0 -57.5 -8.5t-10.5 -47.5 v-288q0 -172 39 -213q47 -47 248 -47.5t262 30.5q63 35 145 199q10 8 27.5 4t24.5 -18q-33 -160 -93 -285q-276 6 -548 6h-185q-96 0 -278 -6q-11 4 -12 22.5zM301 1556q-4 45 24.5 80t75.5 35q45 0 75 -33.5t30 -76.5q0 -45 -28.5 -77t-76.5 -32q-100 0 -100 104zM700 1556 q0 47 30 81t77 34q45 0 71.5 -33.5t26.5 -76.5q0 -47 -26.5 -78t-71.5 -31q-103 0 -107 104z" />
<glyph unicode="&#xcc;" horiz-adv-x="692" d="M27 1626q-12 33 14 84q25 47 57 47q16 0 56 -26l288 -236q4 -16 -2 -30.5t-18 -18.5l-342 147q-39 17 -53 33zM79 16.5q-1 18.5 7 28.5l51 6q88 10 106.5 51t18.5 209v729q0 170 -18.5 212t-106.5 51l-51 4q-8 6 -7 26.5t11 24.5q154 -6 258 -6q100 0 254 6 q10 -4 11 -24.5t-7 -26.5l-51 -4q-88 -8 -106.5 -50.5t-18.5 -212.5v-729q0 -168 18.5 -209t106.5 -51l51 -6q8 -6 7 -26.5t-11 -24.5q-154 6 -254 6q-104 0 -258 -6q-10 4 -11 22.5z" />
<glyph unicode="&#xcd;" horiz-adv-x="692" d="M79 16.5q-1 18.5 7 28.5l51 6q88 10 106.5 51t18.5 209v729q0 170 -18.5 212t-106.5 51l-51 4q-8 6 -7 26.5t11 24.5q154 -6 258 -6q100 0 254 6q10 -4 11 -24.5t-7 -26.5l-51 -4q-88 -8 -106.5 -50.5t-18.5 -212.5v-729q0 -168 18.5 -209t106.5 -51l51 -6q8 -6 7 -26.5 t-11 -24.5q-154 6 -254 6q-104 0 -258 -6q-10 4 -11 22.5zM252 1495l289 234q39 29 55 28q35 0 57 -47q27 -51 15 -84q-14 -16 -54 -33l-342 -147q-12 4 -18 18.5t-2 30.5z" />
<glyph unicode="&#xce;" horiz-adv-x="692" d="M66 1489l249 235q41 41 86 0l250 -235q0 -37 -24 -41l-238 121q-33 16 -65 0l-232 -121q-26 0 -26 41zM79 16.5q-1 18.5 7 28.5l51 6q88 10 106.5 51t18.5 209v729q0 170 -18.5 212t-106.5 51l-51 4q-8 6 -7 26.5t11 24.5q154 -6 258 -6q100 0 254 6q10 -4 11 -24.5 t-7 -26.5l-51 -4q-88 -8 -106.5 -50.5t-18.5 -212.5v-729q0 -168 18.5 -209t106.5 -51l51 -6q8 -6 7 -26.5t-11 -24.5q-154 6 -254 6q-104 0 -258 -6q-10 4 -11 22.5z" />
<glyph unicode="&#xcf;" horiz-adv-x="692" d="M72 1548q-4 45 24.5 80t75.5 35q45 0 74.5 -34t29.5 -77q0 -45 -28.5 -76.5t-75.5 -31.5q-100 0 -100 104zM79 16.5q-1 18.5 7 28.5l51 6q88 10 106.5 51t18.5 209v729q0 170 -18.5 212t-106.5 51l-51 4q-8 6 -7 26.5t11 24.5q154 -6 258 -6q100 0 254 6q10 -4 11 -24.5 t-7 -26.5l-51 -4q-88 -8 -106.5 -50.5t-18.5 -212.5v-729q0 -168 18.5 -209t106.5 -51l51 -6q8 -6 7 -26.5t-11 -24.5q-154 6 -254 6q-104 0 -258 -6q-10 4 -11 22.5zM446 1548q0 47 30 81t77 34q45 0 71.5 -34t26.5 -77q0 -47 -26.5 -77.5t-71.5 -30.5q-103 0 -107 104z " />
<glyph unicode="&#xd0;" horiz-adv-x="1609" d="M63 703.5q0 25.5 15 35.5h184v295q0 150 -17.5 200t-88.5 58l-35 4q-12 6 -12 24.5t14 25.5q348 12 522 12q281 0 442 -60q203 -74 309.5 -234.5t106.5 -367.5q0 -201 -92 -360.5t-266 -253.5q-182 -98 -459 -98q-74 0 -189.5 8t-144.5 8q-111 0 -256 -6q-10 4 -11 22.5 t7 28.5l47 6q88 12 105.5 51t17.5 205v361h-184q-15 10 -15 35.5zM430 354q0 -166 41 -223q59 -84 252 -84q289 0 432 172t143 469q0 74 -14 148.5t-58 159.5t-113 148.5t-187.5 106.5t-272.5 43q-164 0 -202 -28q-20 -16 -21 -156v-371h377q14 -10 14 -35.5t-14 -35.5h-377 v-314z" />
<glyph unicode="&#xd1;" horiz-adv-x="1603" d="M42 1333.5q1 18.5 13 24.5q86 -6 232 -6q53 0 94 6q41 -102 350 -451l199 -223q270 -301 338 -371h4q8 10 8 86v439q0 358 -41 424q-18 27 -127 41l-35 4q-10 8 -9 27.5t13 23.5q141 -6 242 -6q106 0 211 6q12 -8 13 -25.5t-9 -25.5l-29 -4q-100 -16 -114 -43 q-31 -66 -31 -422v-490q0 -305 6 -358q-8 -23 -39 -23q-39 55 -262 309l-475 541q-12 14 -112.5 132t-125.5 145h-4q-10 -31 -10 -133v-447q0 -358 37 -424q18 -33 104 -39l64 -6q8 -12 7 -27.5t-11 -23.5q-137 6 -240 6q-106 0 -213 -6q-10 8 -12 25.5t8 25.5l55 6 q76 10 90 41q27 68 27 422v592q0 98 -45 147q-39 39 -127 50l-35 4q-10 8 -9 26.5zM569 1417q8 35 34 92.5t50 77.5q41 47 113 47h129q70 0 100.5 14.5t69.5 67.5q27 18 37 -10q-27 -100 -84 -158q-35 -33 -109 -32h-118q-70 0 -107 -24t-72 -83q-8 -8 -22.5 -6t-20.5 14z " />
<glyph unicode="&#xd2;" horiz-adv-x="1628" d="M94 662q0 309 207 515.5t522 206.5q336 0 523.5 -205.5t187.5 -496.5q0 -307 -206 -511t-505 -204q-330 0 -529.5 203t-199.5 492zM299 727q0 -94 18.5 -188.5t60.5 -187.5t103.5 -162.5t156.5 -113.5t212 -44q201 0 340 151.5t139 435.5q0 133 -30.5 254t-92 223.5 t-169 164t-249.5 61.5q-86 0 -166.5 -30.5t-156.5 -96.5t-121 -186.5t-45 -280.5zM532 1626q-18 37 13 84q33 47 57 47q16 0 55 -26l289 -236q4 -16 -2 -30.5t-18 -18.5l-342 147q-44 19 -52 33z" />
<glyph unicode="&#xd3;" horiz-adv-x="1628" d="M94 662q0 309 207 515.5t522 206.5q336 0 523.5 -205.5t187.5 -496.5q0 -307 -206 -511t-505 -204q-330 0 -529.5 203t-199.5 492zM299 727q0 -94 18.5 -188.5t60.5 -187.5t103.5 -162.5t156.5 -113.5t212 -44q201 0 340 151.5t139 435.5q0 133 -30.5 254t-92 223.5 t-169 164t-249.5 61.5q-86 0 -166.5 -30.5t-156.5 -96.5t-121 -186.5t-45 -280.5zM721 1505l289 236q39 27 55 26q33 0 57 -47q27 -51 15 -84q-14 -16 -54 -32l-342 -148q-12 4 -18 18.5t-2 30.5z" />
<glyph unicode="&#xd4;" horiz-adv-x="1628" d="M94 662q0 309 207 515.5t522 206.5q336 0 523.5 -205.5t187.5 -496.5q0 -307 -206 -511t-505 -204q-330 0 -529.5 203t-199.5 492zM299 727q0 -94 18.5 -188.5t60.5 -187.5t103.5 -162.5t156.5 -113.5t212 -44q201 0 340 151.5t139 435.5q0 133 -30.5 254t-92 223.5 t-169 164t-249.5 61.5q-86 0 -166.5 -30.5t-156.5 -96.5t-121 -186.5t-45 -280.5zM535 1489l249 227q45 39 86 0l250 -227q0 -37 -24 -41l-238 119q-33 16 -65 0l-232 -119q-26 0 -26 41z" />
<glyph unicode="&#xd5;" horiz-adv-x="1628" d="M94 662q0 309 207 515.5t522 206.5q336 0 523.5 -205.5t187.5 -496.5q0 -307 -206 -511t-505 -204q-330 0 -529.5 203t-199.5 492zM299 727q0 -94 18.5 -188.5t60.5 -187.5t103.5 -162.5t156.5 -113.5t212 -44q201 0 340 151.5t139 435.5q0 133 -30.5 254t-92 223.5 t-169 164t-249.5 61.5q-86 0 -166.5 -30.5t-156.5 -96.5t-121 -186.5t-45 -280.5zM557 1421q8 37 33.5 97.5t50.5 80.5q43 51 113 52h129q70 0 100.5 14t69.5 70q27 20 37 -9q-25 -102 -84 -165q-35 -35 -109 -35h-119q-72 0 -107.5 -24.5t-70.5 -88.5q-8 -6 -22.5 -4 t-20.5 12z" />
<glyph unicode="&#xd6;" horiz-adv-x="1628" d="M94 662q0 309 207 515.5t522 206.5q336 0 523.5 -205.5t187.5 -496.5q0 -307 -206 -511t-505 -204q-330 0 -529.5 203t-199.5 492zM299 727q0 -94 18.5 -188.5t60.5 -187.5t103.5 -162.5t156.5 -113.5t212 -44q201 0 340 151.5t139 435.5q0 133 -30.5 254t-92 223.5 t-169 164t-249.5 61.5q-86 0 -166.5 -30.5t-156.5 -96.5t-121 -186.5t-45 -280.5zM524 1569q-4 45 25 79.5t76 34.5q45 0 74.5 -33.5t29.5 -76.5q0 -45 -28.5 -77t-75.5 -32q-101 1 -101 105zM909 1569q0 47 30 80.5t77 33.5q45 0 71.5 -33.5t26.5 -76.5q0 -47 -26.5 -78 t-71.5 -31q-103 1 -107 105z" />
<glyph unicode="&#xd7;" d="M133 102l301 306l-301 301l76 79l303 -303l305 308l76 -78l-303 -307l303 -306l-76 -79l-305 307l-303 -307z" />
<glyph unicode="&#xd8;" horiz-adv-x="1628" d="M94 662q0 309 207 515.5t522 206.5q238 0 412 -112l117 147q23 -2 42 -17.5t19 -33.5l-113 -143q233 -201 234 -549q0 -303 -206 -506t-505 -203q-242 0 -424 121l-137 -170q-23 0 -40 15.5t-19 35.5l133 166q-117 94 -179.5 232.5t-62.5 294.5zM299 727q0 -276 133 -471 l719 909q-139 156 -363 156q-86 0 -166.5 -30.5t-156.5 -96.5t-121 -186.5t-45 -280.5zM481 193q141 -162 369 -162q201 0 340 151.5t139 435.5q0 291 -129 482z" />
<glyph unicode="&#xd9;" horiz-adv-x="1527" d="M64.5 1334.5q1.5 19.5 11.5 23.5q154 -6 254 -6t252 6q10 -4 11 -23.5t-7 -25.5l-49 -4q-86 -8 -104.5 -50.5t-18.5 -207.5v-443q0 -264 96 -405.5t319 -141.5q211 0 310.5 147.5t99.5 397.5v236q0 354 -39 424q-20 37 -102 43l-51 4q-8 10 -7.5 26.5t11.5 22.5 q117 -6 233 -6q104 0 215 6q12 -8 12 -24.5t-8 -24.5l-49 -4q-82 -6 -102 -50q-29 -68 -29 -417v-232q0 -336 -143 -489q-66 -72 -170.5 -111t-221.5 -39q-252 0 -382 113q-160 133 -160 483v484q0 166 -18.5 207.5t-104.5 50.5l-51 4q-9 6 -7.5 25.5zM498 1626 q-16 31 12 84q23 47 57 47q14 0 56 -26l288 -236q4 -16 -2 -30.5t-18 -18.5l-342 147q-43 19 -51 33z" />
<glyph unicode="&#xda;" horiz-adv-x="1527" d="M64.5 1334.5q1.5 19.5 11.5 23.5q154 -6 254 -6t252 6q10 -4 11 -23.5t-7 -25.5l-49 -4q-86 -8 -104.5 -50.5t-18.5 -207.5v-443q0 -264 96 -405.5t319 -141.5q211 0 310.5 147.5t99.5 397.5v236q0 354 -39 424q-20 37 -102 43l-51 4q-8 10 -7.5 26.5t11.5 22.5 q117 -6 233 -6q104 0 215 6q12 -8 12 -24.5t-8 -24.5l-49 -4q-82 -6 -102 -50q-29 -68 -29 -417v-232q0 -336 -143 -489q-66 -72 -170.5 -111t-221.5 -39q-252 0 -382 113q-160 133 -160 483v484q0 166 -18.5 207.5t-104.5 50.5l-51 4q-9 6 -7.5 25.5zM702 1495l289 236 q41 27 56 26q35 0 57 -47q27 -51 14 -84q-14 -16 -53 -33l-342 -147q-12 4 -18.5 18.5t-2.5 30.5z" />
<glyph unicode="&#xdb;" horiz-adv-x="1527" d="M64.5 1334.5q1.5 19.5 11.5 23.5q154 -6 254 -6t252 6q10 -4 11 -23.5t-7 -25.5l-49 -4q-86 -8 -104.5 -50.5t-18.5 -207.5v-443q0 -264 96 -405.5t319 -141.5q211 0 310.5 147.5t99.5 397.5v236q0 354 -39 424q-20 37 -102 43l-51 4q-8 10 -7.5 26.5t11.5 22.5 q117 -6 233 -6q104 0 215 6q12 -8 12 -24.5t-8 -24.5l-49 -4q-82 -6 -102 -50q-29 -68 -29 -417v-232q0 -336 -143 -489q-66 -72 -170.5 -111t-221.5 -39q-252 0 -382 113q-160 133 -160 483v484q0 166 -18.5 207.5t-104.5 50.5l-51 4q-9 6 -7.5 25.5zM535 1489l249 227 q45 39 86 0l250 -227q0 -37 -24 -41l-238 119q-33 16 -65 0l-232 -119q-26 0 -26 41z" />
<glyph unicode="&#xdc;" horiz-adv-x="1527" d="M64.5 1334.5q1.5 19.5 11.5 23.5q154 -6 254 -6t252 6q10 -4 11 -23.5t-7 -25.5l-49 -4q-86 -8 -104.5 -50.5t-18.5 -207.5v-443q0 -264 96 -405.5t319 -141.5q211 0 310.5 147.5t99.5 397.5v236q0 354 -39 424q-20 37 -102 43l-51 4q-8 10 -7.5 26.5t11.5 22.5 q117 -6 233 -6q104 0 215 6q12 -8 12 -24.5t-8 -24.5l-49 -4q-82 -6 -102 -50q-29 -68 -29 -417v-232q0 -336 -143 -489q-66 -72 -170.5 -111t-221.5 -39q-252 0 -382 113q-160 133 -160 483v484q0 166 -18.5 207.5t-104.5 50.5l-51 4q-9 6 -7.5 25.5zM514 1548 q-4 45 24.5 80t75.5 35q45 0 75 -34t30 -77q0 -45 -28.5 -76.5t-76.5 -31.5q-100 0 -100 104zM909 1548q0 47 30 81t77 34q45 0 71.5 -34t26.5 -77q0 -47 -26.5 -77.5t-71.5 -30.5q-103 0 -107 104z" />
<glyph unicode="&#xdd;" horiz-adv-x="1175" d="M-14 1334.5q2 17.5 12 23.5q98 -6 238 -6q141 0 219 6q12 -4 14 -23.5t-8 -27.5l-27 -4q-86 -12 -86 -37q0 -31 64 -158q197 -391 231 -455q117 199 193 346q133 248 133 270.5t-86 33.5l-37 4q-10 10 -9 27.5t13 23.5q111 -6 197 -6t190 6q12 -8 13 -25.5t-9 -25.5 l-57 -11q-20 -4 -39 -13t-34 -19.5t-33.5 -33t-30 -36.5t-32 -47t-30.5 -50.5t-34.5 -60.5t-37.5 -63l-129 -223q-68 -117 -82 -166t-14 -166v-107q0 -166 20.5 -210t102.5 -50l78 -6q8 -10 7 -28.5t-11 -22.5q-190 6 -279 6q-106 0 -268 -6q-10 4 -11 22.5t7 28.5l63 6 q86 8 104.5 49t18.5 211v105q0 86 -10 127t-55 127l-242 471q-49 94 -80 120.5t-82 34.5l-57 11q-10 10 -8 27.5zM524 1495l289 236q39 27 55 26q33 0 58 -47q27 -51 14 -84q-14 -16 -53 -33l-342 -147q-12 4 -18.5 18.5t-2.5 30.5z" />
<glyph unicode="&#xde;" horiz-adv-x="1148" d="M81 1333.5q1 20.5 11 24.5q154 -6 258 -6q106 0 248 6q8 -8 9 -25.5t-5 -25.5l-33 -4q-94 -12 -116.5 -53.5t-22.5 -182.5h166q209 0 337 -89t128 -278q0 -111 -55.5 -187.5t-128.5 -113.5q-137 -68 -299 -59q-8 4 -9.5 20.5t6.5 20.5q299 43 299 311q0 145 -83.5 228.5 t-243.5 83.5q-80 0 -98.5 -11.5t-18.5 -60.5v-625q0 -166 18.5 -207t104.5 -49l76 -6q8 -6 7 -26.5t-11 -24.5q-184 6 -275 6q-111 0 -252 -6q-10 4 -11 22.5t7 28.5l45 6q88 12 105.5 51t17.5 205v737q0 166 -21.5 208t-107.5 51l-45 4q-8 6 -7 26.5z" />
<glyph unicode="&#xdf;" horiz-adv-x="1071" d="M61 17.5q-2 19.5 9 27.5l47 6q55 8 66.5 36t11.5 142v433q0 43 -5.5 51t-35.5 8h-72q-23 14 -6 39l88 43q31 16 31 41q0 201 71 350q55 117 154.5 193.5t245.5 76.5q156 0 231.5 -80.5t75.5 -191.5q0 -35 -6 -61.5t-25.5 -54t-29 -39t-43 -42t-40.5 -37.5l-49 -47 q-94 -88 -94 -161q0 -57 37 -103.5t117 -109.5q53 -41 84.5 -74t61.5 -91.5t30 -123.5q0 -123 -93.5 -200t-211.5 -77q-117 0 -160 39q-20 20 -25.5 54t13.5 63q6 10 19 11t24 -7q106 -98 149 -98q57 0 101.5 43t44.5 123q0 117 -158 235q-166 123 -166 260q0 57 34 105.5 t111 124.5q131 123 131 239q0 96 -60 163t-161 67q-125 0 -193.5 -153t-68.5 -398v-613q0 -113 9.5 -143.5t47.5 -34.5l50 -6q10 -8 8 -27.5t-12 -23.5q-100 6 -179 6q-104 0 -196 -6q-11 4 -13 23.5z" />
<glyph unicode="&#xe0;" horiz-adv-x="827" d="M72 162q0 61 36.5 100t133.5 74l243 88q35 12 35 59l2 95q4 178 -149 178q-49 0 -89 -23.5t-42 -68.5q-4 -57 -21 -70q-49 -39 -117 -39q-29 0 -28 29q0 78 133 165t248 87q111 0 164 -61.5t49 -178.5l-13 -356q-8 -178 95 -179q27 0 51 13q25 14 26 14q14 0 15 -27 q0 -6 -20.5 -27.5t-63.5 -42t-88 -20.5q-84 0 -133 64q-18 29 -33 28q-6 0 -80 -40q-94 -51 -147 -52q-90 0 -144 47q-63 58 -63 144zM154 1271.5q0 22.5 41 53.5q39 33 71 33q29 0 51 -49l168 -348q0 -12 -16 -19.5t-29 -5.5l-250 272q-36 41 -36 63.5zM229 186 q0 -39 31 -81t98 -42q29 0 69 17.5t56 34.5q23 23 27 96l4 121q0 27 -20 26q-23 0 -84 -20q-98 -33 -139.5 -65t-41.5 -87z" />
<glyph unicode="&#xe1;" horiz-adv-x="827" d="M72 162q0 61 36.5 100t133.5 74l243 88q35 12 35 59l2 95q4 178 -149 178q-49 0 -89 -23.5t-42 -68.5q-4 -57 -21 -70q-49 -39 -117 -39q-29 0 -28 29q0 78 133 165t248 87q111 0 164 -61.5t49 -178.5l-13 -356q-8 -178 95 -179q27 0 51 13q25 14 26 14q14 0 15 -27 q0 -6 -20.5 -27.5t-63.5 -42t-88 -20.5q-84 0 -133 64q-18 29 -33 28q-6 0 -80 -40q-94 -51 -147 -52q-90 0 -144 47q-63 58 -63 144zM229 186q0 -39 31 -81t98 -42q29 0 69 17.5t56 34.5q23 23 27 96l4 121q0 27 -20 26q-23 0 -84 -20q-98 -33 -139.5 -65t-41.5 -87z M358 967l177 333q27 49 49 50q27 0 63 -31q35 -29 35 -53q0 -23 -33 -56l-256 -266q-31 -4 -35 23z" />
<glyph unicode="&#xe2;" horiz-adv-x="827" d="M72 162q0 61 36.5 100t133.5 74l243 88q35 12 35 59l2 95q4 178 -149 178q-49 0 -89 -23.5t-42 -68.5q-4 -57 -21 -70q-49 -39 -117 -39q-29 0 -28 29q0 78 133 165t248 87q111 0 164 -61.5t49 -178.5l-13 -356q-8 -178 95 -179q27 0 51 13q25 14 26 14q14 0 15 -27 q0 -6 -20.5 -27.5t-63.5 -42t-88 -20.5q-84 0 -133 64q-18 29 -33 28q-6 0 -80 -40q-94 -51 -147 -52q-90 0 -144 47q-63 58 -63 144zM180 950l185 353q37 66 71 0l187 -353q-2 -8 -19.5 -15t-25.5 -3l-150 190q-18 23 -27.5 23t-27.5 -23l-152 -190q-10 -4 -24.5 3 t-16.5 15zM229 186q0 -39 31 -81t98 -42q29 0 69 17.5t56 34.5q23 23 27 96l4 121q0 27 -20 26q-23 0 -84 -20q-98 -33 -139.5 -65t-41.5 -87z" />
<glyph unicode="&#xe3;" horiz-adv-x="827" d="M72 162q0 61 36.5 100t133.5 74l243 88q35 12 35 59l2 95q4 178 -149 178q-49 0 -89 -23.5t-42 -68.5q-4 -57 -21 -70q-49 -39 -117 -39q-29 0 -28 29q0 78 133 165t248 87q111 0 164 -61.5t49 -178.5l-13 -356q-8 -178 95 -179q27 0 51 13q25 14 26 14q14 0 15 -27 q0 -6 -20.5 -27.5t-63.5 -42t-88 -20.5q-84 0 -133 64q-18 29 -33 28q-6 0 -80 -40q-94 -51 -147 -52q-90 0 -144 47q-63 58 -63 144zM176 952q6 31 29.5 86.5t46.5 75.5q41 47 110 47h109q63 0 91 13.5t63 64.5q25 12 34 -12q-20 -86 -75 -146q-37 -33 -101 -32h-106 q-66 0 -100.5 -24t-65.5 -81q-8 -6 -19.5 -3t-15.5 11zM229 186q0 -39 31 -81t98 -42q29 0 69 17.5t56 34.5q23 23 27 96l4 121q0 27 -20 26q-23 0 -84 -20q-98 -33 -139.5 -65t-41.5 -87z" />
<glyph unicode="&#xe4;" horiz-adv-x="827" d="M72 162q0 61 36.5 100t133.5 74l243 88q35 12 35 59l2 95q4 178 -149 178q-49 0 -89 -23.5t-42 -68.5q-4 -57 -21 -70q-49 -39 -117 -39q-29 0 -28 29q0 78 133 165t248 87q111 0 164 -61.5t49 -178.5l-13 -356q-8 -178 95 -179q27 0 51 13q25 14 26 14q14 0 15 -27 q0 -6 -20.5 -27.5t-63.5 -42t-88 -20.5q-84 0 -133 64q-18 29 -33 28q-6 0 -80 -40q-94 -51 -147 -52q-90 0 -144 47q-63 58 -63 144zM121 1128q-2 45 26.5 76t73.5 31q43 0 73 -29.5t30 -68.5q0 -47 -29 -78t-74 -31q-43 0 -70.5 26.5t-29.5 73.5zM229 186q0 -39 31 -81 t98 -42q29 0 69 17.5t56 34.5q23 23 27 96l4 121q0 27 -20 26q-23 0 -84 -20q-98 -33 -139.5 -65t-41.5 -87zM475 1130q0 43 30 74t75 31q43 0 70.5 -29.5t27.5 -66.5q0 -49 -27.5 -80t-70.5 -31t-73 27.5t-32 74.5z" />
<glyph unicode="&#xe5;" horiz-adv-x="827" d="M72 162q0 61 36.5 100t133.5 74l243 88q35 12 35 59l2 95q4 178 -149 178q-49 0 -89 -23.5t-42 -68.5q-4 -57 -21 -70q-49 -39 -117 -39q-29 0 -28 29q0 78 133 165t248 87q111 0 164 -61.5t49 -178.5l-13 -356q-8 -178 95 -179q27 0 51 13q25 14 26 14q14 0 15 -27 q0 -6 -20.5 -27.5t-63.5 -42t-88 -20.5q-84 0 -133 64q-18 29 -33 28q-6 0 -80 -40q-94 -51 -147 -52q-90 0 -144 47q-63 58 -63 144zM229 186q0 -39 31 -81t98 -42q29 0 69 17.5t56 34.5q23 23 27 96l4 121q0 27 -20 26q-23 0 -84 -20q-98 -33 -139.5 -65t-41.5 -87z M240 1140.5q0 67.5 50 117t123.5 49.5t124 -49.5t50.5 -117t-49.5 -116.5t-125 -49t-124.5 49t-49 116.5zM322 1141q0 -47 26.5 -78t65.5 -31q41 0 66.5 31t25.5 78t-26.5 76.5t-65.5 29.5t-65.5 -30.5t-26.5 -75.5z" />
<glyph unicode="&#xe6;" horiz-adv-x="1198" d="M72 152q0 129 161 188l218 82q31 10 39 18.5t8 32.5v84q0 66 -5.5 102.5t-38 71.5t-96.5 35q-57 0 -86.5 -30.5t-33.5 -67.5q-4 -49 -23 -64q-53 -39 -115 -39q-25 0 -24 29q0 33 30.5 75t77.5 74q127 92 254 93q135 0 178 -115q119 115 281 115q104 0 185 -59.5 t81 -149.5q0 -41 -37 -54l-452 -145q-23 -8 -30 -16.5t-7 -30.5v-49q0 -121 69.5 -186.5t184.5 -65.5q70 0 122 26.5t115 102.5q12 6 24.5 -3t10.5 -22q-117 -213 -348 -213q-180 0 -274 133l-84 -57q-111 -76 -209 -76q-74 0 -125 51.5t-51 129.5zM227 176q0 -49 32 -81 t79 -32q68 0 125 58q35 37 35 104v109q0 25 -10.5 29t-34.5 -5l-91 -30q-135 -48 -135 -152zM637 520q0 -25 6 -29t31 3l231 75q53 16 71.5 30.5t18.5 45.5q0 55 -44 92t-105 37q-92 0 -150.5 -78t-58.5 -176z" />
<glyph unicode="&#xe7;" horiz-adv-x="821" d="M74 379q0 184 129 320.5t366 136.5q104 0 183 -35q31 -27 30 -82q0 -29 -13 -52.5t-32 -23.5q-16 0 -28 14q-88 109 -205 109q-115 0 -199 -88t-84 -242q0 -133 88 -241.5t242 -108.5q143 0 227 123q12 4 23.5 -5t13.5 -24q-76 -166 -262 -196l-59 -97q-14 -25 16 -43 q84 -55 84 -129q0 -68 -57.5 -113.5t-130.5 -45.5q-104 0 -105 63q0 16 12.5 31.5t32.5 15.5q18 0 51 -26.5t43 -26.5q49 0 49 57q0 35 -31.5 69t-80.5 52v10l106 172q-2 -2 -10 -2q-174 0 -280 105q-119 115 -119 303z" />
<glyph unicode="&#xe8;" horiz-adv-x="811" d="M72 373q0 193 115.5 328t295.5 135q127 0 209 -74t82 -170q0 -37 -8 -53q-8 -14 -121 -15h-379q-39 0 -47 -8t-8 -47q0 -162 91 -272.5t249 -110.5q109 0 188 100q33 10 37 -24q-47 -96 -138 -143.5t-183 -47.5q-195 0 -297 135q-86 113 -86 267zM231 1268q0 18 39 51 q43 29 70 29q25 0 47 -48l162 -329q0 -12 -15.5 -19.5t-27.5 -5.5l-240 260q-35 37 -35 62zM233 596q0 -10 15 -10h145q186 0 213 20q12 8 12 39q0 51 -37.5 90t-119.5 39q-84 0 -155 -61.5t-73 -116.5z" />
<glyph unicode="&#xe9;" horiz-adv-x="811" d="M72 373q0 193 115.5 328t295.5 135q127 0 209 -74t82 -170q0 -37 -8 -53q-8 -14 -121 -15h-379q-39 0 -47 -8t-8 -47q0 -162 91 -272.5t249 -110.5q109 0 188 100q33 10 37 -24q-47 -96 -138 -143.5t-183 -47.5q-195 0 -297 135q-86 113 -86 267zM233 596q0 -10 15 -10 h145q186 0 213 20q12 8 12 39q0 51 -37.5 90t-119.5 39q-84 0 -155 -61.5t-73 -116.5zM365 952l176 334q27 49 49 49q27 0 63 -30q35 -29 35 -54q0 -23 -33 -55l-256 -266q-30 -5 -34 22z" />
<glyph unicode="&#xea;" horiz-adv-x="811" d="M72 373q0 193 115.5 328t295.5 135q127 0 209 -74t82 -170q0 -37 -8 -53q-8 -14 -121 -15h-379q-39 0 -47 -8t-8 -47q0 -162 91 -272.5t249 -110.5q109 0 188 100q33 10 37 -24q-47 -96 -138 -143.5t-183 -47.5q-195 0 -297 135q-86 113 -86 267zM233 596q0 -10 15 -10 h145q186 0 213 20q12 8 12 39q0 51 -37.5 90t-119.5 39q-84 0 -155 -61.5t-73 -116.5zM250 952l184 363q37 68 72 0l186 -363q-2 -8 -19.5 -15t-25.5 -3l-149 188q-18 23 -27.5 23t-28.5 -23l-151 -188q-10 -4 -24.5 3t-16.5 15z" />
<glyph unicode="&#xeb;" horiz-adv-x="811" d="M72 373q0 193 115.5 328t295.5 135q127 0 209 -74t82 -170q0 -37 -8 -53q-8 -14 -121 -15h-379q-39 0 -47 -8t-8 -47q0 -162 91 -272.5t249 -110.5q109 0 188 100q33 10 37 -24q-47 -96 -138 -143.5t-183 -47.5q-195 0 -297 135q-86 113 -86 267zM201 1124q-2 41 25.5 71 t70.5 30q41 0 69.5 -29t28.5 -66q0 -45 -27.5 -73.5t-70.5 -28.5t-68.5 25.5t-27.5 70.5zM233 596q0 -10 15 -10h145q186 0 213 20q12 8 12 39q0 51 -37.5 90t-119.5 39q-84 0 -155 -61.5t-73 -116.5zM535 1126q0 41 28.5 70t71.5 29q41 0 67.5 -29t26.5 -63 q0 -45 -25.5 -75t-68.5 -30t-70.5 26.5t-29.5 71.5z" />
<glyph unicode="&#xec;" horiz-adv-x="526" d="M20 1268q0 18 39 51q43 29 70 29q25 0 47 -48l162 -329q0 -12 -15.5 -19.5t-27.5 -5.5l-240 260q-35 37 -35 62zM72 17.5q-2 19.5 8 27.5l43 6q55 8 66.5 36t11.5 142v359q0 63 -7.5 81.5t-48.5 45.5l-18 12q-6 6 -6 19.5t8 17.5q123 43 211 100q16 0 20 -12 q-8 -143 -8 -254v-369q0 -113 12.5 -141.5t65.5 -36.5l43 -6q10 -8 8 -27.5t-12 -23.5q-92 6 -193 6q-106 0 -192 -6q-10 4 -12 23.5z" />
<glyph unicode="&#xed;" horiz-adv-x="526" d="M72 17.5q-2 19.5 8 27.5l43 6q55 8 66.5 36t11.5 142v359q0 63 -7.5 81.5t-48.5 45.5l-18 12q-6 6 -6 19.5t8 17.5q123 43 211 100q16 0 20 -12q-8 -143 -8 -254v-369q0 -113 12.5 -141.5t65.5 -36.5l43 -6q10 -8 8 -27.5t-12 -23.5q-92 6 -193 6q-106 0 -192 -6 q-10 4 -12 23.5zM201 981l176 334q27 49 49 49q27 0 63 -31q35 -29 35 -53q0 -23 -32 -55l-256 -267q-31 -4 -35 23z" />
<glyph unicode="&#xee;" horiz-adv-x="526" d="M49 950l184 363q37 68 72 0l187 -363q-2 -8 -19.5 -15t-26.5 -3l-149 188q-18 23 -27.5 23t-27.5 -23l-152 -188q-10 -4 -24.5 3t-16.5 15zM72 17.5q-2 19.5 8 27.5l43 6q55 8 66.5 36t11.5 142v359q0 63 -7.5 81.5t-48.5 45.5l-18 12q-6 6 -6 19.5t8 17.5 q123 43 211 100q16 0 20 -12q-8 -143 -8 -254v-369q0 -113 12.5 -141.5t65.5 -36.5l43 -6q10 -8 8 -27.5t-12 -23.5q-92 6 -193 6q-106 0 -192 -6q-10 4 -12 23.5z" />
<glyph unicode="&#xef;" horiz-adv-x="526" d="M-12 1128q-2 45 26.5 76t73.5 31q43 0 72.5 -29.5t29.5 -68.5q0 -47 -28.5 -78t-73.5 -31q-43 0 -70.5 26.5t-29.5 73.5zM72 17.5q-2 19.5 8 27.5l43 6q55 8 66.5 36t11.5 142v359q0 63 -7.5 81.5t-48.5 45.5l-18 12q-6 6 -6 19.5t8 17.5q123 43 211 100q16 0 20 -12 q-8 -143 -8 -254v-369q0 -113 12.5 -141.5t65.5 -36.5l43 -6q10 -8 8 -27.5t-12 -23.5q-92 6 -193 6q-106 0 -192 -6q-10 4 -12 23.5zM342 1130q0 43 29.5 74t74.5 31q43 0 71 -29.5t28 -66.5q0 -49 -28 -80t-71 -31t-72.5 27.5t-31.5 74.5z" />
<glyph unicode="&#xf0;" horiz-adv-x="991" d="M72 389q0 184 133 315.5t315 131.5q121 0 199 -43q-37 188 -152 331l-268 -139q-43 18 -29 68l254 133q-188 213 -387 231q-20 29 6 47q129 -6 259 -67.5t229 -155.5l229 119q20 -4 30.5 -23.5t2.5 -42.5l-213 -110q121 -129 180.5 -305.5t59.5 -356.5 q0 -258 -115 -404.5t-326 -146.5q-178 0 -292.5 112.5t-114.5 305.5zM248 418q0 -150 66.5 -267.5t189.5 -117.5q88 0 147.5 60.5t82 143t22.5 185.5q0 178 -47 266q-45 86 -197 86q-115 0 -189.5 -99t-74.5 -257z" />
<glyph unicode="&#xf1;" horiz-adv-x="1075" d="M72 17.5q-2 19.5 8 27.5l43 6q55 8 66.5 36t11.5 142v359q0 63 -7.5 81.5t-48.5 45.5l-18 12q-6 6 -6 19.5t8 17.5q41 14 108.5 47t96.5 53q16 0 22 -14q-4 -47 -4 -96q0 -23 23 -23q168 104 287 105q121 0 180 -72t59 -182v-353q0 -113 12.5 -141.5t65.5 -36.5l45 -6 q10 -8 8 -27.5t-12 -23.5q-92 6 -193 6q-106 0 -190 -6q-10 4 -12 23.5t8 27.5l39 6q55 8 66.5 36t11.5 142v306q0 203 -193 202q-121 0 -174 -71q-31 -41 -31 -123v-314q0 -113 11.5 -141.5t66.5 -36.5l37 -6q10 -8 8 -27.5t-12 -23.5q-82 6 -187 6q-106 0 -192 -6 q-10 4 -12 23.5zM309 971q6 31 29.5 87t46.5 79q45 47 113 47h110q66 0 93.5 13t64.5 67q25 12 35 -13q-20 -88 -78 -149q-37 -33 -100 -33h-109q-68 0 -103.5 -24.5t-66.5 -81.5q-8 -6 -19.5 -3t-15.5 11z" />
<glyph unicode="&#xf2;" horiz-adv-x="995" d="M72 393q0 190 126 316.5t310 126.5q176 0 296 -119t120 -305q0 -193 -121 -317t-311 -124q-180 0 -300 117t-120 305zM248 420q0 -154 68.5 -270.5t195.5 -116.5q123 0 179.5 103.5t56.5 242.5q0 154 -66 274.5t-199 120.5q-104 0 -169.5 -94t-65.5 -260zM252 1262 q0 18 39 51q43 29 69 28q25 0 48 -47l161 -329q0 -12 -15 -19.5t-28 -5.5l-239 260q-35 37 -35 62z" />
<glyph unicode="&#xf3;" horiz-adv-x="995" d="M72 393q0 190 126 316.5t310 126.5q176 0 296 -119t120 -305q0 -193 -121 -317t-311 -124q-180 0 -300 117t-120 305zM248 420q0 -154 68.5 -270.5t195.5 -116.5q123 0 179.5 103.5t56.5 242.5q0 154 -66 274.5t-199 120.5q-104 0 -169.5 -94t-65.5 -260zM414 961 l176 333q27 49 49 49q27 0 63 -30q35 -29 35 -53q0 -23 -32 -56l-256 -266q-31 -4 -35 23z" />
<glyph unicode="&#xf4;" horiz-adv-x="995" d="M72 393q0 190 126 316.5t310 126.5q176 0 296 -119t120 -305q0 -193 -121 -317t-311 -124q-180 0 -300 117t-120 305zM248 420q0 -154 68.5 -270.5t195.5 -116.5q123 0 179.5 103.5t56.5 242.5q0 154 -66 274.5t-199 120.5q-104 0 -169.5 -94t-65.5 -260zM270 950 l185 363q37 68 71 0l187 -363q-2 -8 -19.5 -15t-25.5 -3l-150 188q-18 23 -27.5 23t-27.5 -23l-152 -188q-10 -4 -24.5 3t-16.5 15z" />
<glyph unicode="&#xf5;" horiz-adv-x="995" d="M72 393q0 190 126 316.5t310 126.5q176 0 296 -119t120 -305q0 -193 -121 -317t-311 -124q-180 0 -300 117t-120 305zM248 420q0 -154 68.5 -270.5t195.5 -116.5q123 0 179.5 103.5t56.5 242.5q0 154 -66 274.5t-199 120.5q-104 0 -169.5 -94t-65.5 -260zM260 958 q6 31 29.5 86.5t46.5 75.5q41 47 110 47h109q63 0 91 13.5t63 64.5q25 12 34 -12q-20 -86 -75 -146q-37 -33 -101 -32h-106q-66 0 -100.5 -23.5t-65.5 -81.5q-8 -6 -19.5 -3t-15.5 11z" />
<glyph unicode="&#xf6;" horiz-adv-x="995" d="M72 393q0 190 126 316.5t310 126.5q176 0 296 -119t120 -305q0 -193 -121 -317t-311 -124q-180 0 -300 117t-120 305zM207 1128q-2 45 26.5 76t73.5 31q43 0 73 -29.5t30 -68.5q0 -47 -29 -78t-74 -31q-43 0 -70.5 26.5t-29.5 73.5zM248 420q0 -154 68.5 -270.5 t195.5 -116.5q123 0 179.5 103.5t56.5 242.5q0 154 -66 274.5t-199 120.5q-104 0 -169.5 -94t-65.5 -260zM561 1130q0 43 30 74t75 31q43 0 70.5 -29.5t27.5 -66.5q0 -49 -27.5 -80t-70.5 -31t-73 27.5t-32 74.5z" />
<glyph unicode="&#xf7;" d="M119 371v100h788v-100h-788zM416 172q0 37 26.5 63.5t65.5 26.5q35 0 62.5 -26.5t27.5 -63.5t-26.5 -64.5t-63.5 -27.5q-39 0 -65.5 26.5t-26.5 65.5zM416 672q0 37 26.5 63.5t65.5 26.5q35 0 62.5 -26.5t27.5 -63.5t-26.5 -64.5t-63.5 -27.5q-39 0 -65.5 26.5 t-26.5 65.5z" />
<glyph unicode="&#xf8;" horiz-adv-x="995" d="M72 393q0 190 126 316.5t310 126.5q113 0 205 -52l69 101q18 2 37 -10.5t21 -28.5l-70 -101q154 -121 154 -333q0 -193 -121 -317t-311 -124q-125 0 -220 58l-75 -113q-20 -2 -35 11.5t-19 33.5l74 107q-145 114 -145 325zM242 420q0 -141 53 -240l358 518 q-70 76 -170 76q-109 0 -175 -94t-66 -260zM334 119q74 -86 178 -86q127 0 184.5 102.5t57.5 243.5q0 152 -58 260z" />
<glyph unicode="&#xf9;" horiz-adv-x="1048" d="M80 778.5q2 16.5 12 20.5q125 2 219 37q18 -2 21 -15q-6 -51 -6 -178v-342q0 -117 41 -176t149 -59q94 0 166 61q41 37 41 119v336q0 68 -7 97.5t-19.5 39.5t-49.5 24l-26 11q-10 6 -10.5 22.5t12.5 22.5q168 4 239 37q16 -4 19 -15q-6 -59 -7 -178v-344 q0 -131 11.5 -177t52.5 -46q33 0 80 10q10 -8 10 -30.5t-12 -28.5q-209 -43 -268 -76q-18 0 -25 14v84q0 29 -18 29q-168 -106 -283 -107q-131 0 -189.5 63.5t-58.5 192.5v342q0 102 -8 129t-53 45l-25 11q-10 8 -8 24.5zM248 1268q0 18 39 51q43 29 69 29q25 0 47 -48 l162 -329q0 -12 -15 -19.5t-28 -5.5l-239 260q-35 37 -35 62z" />
<glyph unicode="&#xfa;" horiz-adv-x="1048" d="M80 778.5q2 16.5 12 20.5q125 2 219 37q18 -2 21 -15q-6 -51 -6 -178v-342q0 -117 41 -176t149 -59q94 0 166 61q41 37 41 119v336q0 68 -7 97.5t-19.5 39.5t-49.5 24l-26 11q-10 6 -10.5 22.5t12.5 22.5q168 4 239 37q16 -4 19 -15q-6 -59 -7 -178v-344 q0 -131 11.5 -177t52.5 -46q33 0 80 10q10 -8 10 -30.5t-12 -28.5q-209 -43 -268 -76q-18 0 -25 14v84q0 29 -18 29q-168 -106 -283 -107q-131 0 -189.5 63.5t-58.5 192.5v342q0 102 -8 129t-53 45l-25 11q-10 8 -8 24.5zM436 977l176 334q27 49 50 49q27 0 63 -31 q35 -29 35 -53q0 -23 -33 -55l-256 -267q-31 -4 -35 23z" />
<glyph unicode="&#xfb;" horiz-adv-x="1048" d="M80 778.5q2 16.5 12 20.5q125 2 219 37q18 -2 21 -15q-6 -51 -6 -178v-342q0 -117 41 -176t149 -59q94 0 166 61q41 37 41 119v336q0 68 -7 97.5t-19.5 39.5t-49.5 24l-26 11q-10 6 -10.5 22.5t12.5 22.5q168 4 239 37q16 -4 19 -15q-6 -59 -7 -178v-344 q0 -131 11.5 -177t52.5 -46q33 0 80 10q10 -8 10 -30.5t-12 -28.5q-209 -43 -268 -76q-18 0 -25 14v84q0 29 -18 29q-168 -106 -283 -107q-131 0 -189.5 63.5t-58.5 192.5v342q0 102 -8 129t-53 45l-25 11q-10 8 -8 24.5zM287 971l184 362q37 68 72 0l186 -362 q-2 -8 -19.5 -15.5t-25.5 -3.5l-149 189q-18 23 -27.5 22.5t-28.5 -22.5l-151 -189q-10 -4 -24.5 3.5t-16.5 15.5z" />
<glyph unicode="&#xfc;" horiz-adv-x="1048" d="M80 778.5q2 16.5 12 20.5q125 2 219 37q18 -2 21 -15q-6 -51 -6 -178v-342q0 -117 41 -176t149 -59q94 0 166 61q41 37 41 119v336q0 68 -7 97.5t-19.5 39.5t-49.5 24l-26 11q-10 6 -10.5 22.5t12.5 22.5q168 4 239 37q16 -4 19 -15q-6 -59 -7 -178v-344 q0 -131 11.5 -177t52.5 -46q33 0 80 10q10 -8 10 -30.5t-12 -28.5q-209 -43 -268 -76q-18 0 -25 14v84q0 29 -18 29q-168 -106 -283 -107q-131 0 -189.5 63.5t-58.5 192.5v342q0 102 -8 129t-53 45l-25 11q-10 8 -8 24.5zM229 1128q-2 45 27 76t74 31q43 0 72.5 -29.5 t29.5 -68.5q0 -47 -28.5 -78t-73.5 -31q-43 0 -71 26.5t-30 73.5zM584 1130q0 43 29.5 74t74.5 31q43 0 70.5 -29.5t27.5 -66.5q0 -49 -27.5 -80t-70.5 -31t-72.5 27.5t-31.5 74.5z" />
<glyph unicode="&#xfd;" horiz-adv-x="897" d="M2 789.5q2 19.5 14 23.5q98 -6 195 -6q80 0 178 6q12 -4 13 -23.5t-9 -27.5l-51 -10q-45 -10 -45 -27q0 -25 59 -193l66 -188q53 -143 59 -145q12 8 76 151l70 162q72 170 71 205q0 27 -49 35l-63 10q-10 8 -9 27.5t13 23.5q98 -6 180 -6q70 0 156 6q12 -6 13 -24.5 t-9 -26.5l-35 -6q-49 -8 -84 -54.5t-90 -162.5l-115 -236q-156 -317 -336 -717q-43 -96 -131 -96q-43 0 -66.5 24.5t-23.5 63.5t23.5 60.5t58.5 21.5h39q45 0 68 37q80 125 118 227q20 55 21 88q0 43 -35 142l-160 438q-23 63 -32 84.5t-31.5 45t-57.5 30.5l-51 10 q-10 8 -8 27.5zM434 961l176 333q27 49 49 49q27 0 64 -30q35 -29 35 -53q0 -23 -33 -56l-256 -266q-31 -4 -35 23z" />
<glyph unicode="&#xfe;" horiz-adv-x="1021" d="M29 -504.5q-2 19.5 8 27.5l43 6q55 8 66.5 35.5t11.5 142.5v1407q0 92 -9.5 117.5t-54.5 52.5l-20 12q-8 4 -8 20.5t8 20.5q14 6 58 20.5t87 31t78 34.5q14 0 20 -12q-8 -143 -8 -254v-391q0 -27 15 -27q4 2 26.5 14.5t49 25t60.5 26.5t73.5 22.5t76.5 8.5 q152 0 246 -106.5t94 -262.5q0 -217 -139 -356.5t-354 -139.5q-82 0 -119 9q-29 -6 -29 -58v-215q0 -113 11.5 -139.5t66.5 -34.5l80 -10q10 -8 8 -27.5t-12 -23.5q-147 6 -230 6q-106 0 -192 -6q-10 4 -12 23.5zM309 207q0 -43 14.5 -67.5t49.5 -51.5q61 -49 153 -49 q117 0 187.5 100.5t70.5 253.5q0 143 -72.5 243.5t-203.5 100.5q-121 0 -174 -57q-25 -31 -25 -121v-352z" />
<glyph unicode="&#xff;" horiz-adv-x="897" d="M2 789.5q2 19.5 14 23.5q98 -6 195 -6q80 0 178 6q12 -4 13 -23.5t-9 -27.5l-51 -10q-45 -10 -45 -27q0 -25 59 -193l66 -188q53 -143 59 -145q12 8 76 151l70 162q72 170 71 205q0 27 -49 35l-63 10q-10 8 -9 27.5t13 23.5q98 -6 180 -6q70 0 156 6q12 -6 13 -24.5 t-9 -26.5l-35 -6q-49 -8 -84 -54.5t-90 -162.5l-115 -236q-156 -317 -336 -717q-43 -96 -131 -96q-43 0 -66.5 24.5t-23.5 63.5t23.5 60.5t58.5 21.5h39q45 0 68 37q80 125 118 227q20 55 21 88q0 43 -35 142l-160 438q-23 63 -32 84.5t-31.5 45t-57.5 30.5l-51 10 q-10 8 -8 27.5zM213 1128q-2 45 26.5 76t73.5 31q43 0 73 -29.5t30 -68.5q0 -47 -29 -78t-74 -31q-43 0 -70.5 26.5t-29.5 73.5zM567 1130q0 43 30 74t75 31q43 0 70.5 -29.5t27.5 -66.5q0 -49 -27.5 -80t-70.5 -31t-73 27.5t-32 74.5z" />
<glyph unicode="&#x152;" horiz-adv-x="2072" d="M94 666q0 303 222.5 497.5t584.5 194.5q61 0 184 -3t183 -3h346q250 0 276 6q8 -29 31 -271q-6 -10 -23.5 -12t-27.5 6q-37 117 -68 150q-33 35 -88 47q-43 10 -198 10h-148q-43 0 -51 -11t-8 -71v-411q0 -41 9 -48.5t56 -7.5h119q133 0 174 11q35 12 49 73l19 82 q8 10 26.5 9t24.5 -11q0 -20 -4 -92t-4 -113t4 -109.5t4 -88.5q-6 -10 -24.5 -11.5t-26.5 9.5l-21 82q-14 63 -63 77q-33 10 -158 11h-119q-45 0 -55 -8.5t-10 -47.5v-288q0 -172 39 -213q43 -47 247 -48q203 0 260 31q63 33 146 199q10 8 27.5 4t23.5 -18 q-31 -156 -92 -285q-276 6 -549 6h-125q-74 0 -206 -6t-197 -6q-356 0 -572.5 186.5t-216.5 491.5zM299 674q0 -72 13.5 -146.5t53.5 -163t103 -156t176 -112.5t256 -45q111 0 178 31q37 20 49.5 57t12.5 113v870q0 127 -54 148q-74 25 -196 24q-160 0 -277.5 -49 t-184.5 -137t-98.5 -195.5t-31.5 -238.5z" />
<glyph unicode="&#x153;" horiz-adv-x="1492" d="M72 393q0 193 125 318t311 125q100 0 185 -45.5t136 -131.5q53 82 141.5 129.5t182.5 47.5q137 0 220 -73t83 -171q0 -35 -6 -47q-10 -20 -166 -21h-338q-35 0 -45 -15t-10 -63q0 -147 90 -255.5t246 -108.5q72 0 111.5 21.5t82.5 78.5q12 4 24.5 -3t12.5 -17 q-82 -190 -319 -191q-98 0 -184.5 45t-133.5 123q-53 -82 -142 -125t-190 -43q-182 0 -299.5 116t-117.5 306zM248 418q0 -147 69.5 -266t190.5 -119q125 0 182.5 103.5t57.5 242.5q0 94 -24 179t-87.5 150.5t-155.5 65.5q-102 0 -167.5 -99t-65.5 -257zM920 602 q0 -16 57 -16h129q164 0 182 18q12 12 12 41q0 47 -38.5 88t-118.5 41q-84 0 -153.5 -55.5t-69.5 -116.5z" />
<glyph unicode="&#x178;" horiz-adv-x="1175" d="M-14 1334.5q2 17.5 12 23.5q98 -6 238 -6q141 0 219 6q12 -4 14 -23.5t-8 -27.5l-27 -4q-86 -12 -86 -37q0 -31 64 -158q197 -391 231 -455q117 199 193 346q133 248 133 270.5t-86 33.5l-37 4q-10 10 -9 27.5t13 23.5q111 -6 197 -6t190 6q12 -8 13 -25.5t-9 -25.5 l-57 -11q-20 -4 -39 -13t-34 -19.5t-33.5 -33t-30 -36.5t-32 -47t-30.5 -50.5t-34.5 -60.5t-37.5 -63l-129 -223q-68 -117 -82 -166t-14 -166v-107q0 -166 20.5 -210t102.5 -50l78 -6q8 -10 7 -28.5t-11 -22.5q-190 6 -279 6q-106 0 -268 -6q-10 4 -11 22.5t7 28.5l63 6 q86 8 104.5 49t18.5 211v105q0 86 -10 127t-55 127l-242 471q-49 94 -80 120.5t-82 34.5l-57 11q-10 10 -8 27.5zM348 1559q-4 45 24.5 79.5t76.5 34.5q45 0 74.5 -33.5t29.5 -76.5q0 -45 -28.5 -77t-75.5 -32q-101 1 -101 105zM723 1559q0 47 29.5 80.5t76.5 33.5 q45 0 72 -33.5t27 -76.5q0 -47 -27 -78t-72 -31q-47 0 -75.5 27t-30.5 78z" />
<glyph unicode="&#x2c6;" horiz-adv-x="737" d="M147 971l185 362q37 68 71 0l187 -362q-2 -8 -19.5 -15.5t-25.5 -3.5l-150 189q-18 23 -27.5 22.5t-27.5 -22.5l-152 -189q-10 -4 -24.5 3.5t-16.5 15.5z" />
<glyph unicode="&#x2dc;" horiz-adv-x="737" d="M123 981q6 31 29.5 87t46.5 79q45 47 112 47h111q66 0 93.5 13.5t64.5 66.5q25 12 34 -12q-20 -88 -77 -150q-37 -33 -101 -33h-108q-66 0 -103 -24.5t-67 -81.5q-8 -6 -19.5 -3t-15.5 11z" />
<glyph unicode="&#x2000;" horiz-adv-x="888" />
<glyph unicode="&#x2001;" horiz-adv-x="1777" />
<glyph unicode="&#x2002;" horiz-adv-x="888" />
<glyph unicode="&#x2003;" horiz-adv-x="1777" />
<glyph unicode="&#x2004;" horiz-adv-x="591" />
<glyph unicode="&#x2005;" horiz-adv-x="444" />
<glyph unicode="&#x2006;" horiz-adv-x="294" />
<glyph unicode="&#x2007;" horiz-adv-x="294" />
<glyph unicode="&#x2008;" horiz-adv-x="221" />
<glyph unicode="&#x2009;" horiz-adv-x="354" />
<glyph unicode="&#x200a;" horiz-adv-x="98" />
<glyph unicode="&#x2010;" horiz-adv-x="655" d="M66 410q0 31 16 51l477 45q31 -20 31 -66q0 -31 -17 -51l-477 -45q-30 25 -30 66z" />
<glyph unicode="&#x2011;" horiz-adv-x="655" d="M66 410q0 31 16 51l477 45q31 -20 31 -66q0 -31 -17 -51l-477 -45q-30 25 -30 66z" />
<glyph unicode="&#x2012;" horiz-adv-x="655" d="M66 410q0 31 16 51l477 45q31 -20 31 -66q0 -31 -17 -51l-477 -45q-30 25 -30 66z" />
<glyph unicode="&#x2013;" d="M0 371v100h1024v-100h-1024z" />
<glyph unicode="&#x2014;" horiz-adv-x="2048" d="M0 371v100h2048v-100h-2048z" />
<glyph unicode="&#x2018;" horiz-adv-x="481" d="M113 1165q0 100 67.5 174t171.5 105q33 -16 15 -43q-156 -72 -156 -176q0 -53 34 -83t68 -32q55 -4 56 -57q0 -31 -22.5 -57.5t-76.5 -26.5q-63 0 -110 58t-47 138z" />
<glyph unicode="&#x2019;" horiz-adv-x="481" d="M113 1350q0 31 22.5 57.5t75.5 26.5q63 0 110.5 -58.5t47.5 -138.5q0 -100 -68 -174t-172 -105q-33 16 -14 43q156 72 155 177q0 53 -33.5 82.5t-68.5 31.5q-55 5 -55 58z" />
<glyph unicode="&#x201a;" horiz-adv-x="440" d="M92 121q0 31 22.5 57.5t75.5 26.5q63 0 110.5 -58.5t47.5 -138.5q-2 -100 -69.5 -174t-169.5 -104q-33 16 -15 43q156 72 156 176q0 53 -34 82.5t-69 31.5q-55 5 -55 58z" />
<glyph unicode="&#x201c;" horiz-adv-x="827" d="M113 1165q0 100 67.5 174t171.5 105q33 -16 15 -43q-156 -72 -156 -176q0 -53 34 -83t68 -32q55 -4 56 -57q0 -31 -22.5 -57.5t-76.5 -26.5q-63 0 -110 58t-47 138zM459 1165q0 100 67.5 174t171.5 105q33 -16 15 -43q-156 -72 -156 -176q0 -53 34 -83t68 -32 q55 -4 56 -57q0 -31 -22.5 -57.5t-76.5 -26.5q-63 0 -110 58t-47 138z" />
<glyph unicode="&#x201d;" horiz-adv-x="827" d="M113 1350q0 31 22.5 57.5t75.5 26.5q63 0 110.5 -58.5t47.5 -138.5q0 -100 -68 -174t-172 -105q-33 16 -14 43q156 72 155 177q0 53 -33.5 82.5t-68.5 31.5q-55 5 -55 58zM459 1350q0 31 22.5 57.5t75.5 26.5q63 0 110.5 -58.5t47.5 -138.5q0 -100 -67.5 -174 t-172.5 -105q-33 16 -14 43q156 72 155 177q0 53 -33.5 82.5t-68.5 31.5q-55 5 -55 58z" />
<glyph unicode="&#x201e;" horiz-adv-x="786" d="M92 121q0 31 22.5 57.5t75.5 26.5q63 0 110.5 -58.5t47.5 -138.5q-2 -100 -69.5 -174t-169.5 -104q-33 16 -15 43q156 72 156 176q0 53 -34 82.5t-69 31.5q-55 5 -55 58zM438 121q0 31 22.5 57.5t76.5 26.5q63 0 110 -58.5t47 -138.5q-2 -100 -69.5 -174t-169.5 -104 q-33 16 -15 43q156 72 156 176q0 53 -34 82.5t-68 31.5q-56 5 -56 58z" />
<glyph unicode="&#x2022;" horiz-adv-x="794" d="M113 688q0 119 83 202t201.5 83t201.5 -83t83 -202t-83 -200.5t-201.5 -81.5t-201.5 81.5t-83 200.5z" />
<glyph unicode="&#x2026;" horiz-adv-x="2048" d="M227 84q0 51 33 86t82 35q51 0 83 -35t32 -86q0 -49 -32 -81t-83 -32q-47 0 -81 31t-34 82zM909 84q0 51 33 86t82 35q51 0 83 -35t32 -86q0 -49 -32 -81t-83 -32q-47 0 -81 31t-34 82zM1591 84q0 51 33 86t82 35q51 0 83 -35t32 -86q0 -49 -32 -81t-83 -32q-47 0 -81 31 t-34 82z" />
<glyph unicode="&#x202f;" horiz-adv-x="354" />
<glyph unicode="&#x2039;" horiz-adv-x="477" d="M106 389q-27 33 0 64q57 68 244 307q27 -4 35 -27l-143 -287q-10 -25 0 -49l143 -291q-8 -20 -35 -26q-209 268 -244 309z" />
<glyph unicode="&#x203a;" horiz-adv-x="477" d="M92 106l144 291q10 25 0 49l-144 287q8 23 35 27q186 -240 244 -307q27 -31 0 -64q-35 -41 -244 -309q-27 6 -35 26z" />
<glyph unicode="&#x205f;" horiz-adv-x="444" />
<glyph unicode="&#x20ac;" d="M27 524q-8 10 0 33t20 33h105q-4 41 2 117h-101q-8 10 0 32.5t21 32.5h84q39 240 180 389.5t344 149.5q74 0 195 -45q20 -8 43 -11q0 -106 16 -241q-6 -12 -20.5 -13.5t-22.5 9.5q-27 113 -78 178t-162 65q-123 0 -211 -120.5t-106 -360.5h524q6 -8 1 -32.5t-21 -32.5 h-508q-6 -53 -2 -117h489q10 -8 4 -33t-24 -33h-463q14 -246 100 -368.5t226 -122.5q174 0 266 252q8 8 21.5 5t17.5 -14q-25 -154 -68 -243q-41 -16 -53 -21q-111 -41 -197 -41q-221 0 -345 145.5t-148 407.5h-129z" />
<glyph unicode="&#x2122;" horiz-adv-x="1126" d="M61 1251q10 66 25 123h18q12 -16 21.5 -19t36.5 -3h235q35 0 58 22h16q-14 -57 -10 -129q-2 -4 -10.5 -5t-10.5 3q-4 27 -9 38t-21.5 20.5t-44.5 9.5h-43q-10 0 -12.5 -3t-2.5 -20v-207q0 -45 5 -60t28 -22l31 -4q4 -4 3 -14t-5 -12q-41 2 -99 2q-74 0 -106 -2 q-14 6 -2 26l28 4q35 4 35 88v201v12q0 4 -2 7.5t-6 3.5h-12h-35q-72 0 -88 -66q-17 -6 -21 6zM505 980q-1 9 3 15l10 2q43 4 47 43q16 160 17 244q0 35 -45 41l-15 2q-2 4 -2 14.5t4 12.5q20 -2 64 -2q55 0 86 2q0 -20 45 -105l51 -96q33 -57 35 -57q4 4 35 57l49 88 q31 55 47 113q31 -2 61 -2q51 0 74 2q8 -2 9 -13.5t-7 -13.5l-18 -2q-35 -4 -35 -45q0 -129 6 -223q2 -31 6 -41t19 -15l28 -6q4 -4 4 -14t-4 -12q-27 2 -94 2q-57 0 -84 -2q-4 4 -5 13t5 13l19 6q23 8 26.5 16.5t3.5 41.5l-4 182q0 18 -2 21q-2 0 -35 -62l-51 -100l-16 -33 q-14 -29 -27.5 -57.5t-17.5 -40.5q-18 -6 -23 -2q-16 41 -53 116l-51 103q-39 84 -43 86q-4 -6 -6 -96q-2 -35 -3 -125q0 -31 7.5 -40.5t31.5 -13.5l17 -2q8 -12 0 -26q-18 2 -88 2q-45 0 -76 -2q-4 2 -5 11z" />
<glyph unicode="&#xe000;" horiz-adv-x="815" d="M0 815h815v-815h-815v815z" />
<glyph unicode="&#xfb01;" horiz-adv-x="1069" d="M61 17.5q-2 19.5 9 27.5l47 6q55 8 66.5 36t11.5 142v433q0 43 -5.5 51t-35.5 8h-72q-23 14 -6 39l88 43q31 16 31 41q0 199 63 344q43 102 143.5 189t253.5 87q104 0 179 -47t75 -112q0 -41 -27.5 -62.5t-56.5 -21.5q-35 0 -53 30q-41 70 -94 102.5t-98 32.5 q-233 0 -234 -493v-23q0 -39 7 -51t32 -12h229q186 0 269 31q14 0 20 -11q-8 -147 -8 -256v-342q0 -113 12.5 -141.5t65.5 -36.5l43 -6q10 -8 8 -27.5t-12 -23.5q-92 6 -193 6q-106 0 -192 -6q-10 4 -12.5 23.5t8.5 27.5l43 6q55 8 66 36t11 142v357q0 92 -17 113.5 t-85 21.5h-256q-25 0 -32 -12.5t-7 -51.5v-428q0 -115 12.5 -144.5t65.5 -33.5l65 -6q10 -8 8.5 -27.5t-12.5 -23.5q-125 6 -215 6q-104 0 -196 -6q-11 4 -13 23.5z" />
<glyph unicode="&#xfb02;" horiz-adv-x="1069" d="M61 17.5q-2 19.5 9 27.5l47 6q55 8 66.5 36t11.5 142v433q0 43 -5.5 51t-35.5 8h-72q-23 14 -6 39l88 43q31 16 31 41q0 221 55 356q43 104 139 184t244 80q104 0 190 -53l54 53q16 0 24 -8q-6 -135 -6 -305v-922q0 -113 12.5 -141.5t65.5 -36.5l49 -6q10 -8 8 -27.5 t-12 -23.5q-100 6 -199 6q-104 0 -196 -6q-10 4 -12.5 23.5t7.5 27.5l48 6q55 8 66 36t11 142v451q0 27 -6 34t-32 7h-320q-29 0 -34 -8t-5 -56v-428q0 -115 12.5 -144.5t65.5 -33.5l63 -6q10 -8 8.5 -27.5t-12.5 -23.5q-123 6 -213 6q-104 0 -196 -6q-11 4 -13 23.5z M346 850q0 -31 6 -37t33 -6h320q25 0 31.5 7t6.5 34v330q0 109 -34 155q-51 66 -125 66q-80 0 -132.5 -48t-73 -134.5t-26.5 -151t-6 -152.5v-63z" />
<glyph unicode="&#xfb03;" horiz-adv-x="1617" d="M61 17.5q-2 19.5 9 27.5l47 6q55 8 66.5 36t11.5 142v433q0 43 -5.5 51t-35.5 8h-72q-23 14 -6 39l88 43q31 16 31 41q0 170 69 317q51 106 145.5 180t231.5 74q86 0 148.5 -28.5t87.5 -63.5q45 57 133 99t194 42q104 0 179 -47t75 -112q0 -41 -27.5 -62.5t-56.5 -21.5 q-35 0 -53 30q-41 70 -94 102.5t-99 32.5q-233 0 -233 -493v-23q0 -39 7 -51t32 -12h229q186 0 269 31q14 0 20 -11q-8 -147 -8 -256v-342q0 -113 12 -141.5t66 -36.5l43 -6q10 -8 8 -27.5t-12 -23.5q-92 6 -193 6q-106 0 -192 -6q-10 4 -12.5 23.5t7.5 27.5l43 6 q55 8 66.5 36t11.5 142v357q0 92 -17.5 113.5t-84.5 21.5h-256q-25 0 -32 -12.5t-7 -51.5v-428q0 -115 12.5 -144.5t65.5 -33.5l65 -6q10 -8 8 -27.5t-12 -23.5q-125 6 -215 6q-104 0 -196 -6q-10 4 -12.5 23.5t7.5 27.5l48 6q55 8 66 36t11 142v433q0 43 -5 51t-36 8h-321 q-25 0 -30 -8t-5 -51v-433q0 -115 12.5 -144.5t65.5 -33.5l74 -6q10 -8 8 -27.5t-12 -23.5q-137 6 -224 6q-104 0 -196 -6q-11 4 -13 23.5zM346 864q0 -41 7 -49t53 -8h307q12 0 21 11t9 26q0 184 54 352q-16 55 -72.5 101t-132.5 46q-53 0 -95 -19t-68 -55t-43 -78 t-25.5 -100.5t-11.5 -106.5t-3 -110v-10z" />
<glyph unicode="&#xfb04;" horiz-adv-x="1615" d="M61 17.5q-2 19.5 9 27.5l47 6q55 8 66.5 36t11.5 142v433q0 43 -5.5 51t-35.5 8h-72q-23 14 -6 39l88 43q31 16 31 41q0 170 69 317q51 106 145.5 180t231.5 74q152 0 231 -90q41 53 124 96t178 43q113 0 198 -53l53 53q16 0 25 -8q-6 -135 -6 -305v-922 q0 -113 12 -141.5t66 -36.5l47 -6q10 -8 8 -27.5t-12 -23.5q-98 6 -197 6q-106 0 -192 -6q-10 4 -12.5 23.5t7.5 27.5l43 6q55 8 66.5 36t11.5 142v451q0 27 -6 34t-33 7h-319q-29 0 -34 -8t-5 -56v-428q0 -115 12.5 -144.5t65.5 -33.5l65 -6q10 -8 8 -27.5t-12 -23.5 q-125 6 -215 6q-104 0 -196 -6q-10 4 -12.5 23.5t7.5 27.5l48 6q55 8 66 36t11 142v433q0 43 -5 51t-36 8h-321q-25 0 -30 -8t-5 -51v-433q0 -115 12.5 -144.5t65.5 -33.5l74 -6q10 -8 8 -27.5t-12 -23.5q-137 6 -224 6q-104 0 -196 -6q-11 4 -13 23.5zM346 864q0 -41 7 -49 t53 -8h307q12 0 21 11t9 26q0 180 52 354q-16 53 -71.5 99t-131.5 46q-53 0 -95 -19t-68 -55t-43 -78t-25.5 -100.5t-11.5 -106.5t-3 -110v-10zM895 850q0 -31 6 -37t33 -6h319q25 0 32 7t7 34v330q0 109 -35 155q-49 66 -124 66q-80 0 -132.5 -48t-73 -134.5t-26.5 -151 t-6 -152.5v-63z" />
</font>
</defs>
</svg>
