<?xml version="1.0" standalone="no"?>
<!DOCTYPE svg PUBLIC "-//W3C//DTD SVG 1.1//EN" "http://www.w3.org/Graphics/SVG/1.1/DTD/svg11.dtd" >
<svg>
<metadata>
Created by FontForge 20110222 at Tue Apr 22 09:37:53 2014
 By deploy user
Part of the digitally encoded machine readable outline data for producing the Typefaces provided is copyrighted (c) 2007 Linotype GmbH, www.linotype.com. All rights reserved. This software is the property of Linotype GmbH, and may not be reproduced, used, displayed, modified, disclosed or transferred without the express written approval of Linotype GmbH.  Copyright (c) 1987, 1991, 1992, 1993 Fundicion Tipografica Neufville S. A. This record material and the data recorded thereon is the property of Fundicion Tipografica Neufville S. A. and Adobe Systems Incorporated, or its licensors, and may not be reproduced, used, displayed, modified, disclosed or transferred in any manner without the express written approval of Fundicion Tipografica Neufville S. A. and Adobe Systems Incorporated. This typeface is original artwork of Paul Renner. The design may be protected in certain jurisdictions.
</metadata>
<defs>
<font id="FuturaLTPro-MediumCond" horiz-adv-x="280" >
  <font-face 
    font-family="Futura LT Pro Medium Cond"
    font-weight="500"
    font-stretch="condensed"
    units-per-em="1000"
    panose-1="2 11 5 6 2 2 4 3 2 4"
    ascent="825"
    descent="-175"
    x-height="505"
    cap-height="754"
    bbox="-157 -278 893 1057"
    underline-thickness="50"
    underline-position="-50"
    unicode-range="U+000D-FB02"
  />
<missing-glyph horiz-adv-x="512" 
d="M278 117h-56v67h56v-67zM271 234h-46l-2 17q0 56 13 81q15 28 46 59q30 28 40 45.5t10 37.5q0 36 -22.5 60.5t-53.5 24.5q-71 0 -82 -95l-50 8q6 69 42 103t93 34q55 0 89.5 -36t34.5 -95q0 -34 -13 -60t-50 -60q-37 -33 -43 -52q-6 -20 -6 -72zM50 50h412v617h-412v-617
zM0 718h512v-718h-512v718z" />
    <glyph glyph-name="IJ" unicode="IJ" horiz-adv-x="514" 
d="M161 754v-754h-100v754h100zM453 754v-567q0 -46 -5 -77t-19.5 -60.5t-45.5 -44.5t-78 -15q-50 0 -86 20v102q43 -26 66 -26q24 0 38.5 8.5t20.5 26.5t7.5 32t1.5 39v562h100z" />
    <glyph glyph-name="ij" unicode="ij" horiz-adv-x="350" 
d="M137 505v-505h-94v505h94zM91 595q-26 0 -44.5 18.5t-18.5 44.5t18.5 44t44.5 18q25 0 43.5 -18.5t18.5 -43.5q0 -26 -18.5 -44.5t-43.5 -18.5zM307 505v-712h-94v712h94zM261 595q-26 0 -44.5 18.5t-18.5 44.5t18.5 44t44.5 18q25 -1 43.5 -19.5t18.5 -43.5
q0 -26 -18.5 -44.5t-43.5 -17.5z" />
    <glyph glyph-name="napostrophe" unicode="&#x22;n" horiz-adv-x="388" 
d="M138 505v-58h2q17 32 40 48q26 18 62 18q29 0 49 -10.5t30.5 -25t16 -39.5t6.5 -43.5t1 -47.5v-347h-94v349q0 80 -56 80q-20 0 -33 -9t-17.5 -28.5t-5.5 -32t-1 -35.5v-9v-315h-94v505h94zM117 738l-65 -158l-52 11l47 164z" />
    <glyph glyph-name="fi" unicode="fi" horiz-adv-x="459" 
d="M21 505h47v163q0 39 3 64t13.5 52t35 40.5t62.5 13.5q30 0 63 -14v-98q-22 12 -39 12q-21 0 -31.5 -13t-11.5 -25.5t-1 -35.5v-7v-152h78v-74h-78v-431h-94v431h-47v74zM402 505v-505h-94v505h94zM352 595q-26 0 -44.5 18.5t-18.5 44.5t18.5 44t44.5 18q25 0 43.5 -18.5
t18.5 -43.5q0 -26 -18.5 -44.5t-43.5 -18.5z" />
    <glyph glyph-name="fl" unicode="fl" horiz-adv-x="445" 
d="M402 830v-830h-94v830h94zM21 505h47v163q0 39 3 64t13.5 52t35 40.5t62.5 13.5q30 0 63 -14v-98q-22 12 -39 12q-21 0 -31.5 -13t-11.5 -25.5t-1 -35.5v-7v-152h78v-74h-78v-431h-94v431h-47v74z" />
    <glyph glyph-name=".notdef" horiz-adv-x="512" 
d="M278 117h-56v67h56v-67zM271 234h-46l-2 17q0 56 13 81q15 28 46 59q30 28 40 45.5t10 37.5q0 36 -22.5 60.5t-53.5 24.5q-71 0 -82 -95l-50 8q6 69 42 103t93 34q55 0 89.5 -36t34.5 -95q0 -34 -13 -60t-50 -60q-37 -33 -43 -52q-6 -20 -6 -72zM50 50h412v617h-412v-617
zM0 718h512v-718h-512v718z" />
    <glyph glyph-name=".null" horiz-adv-x="500" 
 />
    <glyph glyph-name="nonmarkingreturn" horiz-adv-x="333" 
 />
    <glyph glyph-name="CR" unicode="&#xd;" horiz-adv-x="0" 
 />
    <glyph glyph-name="space" unicode=" " horiz-adv-x="205" 
 />
    <glyph glyph-name="exclam" unicode="!" horiz-adv-x="252" 
d="M126 -8q-25 0 -42.5 17.5t-17.5 42.5t17.5 42.5t42.5 17.5t42.5 -17.5t17.5 -42.5t-17.5 -42.5t-42.5 -17.5zM77 754h100v-573h-100v573z" />
    <glyph glyph-name="quotedbl" unicode="&#x22;" horiz-adv-x="250" 
d="M29 528l-12 226h86l-12 -226h-62zM160 528l-12 226h86l-12 -226h-62z" />
    <glyph glyph-name="numbersign" unicode="#" horiz-adv-x="411" 
d="M-12 0l80 258h-107l17 59h108l38 124h-109l17 59h109l79 254h55l-78 -254h88l77 254h56l-78 -254h111l-17 -59h-112l-38 -124h112l-15 -59h-115l-79 -258h-55l79 258h-87l-81 -258h-55zM142 317h87l38 124h-88z" />
    <glyph glyph-name="dollar" unicode="$" horiz-adv-x="411" 
d="M182 819h45v-65q118 -8 146 -111l-77 -46q-6 32 -30 52.5t-58 20.5q-82 0 -82 -98q0 -14 1.5 -25.5t6.5 -22.5t8 -18.5t12.5 -17t13.5 -14t18 -14t18 -12.5t21 -13.5t21 -13.5q79 -49 107.5 -88.5t28.5 -121.5q0 -194 -155 -211v-67h-45v67q-59 5 -93.5 32t-53.5 82
l83 40q19 -70 85 -70q83 0 83 113q0 18 -2 32t-8.5 26.5t-10 19.5t-16.5 17.5t-18 14t-23.5 15.5t-24.5 16q-85 52 -119 97.5t-34 131.5q0 77 38.5 128.5t113.5 58.5v65z" />
    <glyph glyph-name="percent" unicode="%" horiz-adv-x="553" 
d="M149 763q35 0 58 -16.5t33 -46.5t13 -56t3 -60t-3 -59.5t-13 -56t-33 -47t-58 -16.5t-58 16.5t-33 47t-13 56t-3 59.5t3 60t13 56t33 46.5t58 16.5zM149 465q7 0 13 3t10 9t7 12.5t5 16.5t3 17.5t1.5 18.5t0.5 16.5v15v10.5v10.5v15t-0.5 16.5t-1.5 18t-3 17t-5 16.5
t-7 13t-10 9.5t-13 3t-13 -3t-10 -9.5t-7 -13t-5 -16.5t-3 -17t-1.5 -18t-0.5 -16.5v-15v-10.5v-10.5v-15t0.5 -16.5t1.5 -18.5t3 -17.5t5 -16.5t7 -12.5t10 -9t13 -3zM403 349q35 0 58 -16.5t33 -46.5t13 -56t3 -60t-3 -59.5t-13 -56t-33 -47t-58 -16.5t-58 16.5t-33 47
t-13 56t-3 59.5t3 60t13 56t33 46.5t58 16.5zM403 289q-7 0 -13 -3t-10 -9t-7 -12.5t-5 -16.5t-3 -17t-1.5 -18.5t-0.5 -16.5v-14.5v-10.5v-10.5v-15t0.5 -17t1.5 -18.5t3 -17t5 -16.5t7 -13t10 -9.5t13 -3t13 3t10 9.5t7 13t5 16.5t3 17t1.5 18.5t0.5 17v15v10.5v10.5v14.5
t-0.5 16.5t-1.5 18.5t-3 17t-5 16.5t-7 12.5t-10 9t-13 3zM432 754h62l-374 -754h-62z" />
    <glyph glyph-name="ampersand" unicode="&#x26;" horiz-adv-x="494" 
d="M204 441q26 26 36 37.5t23 36.5t13 50q0 26 -14.5 43t-40.5 17q-25 0 -42 -20.5t-17 -45.5q0 -15 5 -33t8 -26t15.5 -33t13.5 -26zM282 128l-104 174q-57 -60 -57 -120q0 -42 24 -74t61 -32q45 0 76 52zM360 0l-36 59q-49 -69 -130 -69q-71 0 -120 56.5t-49 131.5
q0 97 105 202q-60 91 -60 177q0 63 40.5 103.5t103.5 40.5q64 0 104 -36t40 -100q0 -56 -29.5 -101.5t-82.5 -97.5l99 -164l62 88l64 -52l-80 -112l80 -126h-111z" />
    <glyph glyph-name="quotesingle" unicode="'" horiz-adv-x="250" 
d="M94 528l-12 226h86l-12 -226h-62z" />
    <glyph glyph-name="parenleft" unicode="(" horiz-adv-x="276" 
d="M130 764l93 -23q-87 -228 -87 -403q0 -203 87 -427l-93 -24q-89 219 -89 445q0 227 89 432z" />
    <glyph glyph-name="parenright" unicode=")" horiz-adv-x="276" 
d="M235 332q0 -226 -89 -445l-93 24q87 224 87 427q0 175 -87 403l93 23q89 -205 89 -432z" />
    <glyph glyph-name="asterisk" unicode="*" horiz-adv-x="357" 
d="M157 754h39v-133l111 70l21 -34l-116 -66l116 -64l-21 -34l-111 67l4 -129h-43l4 132l-109 -70l-23 34l113 64l-113 60l19 36l113 -66z" />
    <glyph glyph-name="plus" unicode="+" horiz-adv-x="500" 
d="M215 291v216h70v-216h172v-70h-172v-219h-70v219h-171v70h171z" />
    <glyph glyph-name="comma" unicode="," horiz-adv-x="205" 
d="M76 106l81 -25l-97 -265l-51 14z" />
    <glyph glyph-name="hyphen" unicode="-" horiz-adv-x="242" 
d="M32 297h178v-76h-178v76z" />
    <glyph glyph-name="period" unicode="." horiz-adv-x="205" 
d="M103 -8q-25 0 -42.5 18t-17.5 43q0 24 17.5 41.5t42.5 17.5t42.5 -17.5t17.5 -41.5q0 -25 -17.5 -43t-42.5 -18z" />
    <glyph glyph-name="slash" unicode="/" horiz-adv-x="407" 
d="M358 830h79l-385 -933h-81z" />
    <glyph glyph-name="zero" unicode="0" horiz-adv-x="411" 
d="M206 763q36 0 64 -15t45.5 -35.5t30 -56.5t18.5 -63.5t9 -72t3.5 -66t0.5 -61.5v-16v-16q0 -39 -0.5 -61.5t-3.5 -66t-9 -71.5t-18.5 -64t-30 -56.5t-45.5 -35.5t-64 -15t-64 15t-45.5 35.5t-30 56.5t-18.5 63.5t-9 72t-3.5 66t-0.5 61.5v16v16q0 39 0.5 61.5t3.5 66
t9 71.5t18.5 64t30 56.5t45.5 35.5t64 15zM279 377q0 69 -1.5 114t-8.5 91t-22.5 68.5t-40.5 22.5t-40.5 -22.5t-22.5 -68.5t-8.5 -91t-1.5 -114t1.5 -114t8.5 -91t22.5 -68.5t40.5 -22.5t40.5 22.5t22.5 68.5t8.5 91t1.5 114z" />
    <glyph glyph-name="one" unicode="1" horiz-adv-x="411" 
d="M83 754h172v-754h-98v667h-74v87z" />
    <glyph glyph-name="two" unicode="2" horiz-adv-x="411" 
d="M47 509v27q0 52 5 87t20.5 70t49.5 52.5t86 17.5q90 0 129 -47t39 -139q0 -125 -130 -368l-64 -122h187v-87h-332l183 387q54 122 54 196q0 37 -15.5 63.5t-51.5 26.5q-14 0 -24.5 -6t-16.5 -18t-10 -22.5t-5.5 -28t-2 -26.5t0 -25.5t0.5 -17.5v-20h-102z" />
    <glyph glyph-name="three" unicode="3" horiz-adv-x="411" 
d="M182 347h-29v90h12q62 0 82.5 25t20.5 90q0 23 -1 37.5t-6 37t-18 34.5t-33 12q-59 0 -59 -98v-23h-96v7q0 48 5 80.5t20 63t46.5 45.5t80.5 15q88 0 122.5 -51.5t34.5 -143.5q0 -33 -2.5 -55.5t-10 -50t-25.5 -45.5t-46 -27v-2q30 -8 49.5 -25t28.5 -43t12 -50t3 -56
q0 -223 -173 -223q-159 0 -159 175v23h96v-24q0 -36 15 -60t48 -24q20 0 34.5 10.5t21.5 24t10.5 36t4 35.5t0.5 35q0 58 -18.5 92.5t-70.5 32.5z" />
    <glyph glyph-name="four" unicode="4" horiz-adv-x="411" 
d="M330 754v-473h48v-74h-48v-207h-98v207h-203v86l203 461h98zM232 281v320h-2l-122 -320h124z" />
    <glyph glyph-name="five" unicode="5" horiz-adv-x="411" 
d="M121 754h240v-87h-163l-24 -190q98 4 147.5 -54t49.5 -158q0 -75 -18.5 -133.5t-68 -99.5t-125.5 -41q-50 0 -117 31l26 89q56 -30 88 -30q59 0 86 52.5t27 115.5q0 148 -131 148q-25 0 -61 -9z" />
    <glyph glyph-name="six" unicode="6" horiz-adv-x="411" 
d="M196 754h108l-147 -322l2 -2q37 34 77 34q36 0 61.5 -16.5t39 -39.5t21 -58.5t9 -61.5t1.5 -61q0 -51 -5 -87t-20.5 -73t-49.5 -56.5t-87 -19.5q-43 0 -74 16t-47.5 39.5t-26.5 60t-12.5 67.5t-2.5 72q0 69 9 129t31 121.5t41 104.5t55 118q11 23 17 35zM266 226v28
t-1.5 30t-5 34t-10 27t-17 22t-25.5 7q-8 0 -12.5 -0.5t-15.5 -8t-17 -21t-11.5 -44t-5.5 -73.5q0 -146 62 -146q59 0 59 145z" />
    <glyph glyph-name="seven" unicode="7" horiz-adv-x="411" 
d="M38 754h337l-229 -754h-108l210 667h-210v87z" />
    <glyph glyph-name="eight" unicode="8" horiz-adv-x="411" 
d="M205 81q62 0 62 126q0 28 -1 43.5t-6 45t-19 44.5t-36 15q-15 0 -26 -7t-17.5 -23t-10 -26.5t-5 -34.5t-1.5 -29.5v-27.5q0 -126 60 -126zM132 408v2q-83 27 -83 168q0 87 33.5 136t116.5 49q90 0 126.5 -45t36.5 -140q0 -141 -82 -169v-1q89 -22 89 -182q0 -49 -6 -86
t-22 -73.5t-50 -56t-85 -19.5q-163 0 -163 221q0 37 2 60.5t9.5 55.5t27 52t50.5 28zM206 453q17 0 29 12.5t17 32.5t7 36.5t2 33.5q0 105 -55 105q-56 0 -56 -105q0 -24 3 -46.5t16.5 -45.5t36.5 -23z" />
    <glyph glyph-name="nine" unicode="9" horiz-adv-x="411" 
d="M211 0h-109l150 315l-2 2q-31 -30 -76 -30q-130 0 -130 219q0 43 2 72.5t11 67.5t25.5 61t47.5 39.5t75 16.5q37 0 65 -10t45 -30.5t28.5 -43t16.5 -54.5t6.5 -57.5t1.5 -60.5q0 -114 -26.5 -203t-86.5 -214zM205 377q62 0 61 143v7q0 146 -61 146q-59 0 -59 -152
q0 -21 0.5 -33t3.5 -36t8.5 -38t17.5 -25.5t29 -11.5z" />
    <glyph glyph-name="colon" unicode=":" horiz-adv-x="205" 
d="M103 -8q-25 0 -42.5 18t-17.5 43q0 24 17.5 41.5t42.5 17.5t42.5 -17.5t17.5 -41.5q0 -25 -17.5 -43t-42.5 -18zM103 392q-25 0 -42.5 18t-17.5 43q0 24 17.5 41.5t42.5 17.5t42.5 -17.5t17.5 -41.5q0 -25 -17.5 -43t-42.5 -18z" />
    <glyph glyph-name="semicolon" unicode=";" horiz-adv-x="205" 
d="M77 106l81 -25l-96 -265l-52 14zM103 392q-25 0 -42.5 18t-17.5 43q0 24 17.5 41.5t42.5 17.5t42.5 -17.5t17.5 -41.5q0 -25 -17.5 -43t-42.5 -18z" />
    <glyph glyph-name="less" unicode="&#x3c;" horiz-adv-x="500" 
d="M44 222v64l413 232v-73l-335 -191l335 -191v-73z" />
    <glyph glyph-name="equal" unicode="=" horiz-adv-x="500" 
d="M457 384v-70h-413v70h413zM457 194v-70h-413v70h413z" />
    <glyph glyph-name="greater" unicode="&#x3e;" horiz-adv-x="500" 
d="M457 286v-64l-413 -232v73l335 191l-335 191v73z" />
    <glyph glyph-name="question" unicode="?" horiz-adv-x="341" 
d="M211 178h-88v227l23 -1q26 0 42 9.5t22.5 30.5t8 37t1.5 46v14.5v19t-0.5 21.5t-1.5 23t-3.5 21.5t-6 20.5t-8.5 15.5t-12.5 11.5t-16.5 4q-15 0 -25 -7.5t-13.5 -23t-4 -25.5t-0.5 -29v-7v-18h-94v12q0 35 2 58t10 49t21.5 41.5t39 25.5t60.5 10q41 0 69.5 -13t43.5 -32
t23.5 -51.5t10.5 -60t2 -69.5q0 -31 -1 -50.5t-6.5 -51.5t-15.5 -51t-31 -33.5t-51 -13.5v-160zM166 -8q-25 0 -42.5 17.5t-17.5 42.5t17.5 42.5t42.5 17.5t42.5 -17.5t17.5 -42.5t-17.5 -42.5t-42.5 -17.5z" />
    <glyph glyph-name="at" unicode="@" horiz-adv-x="800" 
d="M334 211q47 0 87 50.5t59 110t19 102.5q0 30 -18.5 49.5t-49.5 19.5q-50 0 -91 -41t-61 -95t-20 -103q0 -40 19 -66.5t56 -26.5zM545 540l15 48h69l-104 -309q-13 -36 -13 -52q0 -13 8.5 -21.5t21.5 -8.5q53 0 109 70t56 178q0 118 -85 187.5t-206 69.5
q-139 0 -231.5 -95.5t-92.5 -233.5q0 -135 94.5 -228t231.5 -93q81 0 153 33.5t115 95.5h63q-48 -88 -139 -139.5t-192 -51.5q-166 0 -279.5 114.5t-110.5 276.5q0 159 115 271t276 112q142 0 247 -92.5t105 -230.5q0 -63 -30 -130.5t-87.5 -117t-125.5 -49.5
q-29 0 -54.5 13.5t-33.5 39.5q-49 -51 -121 -51q-64 0 -103 44.5t-39 108.5q0 70 31 140t90.5 119.5t131.5 49.5q37 0 68.5 -17.5t46.5 -50.5z" />
    <glyph glyph-name="A" unicode="A" horiz-adv-x="414" 
d="M168 754h79l162 -754h-101l-28 147h-150l-28 -147h-98zM265 225l-20 109l-38 274h-2l-60 -383h120z" />
    <glyph glyph-name="B" unicode="B" horiz-adv-x="418" 
d="M156 342v-257q62 -3 85.5 27.5t23.5 96.5q0 69 -22.5 101.5t-86.5 31.5zM181 0h-120v754h125q97 0 135.5 -50t38.5 -152q0 -42 -6.5 -72.5t-28.5 -57.5t-60 -37v-2q60 -19 83 -63t23 -114q0 -107 -44 -156.5t-146 -49.5zM262 556q0 50 -20.5 82t-68.5 31h-17v-247
q64 -3 85 31t21 103z" />
    <glyph glyph-name="C" unicode="C" horiz-adv-x="369" 
d="M353 742v-91q-38 19 -64 19q-33 0 -58.5 -14.5t-40.5 -43t-24 -55.5t-12.5 -67t-4.5 -62t-1 -56q0 -288 145 -288q31 0 60 15v-88q-33 -21 -80 -21q-231 0 -231 375q0 399 224 399q49 0 87 -22z" />
    <glyph glyph-name="D" unicode="D" horiz-adv-x="466" 
d="M61 754h112q32 0 51.5 -1.5t49.5 -9t48.5 -22.5t40 -43.5t33.5 -69t20.5 -102.5t8.5 -142q0 -73 -7.5 -129.5t-19 -95t-33.5 -65t-43 -41t-56 -22t-63 -9.5t-73 -2h-69v754zM319 364v20v54t-3 54.5t-8.5 56.5t-17 48t-28 41t-42.5 23.5t-59 7.5v-584q33 -1 58.5 7.5
t42 20t28 35.5t17.5 42t8.5 52t3 52t0.5 55v15z" />
    <glyph glyph-name="E" unicode="E" horiz-adv-x="347" 
d="M61 754h269v-87h-169v-237h151v-87h-151v-256h169v-87h-269v754z" />
    <glyph glyph-name="F" unicode="F" horiz-adv-x="342" 
d="M61 754h271v-87h-171v-237h154v-87h-154v-343h-100v754z" />
    <glyph glyph-name="G" unicode="G" horiz-adv-x="460" 
d="M238 398h184v-12q0 -11 0.5 -45.5t0.5 -51.5t-1.5 -51.5t-4.5 -53.5t-9.5 -49t-15.5 -47.5t-22.5 -38.5t-31.5 -32t-42.5 -19t-53.5 -8q-44 0 -77 13t-54.5 40t-35.5 59t-21 79t-9.5 91t-2.5 103q0 60 2 103t8.5 91t20 80.5t34 60t52.5 41t74 13.5q78 0 121 -38t63 -116
l-95 -39q-5 23 -9.5 37.5t-13.5 30t-25 23.5t-38 8q-20 0 -35 -8.5t-24.5 -28t-15.5 -41.5t-8.5 -59.5t-3.5 -71t-1 -85.5q0 -94 7 -155.5t21 -89.5t27.5 -37.5t32.5 -9.5q15 0 25 2t23 12t20 28.5t12.5 55t5.5 88.5v41h-84v87z" />
    <glyph glyph-name="H" unicode="H" horiz-adv-x="473" 
d="M61 754h100v-294h151v294h100v-754h-100v373h-151v-373h-100v754z" />
    <glyph glyph-name="I" unicode="I" horiz-adv-x="222" 
d="M161 754v-754h-100v754h100z" />
    <glyph glyph-name="J" unicode="J" horiz-adv-x="303" 
d="M242 754v-567q0 -46 -5 -77t-19.5 -60.5t-45.5 -44.5t-78 -15q-50 0 -86 20v102q43 -26 66 -26q24 0 38.5 8.5t20.5 26.5t7.5 32t1.5 39v562h100z" />
    <glyph glyph-name="K" unicode="K" horiz-adv-x="424" 
d="M61 754h102v-362l141 362h103l-148 -365l160 -389h-115l-141 382v-382h-102v754z" />
    <glyph glyph-name="L" unicode="L" horiz-adv-x="331" 
d="M61 754h100v-667h168v-87h-268v754z" />
    <glyph glyph-name="M" unicode="M" horiz-adv-x="561" 
d="M86 754h86l107 -544h2l3 31l30 181l65 332h88l70 -754h-98l-18 281l-6 140l-2 99h-2l-17 -108l-78 -412h-69l-97 520h-2l-29 -520h-95z" />
    <glyph glyph-name="N" unicode="N" horiz-adv-x="472" 
d="M140 579l6 -49l15 -253v-277h-100v754h96l176 -573l2 2l-24 302v269h100v-754h-93l-176 581z" />
    <glyph glyph-name="O" unicode="O" horiz-adv-x="476" 
d="M238 764q40 0 72 -15t52 -37t34.5 -58.5t21.5 -66.5t11 -75t4.5 -70t0.5 -65t-0.5 -65t-4.5 -70t-11 -75t-21.5 -66.5t-34.5 -58.5t-52 -37t-72 -15t-72 15t-52 37t-34.5 58.5t-21.5 66.5t-11 75t-4.5 70t-0.5 65t0.5 65t4.5 70t11 75t21.5 66.5t34.5 58.5t52 37t72 15z
M238 670q-54 0 -72 -75.5t-18 -217.5t18 -217.5t72 -75.5t72 75.5t18 217.5t-18 217.5t-72 75.5z" />
    <glyph glyph-name="P" unicode="P" horiz-adv-x="388" 
d="M161 0h-100v754h120q33 0 54.5 -2t51 -13.5t47 -31.5t30.5 -59.5t13 -95.5q0 -117 -50.5 -169.5t-165.5 -48.5v-334zM175 669h-14v-250q62 -4 86 27t24 98q0 125 -96 125z" />
    <glyph glyph-name="Q" unicode="Q" horiz-adv-x="479" 
d="M457 -12l-65 -46l-53 79q-38 -31 -101 -31q-40 0 -72 15t-52 37t-34.5 58.5t-21.5 66.5t-11 75t-4.5 70t-0.5 65t0.5 65t4.5 70t11 75t21.5 66.5t34.5 58.5t52 37t72 15t72 -15t52 -37t34.5 -58.5t21.5 -66.5t11 -75t4.5 -70t0.5 -65q0 -202 -45 -295zM238 670
q-54 0 -72 -75.5t-18 -217.5t18 -217.5t72 -75.5q26 0 41 16l-63 91l61 48l38 -54h2q11 112 11 192q0 142 -18 217.5t-72 75.5z" />
    <glyph glyph-name="R" unicode="R" horiz-adv-x="416" 
d="M61 0v754h120q29 0 48 -1.5t48.5 -12t46.5 -29.5t30.5 -57.5t13.5 -92.5q0 -41 -8 -79t-32.5 -73t-63.5 -42l139 -367h-104l-136 369h-2v-369h-100zM161 420q101 -7 101 119q0 64 -16.5 97.5t-68.5 32.5h-16v-249z" />
    <glyph glyph-name="S" unicode="S" horiz-adv-x="354" 
d="M294 739l-1 -101q-44 32 -85 32q-40 0 -64.5 -28.5t-24.5 -68.5q0 -46 28 -82l76 -83q58 -59 82.5 -104.5t24.5 -116.5q0 -83 -48 -140t-129 -57q-65 0 -110 36v101q53 -39 99 -39q44 0 66 30t22 75q0 41 -21.5 77t-53 65t-62.5 60t-52.5 76t-21.5 100q0 84 44 138.5
t125 54.5q64 0 106 -25z" />
    <glyph glyph-name="T" unicode="T" horiz-adv-x="323" 
d="M-4 754h331v-87h-113v-667h-100v667h-118v87z" />
    <glyph glyph-name="U" unicode="U" horiz-adv-x="467" 
d="M61 754h100v-553q0 -68 18 -92.5t52 -24.5q47 0 61 25.5t15 80.5v564h100v-535q0 -30 -0.5 -45t-3.5 -43.5t-9 -44t-19 -37t-31 -32.5t-46 -19t-64 -8q-46 0 -79 13t-51 33t-28 54t-12.5 65.5t-2.5 78.5v520z" />
    <glyph glyph-name="V" unicode="V" horiz-adv-x="387" 
d="M7 754h100l86 -567h2l5 47l40 254l46 266h95l-148 -754h-80z" />
    <glyph glyph-name="W" unicode="W" horiz-adv-x="592" 
d="M2 754h98l71 -511l4 -56h2l30 253l52 314h78l82 -562h2l27 242l46 320h97l-132 -754h-80l-57 351l-23 190l-1 19h-2l-22 -203l-60 -357h-82z" />
    <glyph glyph-name="X" unicode="X" horiz-adv-x="427" 
d="M33 754h99l48 -134q32 -89 40 -138h2l27 104l53 168h102l-139 -371l139 -383h-102l-46 132q-35 102 -41 150h-2q-1 -31 -19 -87l-62 -195h-108l143 383z" />
    <glyph glyph-name="Y" unicode="Y" horiz-adv-x="392" 
d="M2 754h108l92 -349h2l16 97l64 252h107l-140 -429v-325h-100v325z" />
    <glyph glyph-name="Z" unicode="Z" horiz-adv-x="393" 
d="M42 754h333l-227 -667h215v-87h-348l229 667h-202v87z" />
    <glyph glyph-name="bracketleft" unicode="[" horiz-adv-x="300" 
d="M38 754h219v-68h-133v-721h133v-68h-219v857z" />
    <glyph glyph-name="backslash" unicode="\" horiz-adv-x="250" 
d="M-108 830h79l387 -933h-81z" />
    <glyph glyph-name="bracketright" unicode="]" horiz-adv-x="300" 
d="M43 754h219v-857h-219v68h133v721h-133v68z" />
    <glyph glyph-name="asciicircum" unicode="^" horiz-adv-x="500" 
d="M225 754h49l183 -417h-67l-141 324l-139 -324h-66z" />
    <glyph glyph-name="underscore" unicode="_" horiz-adv-x="500" 
d="M0 -75h500v-50h-500v50z" />
    <glyph glyph-name="grave" unicode="`" 
d="M66 703l67 43l82 -149l-50 -29z" />
    <glyph glyph-name="a" unicode="a" horiz-adv-x="380" 
d="M187 76q60 0 59 170v7q0 125 -27 159q-13 17 -32 17q-11 0 -20.5 -4.5t-15.5 -13.5t-11 -18.5t-7.5 -24t-4.5 -25t-2.5 -27t-0.5 -24.5v-22.5v-16.5v-16.5v-23t0.5 -25t2.5 -27t4.5 -25t7.5 -24t11 -18.5t15.5 -13.5t20.5 -4.5zM243 0v65h-2q-16 -37 -36 -55t-57 -18
q-28 0 -49.5 13.5t-33.5 38.5t-20 50t-11 60t-4 55.5t-1 49.5q0 35 1 60t7.5 65t18.5 65t36.5 44.5t58.5 19.5q61 0 90 -64h2v56h94v-505h-94z" />
    <glyph glyph-name="b" unicode="b" horiz-adv-x="380" 
d="M43 0v830h94v-381h2q17 33 34 47q22 17 56 17t58.5 -19.5t36.5 -44.5t18.5 -65t7.5 -65t1 -60q0 -29 -1 -49.5t-4 -55.5t-11 -60t-20 -50t-33.5 -38.5t-49.5 -13.5q-37 0 -57 18t-36 55h-2v-65h-94zM193 76q11 0 20.5 4.5t15.5 13.5t11 18.5t7.5 24.5t4.5 25.5t2.5 27
t0.5 24.5v22.5v16.5v16.5v22.5t-0.5 24.5t-2.5 27t-4.5 25t-7.5 24t-11 18.5t-15.5 13.5t-20.5 4.5q-60 0 -59 -169v-7q0 -125 27 -160q13 -17 32 -17z" />
    <glyph glyph-name="c" unicode="c" horiz-adv-x="278" 
d="M254 496v-95h-2q-15 23 -44 24q-83 -1 -83 -168q0 -177 81 -177q22 0 48 19v-87q-34 -20 -76 -20q-149 0 -149 256q0 31 1.5 56.5t6.5 58t15.5 57.5t26 47t41.5 34t59 12q40 0 75 -17z" />
    <glyph glyph-name="d" unicode="d" horiz-adv-x="380" 
d="M243 0v65h-2q-16 -37 -36 -55t-57 -18q-28 0 -49.5 13.5t-33.5 38.5t-20 50t-11 60t-4 55.5t-1 49.5q0 35 1 60t7.5 65t18.5 65t36.5 44.5t58.5 19.5t54 -16t36 -48h2v381h94v-830h-94zM187 76q60 0 59 170v7q0 125 -27 159q-13 17 -32 17q-11 0 -20.5 -4.5t-15.5 -13.5
t-11 -18.5t-7.5 -24t-4.5 -25t-2.5 -27t-0.5 -24.5v-22.5v-16.5v-16.5v-23t0.5 -25t2.5 -27t4.5 -25t7.5 -24t11 -18.5t15.5 -13.5t20.5 -4.5z" />
    <glyph glyph-name="e" unicode="e" horiz-adv-x="361" 
d="M125 301h112q0 128 -57 128q-20 0 -32 -11.5t-16.5 -34.5t-5.5 -37t-1 -38v-7zM333 234h-208q0 -158 59 -158t59 94h87q0 -77 -36 -127.5t-111 -50.5q-40 0 -70 17t-45.5 42t-24.5 62t-11.5 67.5t-2.5 68.5q0 31 1.5 56t6.5 57.5t15.5 57.5t26.5 47t42 34t59 12
q153 0 153 -264v-15z" />
    <glyph glyph-name="f" unicode="f" horiz-adv-x="249" 
d="M21 505h47v163q0 39 3 64t13.5 52t35 40.5t62.5 13.5q30 0 63 -14v-98q-22 12 -39 12q-21 0 -31.5 -13t-11.5 -25.5t-1 -35.5v-7v-152h78v-74h-78v-431h-94v431h-47v74z" />
    <glyph glyph-name="g" unicode="g" horiz-adv-x="382" 
d="M245 250q0 179 -61 179t-59 -165v-9q0 -106 17 -144q16 -35 45 -35q14 0 24.5 7t16.5 21t10 27t5.5 34t2 32t0 31t-0.5 22zM339 505v-509q0 -66 -9.5 -108.5t-30.5 -64.5t-47 -30t-67 -8q-69 0 -109 38t-40 108v14h91q-2 -31 12.5 -53.5t47.5 -22.5q10 0 18.5 2t14 7
t10 8.5t7 12.5t4.5 13t2.5 16t0.5 15.5v17v15.5v84h-2q-10 -32 -33.5 -50.5t-56.5 -17.5q-29 0 -51 12.5t-34.5 36t-21 47t-11.5 57.5t-4 54.5t-1 49.5v41t2.5 46t6.5 51.5t13 46.5t21.5 42t32.5 26t45 11q35 0 55 -17t37 -51l2 2v58h95z" />
    <glyph glyph-name="h" unicode="h" horiz-adv-x="388" 
d="M44 830h94v-383h2q17 32 40 48q26 18 62 18q29 0 49.5 -10.5t30.5 -25t15.5 -40t6.5 -43t1 -47.5v-347h-94v349q0 80 -56 80q-20 0 -33 -9t-17.5 -28.5t-5.5 -32t-1 -35.5v-9v-315h-94v830z" />
    <glyph glyph-name="i" unicode="i" horiz-adv-x="180" 
d="M137 505v-505h-94v505h94zM91 595q-26 0 -44.5 18.5t-18.5 44.5t18.5 44t44.5 18q25 0 43.5 -18.5t18.5 -43.5q0 -26 -18.5 -44.5t-43.5 -18.5z" />
    <glyph glyph-name="j" unicode="j" horiz-adv-x="180" 
d="M137 505v-712h-94v712h94zM91 595q-26 0 -44.5 18.5t-18.5 44.5t18.5 44t44.5 18q25 -1 43.5 -19.5t18.5 -43.5q0 -26 -18.5 -44.5t-43.5 -17.5z" />
    <glyph glyph-name="k" unicode="k" horiz-adv-x="395" 
d="M44 830h94v-549h2l117 224h105l-129 -224l146 -281h-109l-130 268h-2v-268h-94v830z" />
    <glyph glyph-name="l" unicode="l" horiz-adv-x="180" 
d="M137 830v-830h-94v830h94z" />
    <glyph glyph-name="m" unicode="m" horiz-adv-x="590" 
d="M138 505v-62h2q32 70 99 70q34 0 59 -18.5t32 -51.5h2q32 70 104 70q111 0 111 -122v-391h-94v354q0 35 -10 55t-41 20q-11 0 -19.5 -2t-15 -7t-11 -9t-7 -12.5t-4.5 -13.5t-2.5 -16.5t-0.5 -15.5v-16.5v-15.5v-321h-94v343q0 19 -0.5 25.5t-3.5 21.5t-8 21t-15.5 12
t-26.5 6q-11 0 -19.5 -3.5t-14 -7t-10 -12.5t-6.5 -14.5t-3.5 -18t-2 -17t-1 -18.5t-0.5 -17v-321h-94v505h95z" />
    <glyph glyph-name="n" unicode="n" horiz-adv-x="388" 
d="M138 505v-58h2q17 32 40 48q26 18 62 18q29 0 49 -10.5t30.5 -25t16 -39.5t6.5 -43.5t1 -47.5v-347h-94v349q0 80 -56 80q-20 0 -33 -9t-17.5 -28.5t-5.5 -32t-1 -35.5v-9v-315h-94v505h94z" />
    <glyph glyph-name="o" unicode="o" horiz-adv-x="375" 
d="M188 -8q-41 0 -71.5 17.5t-47 42.5t-26 62.5t-12 68t-2.5 68.5q0 39 2.5 70t12 69t26 63t47 42.5t71.5 17.5t71.5 -17.5t47 -42.5t26 -63t12 -69t2.5 -70q0 -38 -2.5 -68.5t-12 -68t-26 -62.5t-47 -42.5t-71.5 -17.5zM188 78q12 0 21.5 4.5t15.5 13.5t11 18.5t8 24
t4.5 25.5t2 26.5t0.5 24v21.5v15v16.5v22t-0.5 24.5t-2 27t-4.5 25.5t-8 24t-11 18.5t-15.5 13.5t-21.5 4.5t-21.5 -4.5t-15.5 -13.5t-11 -18.5t-8 -24t-4.5 -25.5t-2 -27t-0.5 -24.5v-22v-16.5v-15v-21.5t0.5 -24t2 -26.5t4.5 -25.5t8 -24t11 -18.5t15.5 -13.5t21.5 -4.5z
" />
    <glyph glyph-name="p" unicode="p" horiz-adv-x="380" 
d="M193 76q39 0 50.5 46.5t11.5 129.5v16.5v22.5t-0.5 24.5t-2.5 27.5t-4.5 25.5t-7.5 24t-11 18.5t-15.5 13.5t-20.5 4.5q-60 0 -59 -170v-7q0 -125 27 -159q13 -17 32 -17zM137 505v-65h2q15 36 36 54.5t57 18.5q24 0 43.5 -11t31.5 -27t21 -41.5t13 -47t6.5 -51.5t3 -47
t0.5 -41q0 -35 -1 -60t-7.5 -65t-18.5 -65.5t-36.5 -45t-58.5 -19.5q-35 0 -55 16t-35 49h-2v-264h-94v712h94z" />
    <glyph glyph-name="q" unicode="q" horiz-adv-x="380" 
d="M187 76q60 0 59 169v7v7q1 170 -59 170q-11 0 -20.5 -4.5t-15.5 -13.5t-11 -18.5t-7.5 -24t-4.5 -25t-2.5 -27t-0.5 -25v-23v-16.5v-16.5v-22.5t0.5 -24.5t2.5 -27t4.5 -25t7.5 -24t11 -18.5t15.5 -13.5t20.5 -4.5zM337 505v-712h-94v264h-2q-15 -33 -34 -48
q-22 -17 -56 -17t-58.5 19.5t-36.5 45t-18.5 65.5t-7.5 65t-1 60q0 24 0.5 41t3 47t6.5 51.5t13 47t21 41.5t31.5 27t43.5 11q37 0 57.5 -18.5t35.5 -54.5h2v65h94z" />
    <glyph glyph-name="r" unicode="r" horiz-adv-x="269" 
d="M138 505v-62h2q35 70 107 70v-93l-16 1q-50 0 -71 -26t-21 -77v-318h-95v505h94z" />
    <glyph glyph-name="s" unicode="s" horiz-adv-x="276" 
d="M234 491v-89q-30 27 -70 27q-27 0 -45.5 -14.5t-18.5 -39.5q1 -23 17.5 -42.5t39.5 -35.5t46 -34.5t39 -49.5t16 -71q0 -67 -39 -108.5t-106 -41.5q-42 0 -82 24v92q40 -32 78 -32q30 0 46.5 17t16.5 47q0 24 -16.5 44.5t-39.5 37t-46 35.5t-39.5 49t-16.5 69
q0 60 37.5 99t97.5 39q48 0 85 -22z" />
    <glyph glyph-name="t" unicode="t" horiz-adv-x="221" 
d="M63 648h94v-143h50v-74h-50v-431h-94v431h-51v74h51v143z" />
    <glyph glyph-name="u" unicode="u" horiz-adv-x="389" 
d="M44 505h94v-316v-15v-17.5t0.5 -16t2.5 -16.5t4.5 -14t7 -13.5t10.5 -9t14.5 -7.5t18.5 -2t18.5 2t14 6.5t10 8.5t7 12.5t4 13.5t2 15.5t0.5 15.5v17v15v321h94v-341q0 -84 -32.5 -128t-113.5 -44q-95 0 -125.5 47t-30.5 145v321z" />
    <glyph glyph-name="v" unicode="v" horiz-adv-x="358" 
d="M13 505h100l68 -382h2l3 30l37 204l31 148h91l-133 -505h-62z" />
    <glyph glyph-name="w" unicode="w" horiz-adv-x="487" 
d="M-3 505h99l54 -352v-10h2l22 157l39 205h67l57 -352v-10h2l26 188l33 174h92l-119 -505h-64l-51 259l-10 112h-2l-22 -181l-37 -190h-65z" />
    <glyph glyph-name="x" unicode="x" horiz-adv-x="395" 
d="M14 505h110l71 -173l24 75l41 98h98l-114 -238l138 -267h-111l-50 109q-29 69 -33 96h-2q-3 -36 -34 -111l-40 -94h-98l126 267z" />
    <glyph glyph-name="y" unicode="y" horiz-adv-x="373" 
d="M4 505h105l74 -352h2l85 352h95l-206 -712h-99l78 248z" />
    <glyph glyph-name="z" unicode="z" horiz-adv-x="335" 
d="M27 505h294l-169 -421h160v-84h-298l175 421h-162v84z" />
    <glyph glyph-name="braceleft" unicode="{" horiz-adv-x="258" 
d="M2 301v52q88 10 90 81v188q0 73 34 102.5t98 29.5h31v-57q-44 -4 -62 -23t-17 -64v-159q0 -53 -19.5 -82.5t-74.5 -40.5v-2q55 -11 74.5 -40.5t19.5 -82.5v-159q-1 -45 17 -64t62 -23v-57h-31q-64 0 -98 29.5t-34 102.5v188q-2 71 -90 81z" />
    <glyph glyph-name="bar" unicode="|" horiz-adv-x="250" 
d="M90 786h70v-1000h-70v1000z" />
    <glyph glyph-name="braceright" unicode="}" horiz-adv-x="258" 
d="M3 -100v57q44 4 62 23t17 64v159q0 53 19.5 82.5t74.5 40.5v2q-55 11 -74.5 40.5t-19.5 82.5v159q1 45 -17 64t-62 23v57h31q64 0 98 -29.5t34 -102.5v-188q2 -71 90 -81v-52q-88 -10 -90 -81v-188q0 -73 -34 -102.5t-98 -29.5h-31z" />
    <glyph glyph-name="asciitilde" unicode="~" horiz-adv-x="500" 
d="M161 331q34 0 96 -35q68 -35 85 -35q44 0 81 83l34 -47q-49 -111 -116 -111q-23 0 -111 44q-48 25 -69 25q-20 0 -37.5 -16t-25 -31t-20.5 -43l-34 48q24 53 51 85.5t66 32.5z" />
    <glyph glyph-name="uni00A0" unicode="&#xa0;" horiz-adv-x="205" 
 />
    <glyph glyph-name="exclamdown" unicode="&#xa1;" horiz-adv-x="252" 
d="M126 557q25 0 42.5 -17.5t17.5 -41.5q0 -25 -17.5 -43t-42.5 -18t-42.5 18t-17.5 43q0 24 17.5 41.5t42.5 17.5zM77 -205v573h100v-573h-100z" />
    <glyph glyph-name="cent" unicode="&#xa2;" horiz-adv-x="411" 
d="M220 51v63q-79 23 -105 99q-17 49 -17 159q0 44 3.5 78.5t14.5 77.5t37.5 71t66.5 36v70h47v-72q28 -4 46 -11v-89q-16 13 -39 13q-26 0 -42.5 -17.5t-22.5 -50t-7.5 -52.5t-1.5 -50q0 -175 75 -175q12 0 38 11v-83q-19 -12 -48 -13v-65h-45z" />
    <glyph glyph-name="sterling" unicode="&#xa3;" horiz-adv-x="411" 
d="M114 125l15 -1q20 35 20 74q0 37 -20 89h-88v39h74q-27 59 -37 81.5t-23 70t-13 87.5q0 91 49 144.5t139 53.5q69 0 110.5 -39.5t44.5 -108.5l-78 -38q4 104 -78 104q-43 0 -67 -27t-24 -70q0 -31 9 -70.5t15 -57.5t28 -72.5t23 -57.5h97v-39h-91q11 -33 11 -67
q0 -66 -25 -115q4 -2 15.5 -8.5t18.5 -10t17 -6.5t18 -3q24 0 36 34l82 -27q-32 -93 -107 -93q-35 0 -85 24t-68 24q-26 0 -34 -34l-77 31q4 35 31.5 62t61.5 27z" />
    <glyph glyph-name="currency" unicode="&#xa4;" horiz-adv-x="411" 
d="M-16 110l39 42q-43 70 -43 148q0 84 43 151l-39 43l47 53l39 -43q59 49 139 49q68 0 131 -49l40 43l47 -53l-38 -43q42 -71 42 -156q0 -71 -42 -143l38 -42l-47 -53l-40 43q-61 -50 -139 -50q-66 0 -131 50l-39 -43zM209 481q-70 1 -113.5 -50.5t-43.5 -130.5
q0 -74 43.5 -126t107.5 -52q67 0 111.5 52t44.5 129q0 73 -43 126t-107 52z" />
    <glyph glyph-name="yen" unicode="&#xa5;" horiz-adv-x="411" 
d="M268 0h-100v264h-118v50h118v11l-26 71h-92v50h74l-113 308h108l98 -348h2l14 96l60 252h107l-95 -308h81v-50h-96l-22 -71v-11h118v-50h-118v-264z" />
    <glyph glyph-name="brokenbar" unicode="&#xa6;" horiz-adv-x="250" 
d="M90 661h70v-250h-70v250zM90 161h70v-250h-70v250z" />
    <glyph glyph-name="section" unicode="&#xa7;" horiz-adv-x="415" 
d="M234 220l16 -9q52 41 52 92q1 22 -5.5 38.5t-25 30t-30.5 20t-39 19.5l-24 12q-44 -37 -44 -85q0 -22 7.5 -40t25.5 -33.5t30 -23t37 -21.5zM370 598h-102q-2 17 -4.5 27.5t-8 24.5t-16 21t-26.5 7q-57 0 -57 -81q0 -47 24 -70.5t76 -42.5q136 -55 142 -170
q0 -47 -21 -90.5t-58 -68.5q57 -46 57 -127q0 -77 -40.5 -121.5t-117.5 -44.5q-78 0 -122 42t-44 120v19h102q0 -95 60 -95q33 0 48.5 22.5t15.5 57.5q0 24 -8 42.5t-26.5 34t-31 23.5t-38.5 23q-71 41 -89 58q-44 41 -47 116q0 98 79 142q-60 39 -60 137q0 71 42.5 115.5
t112.5 44.5q75 0 115 -45t43 -121z" />
    <glyph glyph-name="dieresis" unicode="&#xa8;" 
d="M61 604q-24 0 -41 15.5t-17 39.5t16.5 41t41.5 17q22 0 38.5 -16.5t16.5 -38.5q0 -23 -16 -40.5t-39 -17.5zM222 604q-24 0 -41 15.5t-17 39.5t16.5 41t41.5 17q22 0 38.5 -16.5t16.5 -38.5q0 -23 -16 -40.5t-39 -17.5z" />
    <glyph glyph-name="copyright" unicode="&#xa9;" horiz-adv-x="800" 
d="M401 -10q-161 0 -274.5 113t-113.5 275q0 160 113.5 273t274.5 113t274 -113t113 -273q0 -162 -113 -275t-274 -113zM76 377q0 -138 94 -231.5t231 -92.5q138 -1 231 92.5t93 231.5q0 136 -93.5 230t-230.5 94t-231 -94t-94 -230zM533 307h65q-7 -67 -59 -109t-121 -42
q-97 0 -156.5 64t-59.5 161t58 160t155 63q71 0 121 -39.5t62 -107.5h-65q-7 44 -39.5 69t-77.5 25q-73 0 -111 -46.5t-38 -122.5q0 -74 39.5 -123.5t111.5 -49.5q46 0 78.5 26t36.5 72z" />
    <glyph glyph-name="ordfeminine" unicode="&#xaa;" horiz-adv-x="172" 
d="M125 759h61v-303h-61v39h-2q-10 -22 -23 -33t-37 -11q-77 0 -77 161q0 152 79 152q38 0 59 -38h1v33zM88 714q-7 0 -13 -2.5t-10 -8t-7 -11t-5 -14.5t-3 -15.5t-1.5 -16.5t-0.5 -14.5v-13.5v-10v-10v-14t0.5 -15t1.5 -16t3 -15t5 -15t7 -11.5t10 -8t13 -2.5q39 0 39 107
q0 106 -39 106z" />
    <glyph glyph-name="guillemotleft" unicode="&#xab;" horiz-adv-x="357" 
d="M145 260l129 222l45 -27l-115 -195l104 -199l-44 -25zM26 260l129 222l45 -27l-115 -195l104 -199l-44 -25z" />
    <glyph glyph-name="logicalnot" unicode="&#xac;" horiz-adv-x="500" 
d="M387 117v197h-343v70h413v-267h-70z" />
    <glyph glyph-name="uni00AD" unicode="&#xad;" horiz-adv-x="242" 
d="M32 297h178v-76h-178v76z" />
    <glyph glyph-name="registered" unicode="&#xae;" horiz-adv-x="800" 
d="M401 -10q-161 0 -274.5 113t-113.5 275q0 160 113.5 273t274.5 113t274 -113t113 -273q0 -162 -113 -275t-274 -113zM401 53q138 -1 231 92.5t93 231.5q0 136 -93.5 230t-230.5 94t-231 -94t-94 -230q0 -138 94 -231.5t231 -92.5zM454 357l130 -196h-70l-123 196h-84
v-196h-61v435h190q73 0 105 -24q24 -13 37.5 -39t12.5 -54q0 -118 -137 -122zM307 404h74h20.5h22.5t21.5 1t22.5 3t19 5.5t17.5 9.5t12.5 13.5t9.5 19t2.5 25.5q0 41 -28 54.5t-77 13.5h-117v-145z" />
    <glyph glyph-name="macron" unicode="&#xaf;" 
d="M297 657h-313v58h313v-58z" />
    <glyph glyph-name="degree" unicode="&#xb0;" horiz-adv-x="400" 
d="M200 754q62 0 106 -44t44 -106t-44 -106t-106 -44t-106 44t-44 106t44 106t106 44zM200 692q-36 0 -62 -26t-26 -62q0 -37 26 -62.5t62 -25.5t62 25.5t26 62.5q0 36 -26 62t-62 26z" />
    <glyph glyph-name="plusminus" unicode="&#xb1;" horiz-adv-x="500" 
d="M215 351v156h70v-156h172v-70h-172v-159h-70v159h-171v70h171zM44 2v70h413v-70h-413z" />
    <glyph glyph-name="twosuperior" unicode="&#xb2;" horiz-adv-x="247" 
d="M126 763q61 0 87 -28.5t26 -83.5q0 -75 -85 -221l-42 -69h122v-56h-219l8 23l107 209q35 72 35 118q0 52 -39 52q-8 0 -14.5 -3.5t-10.5 -10.5t-6 -13t-3 -16.5t-1 -16v-15v-10.5v-12h-73v17q0 66 20.5 101t87.5 35z" />
    <glyph glyph-name="threesuperior" unicode="&#xb3;" horiz-adv-x="247" 
d="M171 539v-2q38 -7 50.5 -34t12.5 -69q0 -135 -115 -135q-57 0 -82 26.5t-25 78.5v14h69v-15q-1 -20 8.5 -34t29.5 -14q42 0 42 84q0 35 -12 55.5t-46 19.5h-19v54h8q41 0 54 14.5t13 54.5q0 70 -33 70q-36 0 -36 -57v-13h-69l4 4q-4 59 16 90.5t83 31.5q59 0 82 -31
t23 -86q0 -19 -1.5 -33t-7 -30t-18 -27.5t-31.5 -16.5z" />
    <glyph glyph-name="acute" unicode="&#xb4;" 
d="M215 703l-99 -135l-50 29l82 149z" />
    <glyph glyph-name="mu" unicode="&#xb5;" horiz-adv-x="388" 
d="M251 505h94v-347q0 -30 -1 -47.5t-6.5 -43t-15.5 -40t-30.5 -25t-49.5 -10.5q-68 0 -102 66h-2v-262h-94v709h94v-315v-9q0 -23 1 -36t5.5 -32t17.5 -28t33 -9q56 0 56 80v349z" />
    <glyph glyph-name="paragraph" unicode="&#xb6;" horiz-adv-x="440" 
d="M157 -112v482q-62 -1 -109.5 56t-47.5 134q0 89 52 146q27 30 56 38.5t75 9.5h208v-866h-79v799h-76v-799h-79z" />
    <glyph glyph-name="periodcentered" unicode="&#xb7;" horiz-adv-x="205" 
d="M103 195q-25 0 -42.5 18t-17.5 43q0 24 17.5 41.5t42.5 17.5t42.5 -17.5t17.5 -41.5q0 -25 -17.5 -43t-42.5 -18z" />
    <glyph glyph-name="cedilla" unicode="&#xb8;" 
d="M138 -51l66 -32l-85 -133l-43 23z" />
    <glyph glyph-name="onesuperior" unicode="&#xb9;" horiz-adv-x="247" 
d="M44 758h120v-453h-72v399h-48v54z" />
    <glyph glyph-name="ordmasculine" unicode="&#xba;" horiz-adv-x="172" 
d="M86 451q-103 0 -103 155q0 30 3 53.5t12.5 49.5t32 40.5t55.5 14.5t55.5 -14.5t32 -40.5t12.5 -49.5t3 -53.5q0 -155 -103 -155zM87 712q-7 0 -13 -2.5t-10 -8t-7 -11.5t-5 -14.5t-3 -15t-1.5 -16.5t-0.5 -14.5v-13.5v-10v-9.5v-13t0.5 -14.5t1.5 -16t3 -14.5t5 -14
t7 -11t10 -8t13 -2.5t12.5 2.5t9.5 8t7 11t4.5 14t2.5 15t1.5 16t0.5 14v13v9.5v10v13.5v14.5t-1 16t-3 15.5t-5 14.5t-6.5 11.5t-9.5 8t-13 2.5z" />
    <glyph glyph-name="guillemotright" unicode="&#xbb;" horiz-adv-x="357" 
d="M212 260l-119 -224l-44 25l104 199l-115 195l45 27zM331 260l-119 -224l-44 25l104 199l-115 195l45 27z" />
    <glyph glyph-name="onequarter" unicode="&#xbc;" horiz-adv-x="616" 
d="M561 453v-283h31v-48h-31v-122h-70v122h-140v54l132 277h78zM491 170v190h-2l-79 -190h81zM465 754h62l-374 -754h-62zM44 758h120v-453h-72v399h-48v54z" />
    <glyph glyph-name="onehalf" unicode="&#xbd;" horiz-adv-x="616" 
d="M32 758h120v-453h-72v395h-48v58zM579 0h-219l8 23l107 209q35 72 35 118q0 52 -39 52q-8 0 -14.5 -3.5t-10.5 -10.5t-6 -13t-3 -16.5t-1 -16v-15v-10.5v-12h-73v17q0 66 20.5 101t87.5 35q61 0 87 -28.5t26 -83.5q0 -75 -85 -221l-42 -69h122v-56zM433 754h62l-374 -754
h-62z" />
    <glyph glyph-name="threequarters" unicode="&#xbe;" horiz-adv-x="616" 
d="M487 122h-140v54l132 277h78v-283h31v-48h-31v-122h-70v122zM487 170v190h-2l-79 -190h81zM485 754h62l-374 -754h-62zM134 763q59 0 82 -31t23 -86q0 -19 -1.5 -33t-7 -30t-18 -27.5t-31.5 -16.5v-2q38 -7 50.5 -34t12.5 -69q0 -135 -115 -135q-57 0 -82 26.5t-25 78.5
v14h69v-15q-1 -20 8.5 -34t29.5 -14q15 0 24 8t12.5 23.5t4.5 25.5t1 27q0 35 -12 55.5t-46 19.5h-19v54h8q41 0 54 14.5t13 54.5q0 70 -33 70q-36 0 -36 -57v-13h-69l4 4q-4 59 16 90.5t83 31.5z" />
    <glyph glyph-name="questiondown" unicode="&#xbf;" horiz-adv-x="341" 
d="M138 368h88v-227l-22 1q-22 0 -36.5 -7.5t-22 -16.5t-11 -28.5t-4 -31.5t-0.5 -38q0 -1 -0.5 -18t0 -26.5t1.5 -27.5t4.5 -29t9 -23.5t15 -18.5t21.5 -6q15 0 24 7.5t12.5 23.5t4 25.5t0.5 28.5v7v18h94v-14q-1 -34 -3 -56.5t-10 -48.5t-21.5 -41.5t-39 -25.5t-60.5 -10
q-41 0 -69.5 13t-43.5 32t-23.5 52t-10 59t-1.5 68q0 32 0.5 50.5t6 51t15.5 51t31 33t51 13.5v160zM183 557q25 0 42.5 -17.5t17.5 -41.5q0 -25 -17.5 -43t-42.5 -18t-42.5 18t-17.5 43q0 24 17.5 41.5t42.5 17.5z" />
    <glyph glyph-name="Agrave" unicode="&#xc0;" horiz-adv-x="414" 
d="M168 754h79l162 -754h-101l-28 147h-150l-28 -147h-98zM265 225l-20 109l-38 274h-2l-60 -383h120zM118 922l67 43l82 -149l-50 -29z" />
    <glyph glyph-name="Aacute" unicode="&#xc1;" horiz-adv-x="414" 
d="M168 754h79l162 -754h-101l-28 147h-150l-28 -147h-98zM265 225l-20 109l-38 274h-2l-60 -383h120zM297 922l-99 -135l-50 29l82 149z" />
    <glyph glyph-name="Acircumflex" unicode="&#xc2;" horiz-adv-x="414" 
d="M168 754h79l162 -754h-101l-28 147h-150l-28 -147h-98zM265 225l-20 109l-38 274h-2l-60 -383h120zM209 969l123 -140l-47 -38l-78 83l-72 -83l-52 38z" />
    <glyph glyph-name="Atilde" unicode="&#xc3;" horiz-adv-x="414" 
d="M168 754h79l162 -754h-101l-28 147h-150l-28 -147h-98zM265 225l-20 109l-38 274h-2l-60 -383h120zM277 936h56q1 -42 -16.5 -70.5t-57.5 -28.5q-20 0 -51 16t-43 16q-24 0 -22 -28h-61q1 41 19 70t56 29q25 0 56 -16.5t45 -16.5q17 0 19 29z" />
    <glyph glyph-name="Adieresis" unicode="&#xc4;" horiz-adv-x="414" 
d="M168 754h79l162 -754h-101l-28 147h-150l-28 -147h-98zM265 225l-20 109l-38 274h-2l-60 -383h120zM128 823q-24 0 -41 15.5t-17 39.5t16.5 41t41.5 17q22 0 38.5 -16.5t16.5 -38.5q0 -23 -16 -40.5t-39 -17.5zM289 823q-24 0 -41 15.5t-17 39.5t16.5 41t41.5 17
q22 0 38.5 -16.5t16.5 -38.5q0 -23 -16 -40.5t-39 -17.5z" />
    <glyph glyph-name="Aring" unicode="&#xc5;" horiz-adv-x="414" 
d="M168 754h79l162 -754h-101l-28 147h-150l-28 -147h-98zM265 225l-20 109l-38 274h-2l-60 -383h120zM209 782q-34 0 -58.5 22.5t-24.5 56.5q0 36 23 60t58 24t58.5 -24.5t23.5 -59.5q0 -32 -24 -55.5t-56 -23.5zM209 829q14 0 23.5 10t9.5 23q0 15 -9.5 25.5t-25.5 10.5
q-15 0 -24.5 -10.5t-9.5 -25.5q0 -14 10.5 -23.5t25.5 -9.5z" />
    <glyph glyph-name="AE" unicode="&#xc6;" horiz-adv-x="566" 
d="M160 754h250l19 -87h-164l52 -239h149l19 -87h-149l58 -254h161l20 -87h-262l-30 147h-157l-28 -147h-98zM268 225l-33 159l-32 227h-2l-60 -386h127z" />
    <glyph glyph-name="Ccedilla" unicode="&#xc7;" horiz-adv-x="369" 
d="M353 742v-91q-38 19 -64 19q-33 0 -58.5 -14.5t-40.5 -43t-24 -55.5t-12.5 -67t-4.5 -62t-1 -56q0 -288 145 -288q31 0 60 15v-88q-33 -21 -80 -21q-231 0 -231 375q0 399 224 399q49 0 87 -22zM213 -51l66 -32l-85 -133l-43 23z" />
    <glyph glyph-name="Egrave" unicode="&#xc8;" horiz-adv-x="347" 
d="M61 754h269v-87h-169v-237h151v-87h-151v-256h169v-87h-269v754zM100 922l67 43l82 -149l-50 -29z" />
    <glyph glyph-name="Eacute" unicode="&#xc9;" horiz-adv-x="347" 
d="M61 754h269v-87h-169v-237h151v-87h-151v-256h169v-87h-269v754zM294 922l-99 -135l-50 29l82 149z" />
    <glyph glyph-name="Ecircumflex" unicode="&#xca;" horiz-adv-x="347" 
d="M61 754h269v-87h-169v-237h151v-87h-151v-256h169v-87h-269v754zM188 969l123 -140l-47 -38l-78 83l-72 -83l-52 38z" />
    <glyph glyph-name="Edieresis" unicode="&#xcb;" horiz-adv-x="347" 
d="M61 754h269v-87h-169v-237h151v-87h-151v-256h169v-87h-269v754zM110 823q-24 0 -41 15.5t-17 39.5t16.5 41t41.5 17q22 0 38.5 -16.5t16.5 -38.5q0 -23 -16 -40.5t-39 -17.5zM271 823q-24 0 -41 15.5t-17 39.5t16.5 41t41.5 17q22 0 38.5 -16.5t16.5 -38.5
q0 -23 -16 -40.5t-39 -17.5z" />
    <glyph glyph-name="Igrave" unicode="&#xcc;" horiz-adv-x="222" 
d="M161 754v-754h-100v754h100zM23 922l67 43l82 -149l-50 -29z" />
    <glyph glyph-name="Iacute" unicode="&#xcd;" horiz-adv-x="222" 
d="M161 754v-754h-100v754h100zM202 922l-99 -135l-50 29l82 149z" />
    <glyph glyph-name="Icircumflex" unicode="&#xce;" horiz-adv-x="222" 
d="M161 754v-754h-100v754h100zM114 969l123 -140l-47 -38l-78 83l-72 -83l-52 38z" />
    <glyph glyph-name="Idieresis" unicode="&#xcf;" horiz-adv-x="222" 
d="M161 754v-754h-100v754h100zM33 823q-24 0 -41 15.5t-17 39.5t16.5 41t41.5 17q22 0 38.5 -16.5t16.5 -38.5q0 -23 -16 -40.5t-39 -17.5zM194 823q-24 0 -41 15.5t-17 39.5t16.5 41t41.5 17q22 0 38.5 -16.5t16.5 -38.5q0 -23 -16 -40.5t-39 -17.5z" />
    <glyph glyph-name="Eth" unicode="&#xd0;" horiz-adv-x="466" 
d="M61 430v324h112q33 0 56 -2t51.5 -10.5t47.5 -24t39 -44.5t31.5 -69.5t19 -101.5t7.5 -138q0 -58 -5 -105.5t-12.5 -83t-22 -63t-28 -46t-36 -31t-40.5 -19.5t-47 -10.5t-49.5 -4.5t-54.5 -1h-69v343h-70v87h70zM161 669v-239h70v-87h-70v-258q29 -1 52 4t39.5 17.5
t28 25t18.5 37t11.5 41.5t6 49t2 50.5t0.5 54.5q0 43 -0.5 65.5t-3.5 61.5t-8.5 60t-17 48.5t-28 40.5t-42 22t-58.5 7z" />
    <glyph glyph-name="Ntilde" unicode="&#xd1;" horiz-adv-x="472" 
d="M140 579l6 -49l15 -253v-277h-100v754h96l176 -573l2 2l-24 302v269h100v-754h-93l-176 581zM306 936h56q1 -42 -16.5 -70.5t-57.5 -28.5q-20 0 -51 16t-43 16q-24 0 -22 -28h-61q1 41 19 70t56 29q25 0 56 -16.5t45 -16.5q17 0 19 29z" />
    <glyph glyph-name="Ograve" unicode="&#xd2;" horiz-adv-x="476" 
d="M238 764q40 0 72 -15t52 -37t34.5 -58.5t21.5 -66.5t11 -75t4.5 -70t0.5 -65t-0.5 -65t-4.5 -70t-11 -75t-21.5 -66.5t-34.5 -58.5t-52 -37t-72 -15t-72 15t-52 37t-34.5 58.5t-21.5 66.5t-11 75t-4.5 70t-0.5 65t0.5 65t4.5 70t11 75t21.5 66.5t34.5 58.5t52 37t72 15z
M238 670q-54 0 -72 -75.5t-18 -217.5t18 -217.5t72 -75.5t72 75.5t18 217.5t-18 217.5t-72 75.5zM139 922l67 43l82 -149l-50 -29z" />
    <glyph glyph-name="Oacute" unicode="&#xd3;" horiz-adv-x="476" 
d="M238 764q40 0 72 -15t52 -37t34.5 -58.5t21.5 -66.5t11 -75t4.5 -70t0.5 -65t-0.5 -65t-4.5 -70t-11 -75t-21.5 -66.5t-34.5 -58.5t-52 -37t-72 -15t-72 15t-52 37t-34.5 58.5t-21.5 66.5t-11 75t-4.5 70t-0.5 65t0.5 65t4.5 70t11 75t21.5 66.5t34.5 58.5t52 37t72 15z
M238 670q-54 0 -72 -75.5t-18 -217.5t18 -217.5t72 -75.5t72 75.5t18 217.5t-18 217.5t-72 75.5zM338 922l-99 -135l-50 29l82 149z" />
    <glyph glyph-name="Ocircumflex" unicode="&#xd4;" horiz-adv-x="476" 
d="M238 764q40 0 72 -15t52 -37t34.5 -58.5t21.5 -66.5t11 -75t4.5 -70t0.5 -65t-0.5 -65t-4.5 -70t-11 -75t-21.5 -66.5t-34.5 -58.5t-52 -37t-72 -15t-72 15t-52 37t-34.5 58.5t-21.5 66.5t-11 75t-4.5 70t-0.5 65t0.5 65t4.5 70t11 75t21.5 66.5t34.5 58.5t52 37t72 15z
M238 670q-54 0 -72 -75.5t-18 -217.5t18 -217.5t72 -75.5t72 75.5t18 217.5t-18 217.5t-72 75.5zM240 969l123 -140l-47 -38l-78 83l-72 -83l-52 38z" />
    <glyph glyph-name="Otilde" unicode="&#xd5;" horiz-adv-x="476" 
d="M238 764q40 0 72 -15t52 -37t34.5 -58.5t21.5 -66.5t11 -75t4.5 -70t0.5 -65t-0.5 -65t-4.5 -70t-11 -75t-21.5 -66.5t-34.5 -58.5t-52 -37t-72 -15t-72 15t-52 37t-34.5 58.5t-21.5 66.5t-11 75t-4.5 70t-0.5 65t0.5 65t4.5 70t11 75t21.5 66.5t34.5 58.5t52 37t72 15z
M238 670q-54 0 -72 -75.5t-18 -217.5t18 -217.5t72 -75.5t72 75.5t18 217.5t-18 217.5t-72 75.5zM308 936h56q1 -42 -16.5 -70.5t-57.5 -28.5q-20 0 -51 16t-43 16q-24 0 -22 -28h-61q1 41 19 70t56 29q25 0 56 -16.5t45 -16.5q17 0 19 29z" />
    <glyph glyph-name="Odieresis" unicode="&#xd6;" horiz-adv-x="476" 
d="M238 764q40 0 72 -15t52 -37t34.5 -58.5t21.5 -66.5t11 -75t4.5 -70t0.5 -65t-0.5 -65t-4.5 -70t-11 -75t-21.5 -66.5t-34.5 -58.5t-52 -37t-72 -15t-72 15t-52 37t-34.5 58.5t-21.5 66.5t-11 75t-4.5 70t-0.5 65t0.5 65t4.5 70t11 75t21.5 66.5t34.5 58.5t52 37t72 15z
M238 670q-54 0 -72 -75.5t-18 -217.5t18 -217.5t72 -75.5t72 75.5t18 217.5t-18 217.5t-72 75.5zM159 823q-24 0 -41 15.5t-17 39.5t16.5 41t41.5 17q22 0 38.5 -16.5t16.5 -38.5q0 -23 -16 -40.5t-39 -17.5zM320 823q-24 0 -41 15.5t-17 39.5t16.5 41t41.5 17
q22 0 38.5 -16.5t16.5 -38.5q0 -23 -16 -40.5t-39 -17.5z" />
    <glyph glyph-name="multiply" unicode="&#xd7;" horiz-adv-x="500" 
d="M201 254l-157 157l50 49l156 -157l158 158l49 -50l-157 -157l157 -157l-50 -49l-157 157l-158 -157l-48 49z" />
    <glyph glyph-name="Oslash" unicode="&#xd8;" horiz-adv-x="476" 
d="M151 260l161 325q-21 85 -74 85q-54 0 -72 -75.5t-18 -217.5q0 -63 3 -117zM325 485l-159 -323q21 -78 72 -78q54 0 72 75.5t18 217.5q0 57 -3 108zM21 -4l55 112q-34 86 -34 269q0 40 0.5 65t4.5 70t11 75t21.5 66.5t34.5 58.5t52 37t72 15q84 0 131 -63l36 72l50 -23
l-53 -109q32 -85 32 -264q0 -40 -0.5 -65t-4.5 -70t-11 -75t-21.5 -66.5t-34.5 -58.5t-52 -37t-72 -15q-82 0 -128 59l-38 -76z" />
    <glyph glyph-name="Ugrave" unicode="&#xd9;" horiz-adv-x="467" 
d="M61 754h100v-553q0 -68 18 -92.5t52 -24.5q47 0 61 25.5t15 80.5v564h100v-535q0 -30 -0.5 -45t-3.5 -43.5t-9 -44t-19 -37t-31 -32.5t-46 -19t-64 -8q-46 0 -79 13t-51 33t-28 54t-12.5 65.5t-2.5 78.5v520zM130 922l67 43l82 -149l-50 -29z" />
    <glyph glyph-name="Uacute" unicode="&#xda;" horiz-adv-x="467" 
d="M61 754h100v-553q0 -68 18 -92.5t52 -24.5q47 0 61 25.5t15 80.5v564h100v-535q0 -30 -0.5 -45t-3.5 -43.5t-9 -44t-19 -37t-31 -32.5t-46 -19t-64 -8q-46 0 -79 13t-51 33t-28 54t-12.5 65.5t-2.5 78.5v520zM339 922l-99 -135l-50 29l82 149z" />
    <glyph glyph-name="Ucircumflex" unicode="&#xdb;" horiz-adv-x="467" 
d="M61 754h100v-553q0 -68 18 -92.5t52 -24.5q47 0 61 25.5t15 80.5v564h100v-535q0 -30 -0.5 -45t-3.5 -43.5t-9 -44t-19 -37t-31 -32.5t-46 -19t-64 -8q-46 0 -79 13t-51 33t-28 54t-12.5 65.5t-2.5 78.5v520zM236 969l123 -140l-47 -38l-78 83l-72 -83l-52 38z" />
    <glyph glyph-name="Udieresis" unicode="&#xdc;" horiz-adv-x="467" 
d="M61 754h100v-553q0 -68 18 -92.5t52 -24.5q47 0 61 25.5t15 80.5v564h100v-535q0 -30 -0.5 -45t-3.5 -43.5t-9 -44t-19 -37t-31 -32.5t-46 -19t-64 -8q-46 0 -79 13t-51 33t-28 54t-12.5 65.5t-2.5 78.5v520zM155 823q-24 0 -41 15.5t-17 39.5t16.5 41t41.5 17
q22 0 38.5 -16.5t16.5 -38.5q0 -23 -16 -40.5t-39 -17.5zM316 823q-24 0 -41 15.5t-17 39.5t16.5 41t41.5 17q22 0 38.5 -16.5t16.5 -38.5q0 -23 -16 -40.5t-39 -17.5z" />
    <glyph glyph-name="Yacute" unicode="&#xdd;" horiz-adv-x="392" 
d="M2 754h108l92 -349h2l16 97l64 252h107l-140 -429v-325h-100v325zM311 922l-99 -135l-50 29l82 149z" />
    <glyph glyph-name="Thorn" unicode="&#xde;" horiz-adv-x="396" 
d="M175 519h-14v-250q62 -4 86 27t24 98q0 125 -96 125zM161 754v-150q27 0 45.5 -1t43.5 -5t41 -12t34 -23t28 -36t17 -53t7 -72q0 -117 -50.5 -169.5t-165.5 -48.5v-184h-100v754h100z" />
    <glyph glyph-name="germandbls" unicode="&#xdf;" horiz-adv-x="425" 
d="M64 505v142q0 94 30 142.5t118 48.5q87 0 124 -42.5t37 -130.5q0 -125 -71 -148v-2q19 -5 33.5 -17.5t23.5 -25t15.5 -36.5t9.5 -37t4.5 -43t1.5 -39.5v-39.5q0 -53 -1.5 -85.5t-6.5 -68t-15 -55t-27 -37t-43 -24.5t-62 -7h-33v84h14q15 0 26 2.5t19 10t14 13.5t9.5 21
t5.5 25t3 32t1 35.5v42.5v5v12q0 28 -0.5 43t-3 41.5t-9 42t-17 32t-29 24t-43.5 6.5v84q52 -3 68.5 23.5t16.5 81.5q0 93 -61 93q-10 0 -18.5 -2.5t-14.5 -8.5t-10.5 -11t-7 -15.5t-4.5 -16t-2.5 -18t-0.5 -16v-16.5v-12v-638h-94v431h-43v74h43z" />
    <glyph glyph-name="agrave" unicode="&#xe0;" horiz-adv-x="380" 
d="M187 76q60 0 59 170v7q0 125 -27 159q-13 17 -32 17q-11 0 -20.5 -4.5t-15.5 -13.5t-11 -18.5t-7.5 -24t-4.5 -25t-2.5 -27t-0.5 -24.5v-22.5v-16.5v-16.5v-23t0.5 -25t2.5 -27t4.5 -25t7.5 -24t11 -18.5t15.5 -13.5t20.5 -4.5zM243 0v65h-2q-16 -37 -36 -55t-57 -18
q-28 0 -49.5 13.5t-33.5 38.5t-20 50t-11 60t-4 55.5t-1 49.5q0 35 1 60t7.5 65t18.5 65t36.5 44.5t58.5 19.5q61 0 90 -64h2v56h94v-505h-94zM96 703l67 43l82 -149l-50 -29z" />
    <glyph glyph-name="aacute" unicode="&#xe1;" horiz-adv-x="380" 
d="M187 76q60 0 59 170v7q0 125 -27 159q-13 17 -32 17q-11 0 -20.5 -4.5t-15.5 -13.5t-11 -18.5t-7.5 -24t-4.5 -25t-2.5 -27t-0.5 -24.5v-22.5v-16.5v-16.5v-23t0.5 -25t2.5 -27t4.5 -25t7.5 -24t11 -18.5t15.5 -13.5t20.5 -4.5zM243 0v65h-2q-16 -37 -36 -55t-57 -18
q-28 0 -49.5 13.5t-33.5 38.5t-20 50t-11 60t-4 55.5t-1 49.5q0 35 1 60t7.5 65t18.5 65t36.5 44.5t58.5 19.5q61 0 90 -64h2v56h94v-505h-94zM295 703l-99 -135l-50 29l82 149z" />
    <glyph glyph-name="acircumflex" unicode="&#xe2;" horiz-adv-x="380" 
d="M187 76q60 0 59 170v7q0 125 -27 159q-13 17 -32 17q-11 0 -20.5 -4.5t-15.5 -13.5t-11 -18.5t-7.5 -24t-4.5 -25t-2.5 -27t-0.5 -24.5v-22.5v-16.5v-16.5v-23t0.5 -25t2.5 -27t4.5 -25t7.5 -24t11 -18.5t15.5 -13.5t20.5 -4.5zM243 0v65h-2q-16 -37 -36 -55t-57 -18
q-28 0 -49.5 13.5t-33.5 38.5t-20 50t-11 60t-4 55.5t-1 49.5q0 35 1 60t7.5 65t18.5 65t36.5 44.5t58.5 19.5q61 0 90 -64h2v56h94v-505h-94zM192 750l123 -140l-47 -38l-78 83l-72 -83l-52 38z" />
    <glyph glyph-name="atilde" unicode="&#xe3;" horiz-adv-x="380" 
d="M187 76q60 0 59 170v7q0 125 -27 159q-13 17 -32 17q-11 0 -20.5 -4.5t-15.5 -13.5t-11 -18.5t-7.5 -24t-4.5 -25t-2.5 -27t-0.5 -24.5v-22.5v-16.5v-16.5v-23t0.5 -25t2.5 -27t4.5 -25t7.5 -24t11 -18.5t15.5 -13.5t20.5 -4.5zM243 0v65h-2q-16 -37 -36 -55t-57 -18
q-28 0 -49.5 13.5t-33.5 38.5t-20 50t-11 60t-4 55.5t-1 49.5q0 35 1 60t7.5 65t18.5 65t36.5 44.5t58.5 19.5q61 0 90 -64h2v56h94v-505h-94zM260 717h56q1 -42 -16.5 -70.5t-57.5 -28.5q-20 0 -51 16t-43 16q-24 0 -22 -28h-61q1 41 19 70t56 29q25 0 56 -16.5t45 -16.5
q17 0 19 29z" />
    <glyph glyph-name="adieresis" unicode="&#xe4;" horiz-adv-x="380" 
d="M187 76q60 0 59 170v7q0 125 -27 159q-13 17 -32 17q-11 0 -20.5 -4.5t-15.5 -13.5t-11 -18.5t-7.5 -24t-4.5 -25t-2.5 -27t-0.5 -24.5v-22.5v-16.5v-16.5v-23t0.5 -25t2.5 -27t4.5 -25t7.5 -24t11 -18.5t15.5 -13.5t20.5 -4.5zM243 0v65h-2q-16 -37 -36 -55t-57 -18
q-28 0 -49.5 13.5t-33.5 38.5t-20 50t-11 60t-4 55.5t-1 49.5q0 35 1 60t7.5 65t18.5 65t36.5 44.5t58.5 19.5q61 0 90 -64h2v56h94v-505h-94zM111 604q-24 0 -41 15.5t-17 39.5t16.5 41t41.5 17q22 0 38.5 -16.5t16.5 -38.5q0 -23 -16 -40.5t-39 -17.5zM272 604
q-24 0 -41 15.5t-17 39.5t16.5 41t41.5 17q22 0 38.5 -16.5t16.5 -38.5q0 -23 -16 -40.5t-39 -17.5z" />
    <glyph glyph-name="aring" unicode="&#xe5;" horiz-adv-x="380" 
d="M187 76q60 0 59 170v7q0 125 -27 159q-13 17 -32 17q-11 0 -20.5 -4.5t-15.5 -13.5t-11 -18.5t-7.5 -24t-4.5 -25t-2.5 -27t-0.5 -24.5v-22.5v-16.5v-16.5v-23t0.5 -25t2.5 -27t4.5 -25t7.5 -24t11 -18.5t15.5 -13.5t20.5 -4.5zM243 0v65h-2q-16 -37 -36 -55t-57 -18
q-28 0 -49.5 13.5t-33.5 38.5t-20 50t-11 60t-4 55.5t-1 49.5q0 35 1 60t7.5 65t18.5 65t36.5 44.5t58.5 19.5q61 0 90 -64h2v56h94v-505h-94zM192 583q-34 0 -58.5 22.5t-24.5 56.5q0 36 23 60t58 24t58.5 -24.5t23.5 -59.5q0 -32 -24 -55.5t-56 -23.5zM192 630
q14 0 23.5 10t9.5 23q0 15 -9.5 25.5t-25.5 10.5q-15 0 -24.5 -10.5t-9.5 -25.5q0 -14 10.5 -23.5t25.5 -9.5z" />
    <glyph glyph-name="ae" unicode="&#xe6;" horiz-adv-x="561" 
d="M439 301v22q0 110 -56 110q-58 0 -58 -110v-22h114zM533 233h-209q0 -4 0.5 -33.5t3 -45t8 -38t19 -33.5t33.5 -11q30 0 43 26.5t12 56.5v18h89q-4 -181 -143 -181q-94 0 -123 79q-29 -79 -111 -79q-67 0 -96.5 43.5t-29.5 113.5q0 34 5.5 62.5t18 56t38 43t61.5 15.5
q56 0 79 -33l2 2v43q-3 44 -20.5 64.5t-62.5 20.5q-50 0 -96 -29v93q49 26 103 26q90 0 118 -65q34 65 107 65q151 0 151 -247v-33zM179 252q-56 0 -56 -88q0 -97 57 -97q59 0 59 94q0 91 -60 91z" />
    <glyph glyph-name="ccedilla" unicode="&#xe7;" horiz-adv-x="278" 
d="M254 496v-95h-2q-15 23 -44 24q-83 -1 -83 -168q0 -177 81 -177q22 0 48 19v-87q-34 -20 -76 -20q-149 0 -149 256q0 31 1.5 56.5t6.5 58t15.5 57.5t26 47t41.5 34t59 12q40 0 75 -17zM152 -51l66 -32l-85 -133l-43 23z" />
    <glyph glyph-name="egrave" unicode="&#xe8;" horiz-adv-x="361" 
d="M125 301h112q0 128 -57 128q-20 0 -32 -11.5t-16.5 -34.5t-5.5 -37t-1 -38v-7zM333 234h-208q0 -158 59 -158t59 94h87q0 -77 -36 -127.5t-111 -50.5q-40 0 -70 17t-45.5 42t-24.5 62t-11.5 67.5t-2.5 68.5q0 31 1.5 56t6.5 57.5t15.5 57.5t26.5 47t42 34t59 12
q153 0 153 -264v-15zM77 703l67 43l82 -149l-50 -29z" />
    <glyph glyph-name="eacute" unicode="&#xe9;" horiz-adv-x="361" 
d="M125 301h112q0 128 -57 128q-20 0 -32 -11.5t-16.5 -34.5t-5.5 -37t-1 -38v-7zM333 234h-208q0 -158 59 -158t59 94h87q0 -77 -36 -127.5t-111 -50.5q-40 0 -70 17t-45.5 42t-24.5 62t-11.5 67.5t-2.5 68.5q0 31 1.5 56t6.5 57.5t15.5 57.5t26.5 47t42 34t59 12
q153 0 153 -264v-15zM286 703l-99 -135l-50 29l82 149z" />
    <glyph glyph-name="ecircumflex" unicode="&#xea;" horiz-adv-x="361" 
d="M125 301h112q0 128 -57 128q-20 0 -32 -11.5t-16.5 -34.5t-5.5 -37t-1 -38v-7zM333 234h-208q0 -158 59 -158t59 94h87q0 -77 -36 -127.5t-111 -50.5q-40 0 -70 17t-45.5 42t-24.5 62t-11.5 67.5t-2.5 68.5q0 31 1.5 56t6.5 57.5t15.5 57.5t26.5 47t42 34t59 12
q153 0 153 -264v-15zM183 750l123 -140l-47 -38l-78 83l-72 -83l-52 38z" />
    <glyph glyph-name="edieresis" unicode="&#xeb;" horiz-adv-x="361" 
d="M125 301h112q0 128 -57 128q-20 0 -32 -11.5t-16.5 -34.5t-5.5 -37t-1 -38v-7zM333 234h-208q0 -158 59 -158t59 94h87q0 -77 -36 -127.5t-111 -50.5q-40 0 -70 17t-45.5 42t-24.5 62t-11.5 67.5t-2.5 68.5q0 31 1.5 56t6.5 57.5t15.5 57.5t26.5 47t42 34t59 12
q153 0 153 -264v-15zM102 604q-24 0 -41 15.5t-17 39.5t16.5 41t41.5 17q22 0 38.5 -16.5t16.5 -38.5q0 -23 -16 -40.5t-39 -17.5zM263 604q-24 0 -41 15.5t-17 39.5t16.5 41t41.5 17q22 0 38.5 -16.5t16.5 -38.5q0 -23 -16 -40.5t-39 -17.5z" />
    <glyph glyph-name="igrave" unicode="&#xec;" horiz-adv-x="180" 
d="M43 505h94v-505h-94v505zM2 703l67 43l82 -149l-50 -29z" />
    <glyph glyph-name="iacute" unicode="&#xed;" horiz-adv-x="180" 
d="M43 505h94v-505h-94v505zM181 703l-99 -135l-50 29l82 149z" />
    <glyph glyph-name="icircumflex" unicode="&#xee;" horiz-adv-x="180" 
d="M43 505h94v-505h-94v505zM93 750l123 -140l-47 -38l-78 83l-72 -83l-52 38z" />
    <glyph glyph-name="idieresis" unicode="&#xef;" horiz-adv-x="180" 
d="M43 505h94v-505h-94v505zM12 604q-24 0 -41 15.5t-17 39.5t16.5 41t41.5 17q22 0 38.5 -16.5t16.5 -38.5q0 -23 -16 -40.5t-39 -17.5zM173 604q-24 0 -41 15.5t-17 39.5t16.5 41t41.5 17q22 0 38.5 -16.5t16.5 -38.5q0 -23 -16 -40.5t-39 -17.5z" />
    <glyph glyph-name="eth" unicode="&#xf0;" horiz-adv-x="375" 
d="M125 251q0 -42 2 -68.5t8 -53t19 -39t34 -12.5q22 0 36 13.5t19.5 43.5t6.5 52t1 64q0 27 -0.5 41.5t-2 39t-5.5 38.5t-10.5 29t-18 22t-26.5 7q-22 0 -35.5 -14.5t-19 -44.5t-7 -54t-1.5 -64zM94 590l-31 50l77 36q-58 91 -92 134l75 28q40 -50 90 -126l73 38l32 -50
l-76 -38q105 -170 105 -400q0 -45 -2.5 -78.5t-12 -72t-26 -62.5t-46.5 -40.5t-72 -16.5q-41 0 -71.5 17t-47 42t-26 62t-12 68t-2.5 70q0 36 2.5 65t12 64t25.5 58.5t45.5 40t69.5 16.5q29 0 49 -11q-21 69 -65 142z" />
    <glyph glyph-name="ntilde" unicode="&#xf1;" horiz-adv-x="388" 
d="M138 505v-58h2q17 32 40 48q26 18 62 18q29 0 49 -10.5t30.5 -25t16 -39.5t6.5 -43.5t1 -47.5v-347h-94v349q0 80 -56 80q-20 0 -33 -9t-17.5 -28.5t-5.5 -32t-1 -35.5v-9v-315h-94v505h94zM258 717h56q1 -42 -16.5 -70.5t-57.5 -28.5q-20 0 -51 16t-43 16q-24 0 -22 -28
h-61q1 41 19 70t56 29q25 0 56 -16.5t45 -16.5q17 0 19 29z" />
    <glyph glyph-name="ograve" unicode="&#xf2;" horiz-adv-x="375" 
d="M188 -8q-41 0 -71.5 17.5t-47 42.5t-26 62.5t-12 68t-2.5 68.5q0 39 2.5 70t12 69t26 63t47 42.5t71.5 17.5t71.5 -17.5t47 -42.5t26 -63t12 -69t2.5 -70q0 -38 -2.5 -68.5t-12 -68t-26 -62.5t-47 -42.5t-71.5 -17.5zM188 78q12 0 21.5 4.5t15.5 13.5t11 18.5t8 24
t4.5 25.5t2 26.5t0.5 24v21.5v15v16.5v22t-0.5 24.5t-2 27t-4.5 25.5t-8 24t-11 18.5t-15.5 13.5t-21.5 4.5t-21.5 -4.5t-15.5 -13.5t-11 -18.5t-8 -24t-4.5 -25.5t-2 -27t-0.5 -24.5v-22v-16.5v-15v-21.5t0.5 -24t2 -26.5t4.5 -25.5t8 -24t11 -18.5t15.5 -13.5t21.5 -4.5z
M99 703l67 43l82 -149l-50 -29z" />
    <glyph glyph-name="oacute" unicode="&#xf3;" horiz-adv-x="375" 
d="M188 -8q-41 0 -71.5 17.5t-47 42.5t-26 62.5t-12 68t-2.5 68.5q0 39 2.5 70t12 69t26 63t47 42.5t71.5 17.5t71.5 -17.5t47 -42.5t26 -63t12 -69t2.5 -70q0 -38 -2.5 -68.5t-12 -68t-26 -62.5t-47 -42.5t-71.5 -17.5zM188 78q12 0 21.5 4.5t15.5 13.5t11 18.5t8 24
t4.5 25.5t2 26.5t0.5 24v21.5v15v16.5v22t-0.5 24.5t-2 27t-4.5 25.5t-8 24t-11 18.5t-15.5 13.5t-21.5 4.5t-21.5 -4.5t-15.5 -13.5t-11 -18.5t-8 -24t-4.5 -25.5t-2 -27t-0.5 -24.5v-22v-16.5v-15v-21.5t0.5 -24t2 -26.5t4.5 -25.5t8 -24t11 -18.5t15.5 -13.5t21.5 -4.5z
M278 703l-99 -135l-50 29l82 149z" />
    <glyph glyph-name="ocircumflex" unicode="&#xf4;" horiz-adv-x="375" 
d="M188 -8q-41 0 -71.5 17.5t-47 42.5t-26 62.5t-12 68t-2.5 68.5q0 39 2.5 70t12 69t26 63t47 42.5t71.5 17.5t71.5 -17.5t47 -42.5t26 -63t12 -69t2.5 -70q0 -38 -2.5 -68.5t-12 -68t-26 -62.5t-47 -42.5t-71.5 -17.5zM188 78q12 0 21.5 4.5t15.5 13.5t11 18.5t8 24
t4.5 25.5t2 26.5t0.5 24v21.5v15v16.5v22t-0.5 24.5t-2 27t-4.5 25.5t-8 24t-11 18.5t-15.5 13.5t-21.5 4.5t-21.5 -4.5t-15.5 -13.5t-11 -18.5t-8 -24t-4.5 -25.5t-2 -27t-0.5 -24.5v-22v-16.5v-15v-21.5t0.5 -24t2 -26.5t4.5 -25.5t8 -24t11 -18.5t15.5 -13.5t21.5 -4.5z
M190 750l123 -140l-47 -38l-78 83l-72 -83l-52 38z" />
    <glyph glyph-name="otilde" unicode="&#xf5;" horiz-adv-x="375" 
d="M188 -8q-41 0 -71.5 17.5t-47 42.5t-26 62.5t-12 68t-2.5 68.5q0 39 2.5 70t12 69t26 63t47 42.5t71.5 17.5t71.5 -17.5t47 -42.5t26 -63t12 -69t2.5 -70q0 -38 -2.5 -68.5t-12 -68t-26 -62.5t-47 -42.5t-71.5 -17.5zM188 78q12 0 21.5 4.5t15.5 13.5t11 18.5t8 24
t4.5 25.5t2 26.5t0.5 24v21.5v15v16.5v22t-0.5 24.5t-2 27t-4.5 25.5t-8 24t-11 18.5t-15.5 13.5t-21.5 4.5t-21.5 -4.5t-15.5 -13.5t-11 -18.5t-8 -24t-4.5 -25.5t-2 -27t-0.5 -24.5v-22v-16.5v-15v-21.5t0.5 -24t2 -26.5t4.5 -25.5t8 -24t11 -18.5t15.5 -13.5t21.5 -4.5z
M258 717h56q1 -42 -16.5 -70.5t-57.5 -28.5q-20 0 -51 16t-43 16q-24 0 -22 -28h-61q1 41 19 70t56 29q25 0 56 -16.5t45 -16.5q17 0 19 29z" />
    <glyph glyph-name="odieresis" unicode="&#xf6;" horiz-adv-x="375" 
d="M188 -8q-41 0 -71.5 17.5t-47 42.5t-26 62.5t-12 68t-2.5 68.5q0 39 2.5 70t12 69t26 63t47 42.5t71.5 17.5t71.5 -17.5t47 -42.5t26 -63t12 -69t2.5 -70q0 -38 -2.5 -68.5t-12 -68t-26 -62.5t-47 -42.5t-71.5 -17.5zM188 78q12 0 21.5 4.5t15.5 13.5t11 18.5t8 24
t4.5 25.5t2 26.5t0.5 24v21.5v15v16.5v22t-0.5 24.5t-2 27t-4.5 25.5t-8 24t-11 18.5t-15.5 13.5t-21.5 4.5t-21.5 -4.5t-15.5 -13.5t-11 -18.5t-8 -24t-4.5 -25.5t-2 -27t-0.5 -24.5v-22v-16.5v-15v-21.5t0.5 -24t2 -26.5t4.5 -25.5t8 -24t11 -18.5t15.5 -13.5t21.5 -4.5z
M109 604q-24 0 -41 15.5t-17 39.5t16.5 41t41.5 17q22 0 38.5 -16.5t16.5 -38.5q0 -23 -16 -40.5t-39 -17.5zM270 604q-24 0 -41 15.5t-17 39.5t16.5 41t41.5 17q22 0 38.5 -16.5t16.5 -38.5q0 -23 -16 -40.5t-39 -17.5z" />
    <glyph glyph-name="divide" unicode="&#xf7;" horiz-adv-x="500" 
d="M44 221v70h413v-70h-413zM289 407h-79v100h79v-100zM289 5h-79v100h79v-100z" />
    <glyph glyph-name="oslash" unicode="&#xf8;" horiz-adv-x="375" 
d="M140 119q14 -45 51 -45q11 0 20 4t15 12t10.5 16.5t7.5 22t4.5 23.5t2 25t0.5 22.5v21v16.5l-1 72h-2zM83 33l-25 -42l-39 25l39 62q-29 64 -29 184q0 48 5.5 86t20 78.5t48 63.5t82.5 23q67 0 107 -41l32 51l40 -24l-44 -72q27 -65 27 -186q0 -249 -159 -249
q-64 0 -105 41zM237 386q-7 23 -18 34t-32 11q-15 0 -27 -8t-18 -25t-10 -29.5t-5.5 -37.5t-1.5 -31v-26l3 -77h2z" />
    <glyph glyph-name="ugrave" unicode="&#xf9;" horiz-adv-x="389" 
d="M44 505h94v-316v-15v-17.5t0.5 -16t2.5 -16.5t4.5 -14t7 -13.5t10.5 -9t14.5 -7.5t18.5 -2t18.5 2t14 6.5t10 8.5t7 12.5t4 13.5t2 15.5t0.5 15.5v17v15v321h94v-341q0 -84 -32.5 -128t-113.5 -44q-95 0 -125.5 47t-30.5 145v321zM91 703l67 43l82 -149l-50 -29z" />
    <glyph glyph-name="uacute" unicode="&#xfa;" horiz-adv-x="389" 
d="M44 505h94v-316v-15v-17.5t0.5 -16t2.5 -16.5t4.5 -14t7 -13.5t10.5 -9t14.5 -7.5t18.5 -2t18.5 2t14 6.5t10 8.5t7 12.5t4 13.5t2 15.5t0.5 15.5v17v15v321h94v-341q0 -84 -32.5 -128t-113.5 -44q-95 0 -125.5 47t-30.5 145v321zM300 703l-99 -135l-50 29l82 149z" />
    <glyph glyph-name="ucircumflex" unicode="&#xfb;" horiz-adv-x="389" 
d="M44 505h94v-316v-15v-17.5t0.5 -16t2.5 -16.5t4.5 -14t7 -13.5t10.5 -9t14.5 -7.5t18.5 -2t18.5 2t14 6.5t10 8.5t7 12.5t4 13.5t2 15.5t0.5 15.5v17v15v321h94v-341q0 -84 -32.5 -128t-113.5 -44q-95 0 -125.5 47t-30.5 145v321zM197 750l123 -140l-47 -38l-78 83
l-72 -83l-52 38z" />
    <glyph glyph-name="udieresis" unicode="&#xfc;" horiz-adv-x="389" 
d="M44 505h94v-316v-15v-17.5t0.5 -16t2.5 -16.5t4.5 -14t7 -13.5t10.5 -9t14.5 -7.5t18.5 -2t18.5 2t14 6.5t10 8.5t7 12.5t4 13.5t2 15.5t0.5 15.5v17v15v321h94v-341q0 -84 -32.5 -128t-113.5 -44q-95 0 -125.5 47t-30.5 145v321zM116 604q-24 0 -41 15.5t-17 39.5
t16.5 41t41.5 17q22 0 38.5 -16.5t16.5 -38.5q0 -23 -16 -40.5t-39 -17.5zM277 604q-24 0 -41 15.5t-17 39.5t16.5 41t41.5 17q22 0 38.5 -16.5t16.5 -38.5q0 -23 -16 -40.5t-39 -17.5z" />
    <glyph glyph-name="yacute" unicode="&#xfd;" horiz-adv-x="373" 
d="M4 505h105l74 -352h2l85 352h95l-206 -712h-99l78 248zM302 703l-99 -135l-50 29l82 149z" />
    <glyph glyph-name="thorn" unicode="&#xfe;" horiz-adv-x="380" 
d="M193 76q39 0 50.5 46.5t11.5 129.5v16.5v22.5t-0.5 24.5t-2.5 27.5t-4.5 25.5t-7.5 24t-11 18.5t-15.5 13.5t-20.5 4.5q-60 0 -59 -170v-7q0 -125 27 -159q13 -17 32 -17zM137 695v-255h2q15 36 36 54.5t57 18.5q24 0 43.5 -11t31.5 -27t21 -41.5t13 -47t6.5 -51.5t3 -47
t0.5 -41q0 -35 -1 -60t-7.5 -65t-18.5 -65.5t-36.5 -45t-58.5 -19.5q-35 0 -55 16t-35 49h-2v-264h-94v902h94z" />
    <glyph glyph-name="ydieresis" unicode="&#xff;" horiz-adv-x="373" 
d="M4 505h105l74 -352h2l85 352h95l-206 -712h-99l78 248zM108 604q-24 0 -41 15.5t-17 39.5t16.5 41t41.5 17q22 0 38.5 -16.5t16.5 -38.5q0 -23 -16 -40.5t-39 -17.5zM269 604q-24 0 -41 15.5t-17 39.5t16.5 41t41.5 17q22 0 38.5 -16.5t16.5 -38.5q0 -23 -16 -40.5
t-39 -17.5z" />
    <glyph glyph-name="Amacron" unicode="&#x100;" horiz-adv-x="414" 
d="M168 754h79l162 -754h-101l-28 147h-150l-28 -147h-98zM265 225l-20 109l-38 274h-2l-60 -383h120zM336 851h-253v58h253v-58z" />
    <glyph glyph-name="amacron" unicode="&#x101;" horiz-adv-x="380" 
d="M187 76q60 0 59 170v7q0 125 -27 159q-13 17 -32 17q-11 0 -20.5 -4.5t-15.5 -13.5t-11 -18.5t-7.5 -24t-4.5 -25t-2.5 -27t-0.5 -24.5v-22.5v-16.5v-16.5v-23t0.5 -25t2.5 -27t4.5 -25t7.5 -24t11 -18.5t15.5 -13.5t20.5 -4.5zM243 0v65h-2q-16 -37 -36 -55t-57 -18
q-28 0 -49.5 13.5t-33.5 38.5t-20 50t-11 60t-4 55.5t-1 49.5q0 35 1 60t7.5 65t18.5 65t36.5 44.5t58.5 19.5q61 0 90 -64h2v56h94v-505h-94zM350 657h-313v58h313v-58z" />
    <glyph glyph-name="Abreve" unicode="&#x102;" horiz-adv-x="414" 
d="M168 754h79l162 -754h-101l-28 147h-150l-28 -147h-98zM265 225l-20 109l-38 274h-2l-60 -383h120zM56 959h49q17 -77 106 -77q87 0 105 77h49q-3 -69 -45.5 -102.5t-112.5 -33.5q-65 0 -107 34t-44 102z" />
    <glyph glyph-name="abreve" unicode="&#x103;" horiz-adv-x="380" 
d="M187 76q60 0 59 170v7q0 125 -27 159q-13 17 -32 17q-11 0 -20.5 -4.5t-15.5 -13.5t-11 -18.5t-7.5 -24t-4.5 -25t-2.5 -27t-0.5 -24.5v-22.5v-16.5v-16.5v-23t0.5 -25t2.5 -27t4.5 -25t7.5 -24t11 -18.5t15.5 -13.5t20.5 -4.5zM243 0v65h-2q-16 -37 -36 -55t-57 -18
q-28 0 -49.5 13.5t-33.5 38.5t-20 50t-11 60t-4 55.5t-1 49.5q0 35 1 60t7.5 65t18.5 65t36.5 44.5t58.5 19.5q61 0 90 -64h2v56h94v-505h-94zM46 740h49q17 -77 106 -77q87 0 105 77h49q-3 -69 -45.5 -102.5t-112.5 -33.5q-65 0 -107 34t-44 102z" />
    <glyph glyph-name="Aogonek" unicode="&#x104;" horiz-adv-x="414" 
d="M314 0h-6l-28 147h-150l-28 -147h-98l164 754h79l162 -754h-52q-77 -55 -77 -103q0 -47 52 -47q29 0 47 13l-7 -58q-24 -17 -59 -17q-37 0 -66 22t-29 60q0 75 96 130zM265 225l-20 109l-38 274h-2l-60 -383h120z" />
    <glyph glyph-name="aogonek" unicode="&#x105;" horiz-adv-x="380" 
d="M243 0v65h-2q-16 -37 -36 -55t-57 -18q-28 0 -49.5 13.5t-33.5 38.5t-20 50t-11 60t-4 55.5t-1 49.5q0 35 1 60t7.5 65t18.5 65t36.5 44.5t58.5 19.5q61 0 90 -64h2v56h94v-505h-45q-77 -55 -77 -103q0 -47 52 -47q29 0 47 13l-7 -58q-24 -17 -59 -17q-37 0 -66 22
t-29 60q0 75 96 130h-6zM187 76q60 0 59 170v7q0 125 -27 159q-13 17 -32 17q-11 0 -20 -4.5t-15.5 -13.5t-11.5 -18t-7.5 -24.5t-4.5 -25t-2.5 -27t-0.5 -24.5v-22.5v-16.5v-17v-23t0.5 -24.5t2.5 -27.5t4.5 -25t7.5 -24t11.5 -18.5t15.5 -13.5t20 -4z" />
    <glyph glyph-name="Cacute" unicode="&#x106;" horiz-adv-x="369" 
d="M353 742v-91q-38 19 -64 19q-33 0 -58.5 -14.5t-40.5 -43t-24 -55.5t-12.5 -67t-4.5 -62t-1 -56q0 -288 145 -288q31 0 60 15v-88q-33 -21 -80 -21q-231 0 -231 375q0 399 224 399q49 0 87 -22zM366 922l-99 -135l-50 29l82 149z" />
    <glyph glyph-name="cacute" unicode="&#x107;" horiz-adv-x="278" 
d="M254 496v-95h-2q-15 23 -44 24q-83 -1 -83 -168q0 -177 81 -177q22 0 48 19v-87q-34 -20 -76 -20q-149 0 -149 256q0 31 1.5 56.5t6.5 58t15.5 57.5t26 47t41.5 34t59 12q40 0 75 -17zM280 703l-99 -135l-50 29l82 149z" />
    <glyph glyph-name="Ccircumflex" unicode="&#x108;" horiz-adv-x="369" 
d="M353 742v-91q-38 19 -64 19q-33 0 -58.5 -14.5t-40.5 -43t-24 -55.5t-12.5 -67t-4.5 -62t-1 -56q0 -288 145 -288q31 0 60 15v-88q-33 -21 -80 -21q-231 0 -231 375q0 399 224 399q49 0 87 -22zM256 969l123 -140l-47 -38l-78 83l-72 -83l-52 38z" />
    <glyph glyph-name="ccircumflex" unicode="&#x109;" horiz-adv-x="278" 
d="M254 496v-95h-2q-15 23 -44 24q-83 -1 -83 -168q0 -177 81 -177q22 0 48 19v-87q-34 -20 -76 -20q-149 0 -149 256q0 31 1.5 56.5t6.5 58t15.5 57.5t26 47t41.5 34t59 12q40 0 75 -17zM167 750l123 -140l-47 -38l-78 83l-72 -83l-52 38z" />
    <glyph glyph-name="Cdotaccent" unicode="&#x10a;" horiz-adv-x="369" 
d="M353 742v-91q-38 19 -64 19q-33 0 -58.5 -14.5t-40.5 -43t-24 -55.5t-12.5 -67t-4.5 -62t-1 -56q0 -288 145 -288q31 0 60 15v-88q-33 -21 -80 -21q-231 0 -231 375q0 399 224 399q49 0 87 -22zM272 823q-24 0 -41.5 15.5t-17.5 39.5q0 25 16.5 41.5t41.5 16.5
q23 0 39 -16.5t16 -38.5q0 -24 -15.5 -41t-38.5 -17z" />
    <glyph glyph-name="cdotaccent" unicode="&#x10b;" horiz-adv-x="278" 
d="M254 496v-95h-2q-15 23 -44 24q-83 -1 -83 -168q0 -177 81 -177q22 0 48 19v-87q-34 -20 -76 -20q-149 0 -149 256q0 31 1.5 56.5t6.5 58t15.5 57.5t26 47t41.5 34t59 12q40 0 75 -17zM176 604q-24 0 -41.5 15.5t-17.5 39.5q0 25 16.5 41.5t41.5 16.5q23 0 39 -16.5
t16 -38.5q0 -24 -15.5 -41t-38.5 -17z" />
    <glyph glyph-name="Ccaron" unicode="&#x10c;" horiz-adv-x="369" 
d="M353 742v-91q-38 19 -64 19q-33 0 -58.5 -14.5t-40.5 -43t-24 -55.5t-12.5 -67t-4.5 -62t-1 -56q0 -288 145 -288q31 0 60 15v-88q-33 -21 -80 -21q-231 0 -231 375q0 399 224 399q49 0 87 -22zM255 791l-126 139l52 39l72 -83l78 83l47 -39z" />
    <glyph glyph-name="ccaron" unicode="&#x10d;" horiz-adv-x="278" 
d="M254 496v-95h-2q-15 23 -44 24q-83 -1 -83 -168q0 -177 81 -177q22 0 48 19v-87q-34 -20 -76 -20q-149 0 -149 256q0 31 1.5 56.5t6.5 58t15.5 57.5t26 47t41.5 34t59 12q40 0 75 -17zM175 572l-126 139l52 39l72 -83l78 83l47 -39z" />
    <glyph glyph-name="Dcaron" unicode="&#x10e;" horiz-adv-x="466" 
d="M61 754h112q32 0 51.5 -1.5t49.5 -9t48.5 -22.5t40 -43.5t33.5 -69t20.5 -102.5t8.5 -142q0 -73 -7.5 -129.5t-19 -95t-33.5 -65t-43 -41t-56 -22t-63 -9.5t-73 -2h-69v754zM319 364v20v54t-3 54.5t-8.5 56.5t-17 48t-28 41t-42.5 23.5t-59 7.5v-584q33 -1 58.5 7.5
t42 20t28 35.5t17.5 42t8.5 52t3 52t0.5 55v15zM207 791l-126 139l52 39l72 -83l78 83l47 -39z" />
    <glyph glyph-name="dcaron" unicode="&#x10f;" horiz-adv-x="380" 
d="M243 0v65h-2q-16 -37 -36 -55t-57 -18q-28 0 -49.5 13.5t-33.5 38.5t-20 50t-11 60t-4 55.5t-1 49.5q0 35 1 60t7.5 65t18.5 65t36.5 44.5t58.5 19.5t54 -16t36 -48h2v381h94v-830h-94zM187 76q60 0 59 170v7q0 125 -27 159q-13 17 -32 17q-11 0 -20.5 -4.5t-15.5 -13.5
t-11 -18.5t-7.5 -24t-4.5 -25t-2.5 -27t-0.5 -24.5v-22.5v-16.5v-16.5v-23t0.5 -25t2.5 -27t4.5 -25t7.5 -24t11 -18.5t15.5 -13.5t20.5 -4.5zM493 738l-65 -158l-52 11l47 164z" />
    <glyph glyph-name="Dcroat" unicode="&#x110;" horiz-adv-x="466" 
d="M61 430v324h112q33 0 56 -2t51.5 -10.5t47.5 -24t39 -44.5t31.5 -69.5t19 -101.5t7.5 -138q0 -74 -8 -131t-20.5 -95.5t-35.5 -65t-44 -40.5t-56 -21.5t-61.5 -9t-69.5 -1.5h-69v343h-70v87h70zM161 669v-239h70v-87h-70v-258q33 -1 58 7t42 20t28 35.5t17 43t9 54.5
t3.5 56.5t0.5 62.5q0 37 -0.5 57t-2 54.5t-6 54t-11.5 46t-19 41.5t-28 29.5t-39 19.5t-52 3z" />
    <glyph glyph-name="dcroat" unicode="&#x111;" horiz-adv-x="380" 
d="M243 0v65h-2q-16 -37 -36 -55t-57 -18q-28 0 -49.5 13.5t-33.5 38.5t-20 50t-11 60t-4 55.5t-1 49.5q0 35 1 60t7.5 65t18.5 65t36.5 44.5t58.5 19.5t54 -16t36 -48h2v207h-111v58h111v116h94v-116h38v-58h-38v-656h-94zM187 76q60 0 59 170v7q0 125 -27 159
q-13 17 -32 17q-11 0 -20 -4.5t-15.5 -13.5t-11.5 -18t-7.5 -24.5t-4.5 -25t-2.5 -27t-0.5 -24.5v-22.5v-16.5v-17v-23t0.5 -24.5t2.5 -27.5t4.5 -25t7.5 -24t11.5 -18.5t15.5 -13.5t20 -4z" />
    <glyph glyph-name="Emacron" unicode="&#x112;" horiz-adv-x="347" 
d="M61 754h269v-87h-169v-237h151v-87h-151v-256h169v-87h-269v754zM320 851h-253v58h253v-58z" />
    <glyph glyph-name="emacron" unicode="&#x113;" horiz-adv-x="361" 
d="M125 301h112q0 128 -57 128q-20 0 -32 -11.5t-16.5 -34.5t-5.5 -37t-1 -38v-7zM333 234h-208q0 -158 59 -158t59 94h87q0 -77 -36 -127.5t-111 -50.5q-40 0 -70 17t-45.5 42t-24.5 62t-11.5 67.5t-2.5 68.5q0 31 1.5 56t6.5 57.5t15.5 57.5t26.5 47t42 34t59 12
q153 0 153 -264v-15zM341 657h-313v58h313v-58z" />
    <glyph glyph-name="Ebreve" unicode="&#x114;" horiz-adv-x="347" 
d="M61 754h269v-87h-169v-237h151v-87h-151v-256h169v-87h-269v754zM41 959h49q16 -77 106 -77q87 0 105 77h49q-3 -69 -45.5 -102.5t-112.5 -33.5q-65 0 -107 34t-44 102z" />
    <glyph glyph-name="ebreve" unicode="&#x115;" horiz-adv-x="361" 
d="M125 301h112q0 128 -57 128q-20 0 -32 -11.5t-16.5 -34.5t-5.5 -37t-1 -38v-7zM333 234h-208q0 -158 59 -158t59 94h87q0 -77 -36 -127.5t-111 -50.5q-40 0 -70 17t-45.5 42t-24.5 62t-11.5 67.5t-2.5 68.5q0 31 1.5 56t6.5 57.5t15.5 57.5t26.5 47t42 34t59 12
q153 0 153 -264v-15zM27 740h49q16 -77 106 -77q87 0 105 77h49q-3 -69 -45.5 -102.5t-112.5 -33.5q-65 0 -107 34t-44 102z" />
    <glyph glyph-name="Edotaccent" unicode="&#x116;" horiz-adv-x="347" 
d="M61 754h269v-87h-169v-237h151v-87h-151v-256h169v-87h-269v754zM207 823q-24 0 -41.5 15.5t-17.5 39.5q0 25 16.5 41.5t41.5 16.5q23 0 39 -16.5t16 -38.5q0 -24 -15.5 -41t-38.5 -17z" />
    <glyph glyph-name="edotaccent" unicode="&#x117;" horiz-adv-x="361" 
d="M125 301h112q0 128 -57 128q-20 0 -32 -11.5t-16.5 -34.5t-5.5 -37t-1 -38v-7zM333 234h-208q0 -158 59 -158t59 94h87q0 -77 -36 -127.5t-111 -50.5q-40 0 -70 17t-45.5 42t-24.5 62t-11.5 67.5t-2.5 68.5q0 31 1.5 56t6.5 57.5t15.5 57.5t26.5 47t42 34t59 12
q153 0 153 -264v-15zM186 604q-24 0 -41.5 15.5t-17.5 39.5q0 25 16.5 41.5t41.5 16.5q23 0 39 -16.5t16 -38.5q0 -24 -15.5 -41t-38.5 -17z" />
    <glyph glyph-name="Eogonek" unicode="&#x118;" horiz-adv-x="347" 
d="M244 0h-183v754h269v-87h-169v-237h151v-87h-151v-256h169v-87h-43q-77 -55 -77 -103q0 -47 52 -47q29 0 47 13l-7 -58q-24 -17 -59 -17q-37 0 -66 22t-29 60q0 75 96 130z" />
    <glyph glyph-name="eogonek" unicode="&#x119;" horiz-adv-x="361" 
d="M333 234h-208q0 -158 59 -158t59 94h87q0 -63 -24.5 -109.5t-74.5 -61.5q-75 -53 -75 -102q0 -47 52 -47q29 0 47 13l-7 -58q-24 -17 -59 -17q-37 0 -66 22t-29 60q0 71 83 123q-48 1 -80 25t-45.5 66t-18 79t-4.5 86t4.5 87t18.5 82.5t46.5 69.5t81.5 25q153 0 153 -264
v-15zM125 301h112q0 128 -57 128q-20 0 -32 -11.5t-16.5 -34.5t-5.5 -37t-1 -38v-7z" />
    <glyph glyph-name="Ecaron" unicode="&#x11a;" horiz-adv-x="347" 
d="M61 754h269v-87h-169v-237h151v-87h-151v-256h169v-87h-269v754zM198 791l-126 139l52 39l72 -83l78 83l47 -39z" />
    <glyph glyph-name="ecaron" unicode="&#x11b;" horiz-adv-x="361" 
d="M125 301h112q0 128 -57 128q-20 0 -32 -11.5t-16.5 -34.5t-5.5 -37t-1 -38v-7zM333 234h-208q0 -158 59 -158t59 94h87q0 -77 -36 -127.5t-111 -50.5q-40 0 -70 17t-45.5 42t-24.5 62t-11.5 67.5t-2.5 68.5q0 31 1.5 56t6.5 57.5t15.5 57.5t26.5 47t42 34t59 12
q153 0 153 -264v-15zM180 572l-126 139l52 39l72 -83l78 83l47 -39z" />
    <glyph glyph-name="Gcircumflex" unicode="&#x11c;" horiz-adv-x="460" 
d="M238 398h184v-12q0 -11 0.5 -45.5t0.5 -51.5t-1.5 -51.5t-4.5 -53.5t-9.5 -49t-15.5 -47.5t-22.5 -38.5t-31.5 -32t-42.5 -19t-53.5 -8q-44 0 -77 13t-54.5 40t-35.5 59t-21 79t-9.5 91t-2.5 103q0 60 2 103t8.5 91t20 80.5t34 60t52.5 41t74 13.5q78 0 121 -38t63 -116
l-95 -39q-5 23 -9.5 37.5t-13.5 30t-25 23.5t-38 8q-20 0 -35 -8.5t-24.5 -28t-15.5 -41.5t-8.5 -59.5t-3.5 -71t-1 -85.5q0 -94 7 -155.5t21 -89.5t27.5 -37.5t32.5 -9.5q15 0 25 2t23 12t20 28.5t12.5 55t5.5 88.5v41h-84v87zM240 969l123 -140l-47 -38l-78 83l-72 -83
l-52 38z" />
    <glyph glyph-name="gcircumflex" unicode="&#x11d;" horiz-adv-x="382" 
d="M245 250q0 179 -61 179t-59 -165v-9q0 -106 17 -144q16 -35 45 -35q14 0 24.5 7t16.5 21t10 27t5.5 34t2 32t0 31t-0.5 22zM339 505v-509q0 -66 -9.5 -108.5t-30.5 -64.5t-47 -30t-67 -8q-69 0 -109 38t-40 108v14h91q-2 -31 12.5 -53.5t47.5 -22.5q10 0 18.5 2t14 7
t10 8.5t7 12.5t4.5 13t2.5 16t0.5 15.5v17v15.5v84h-2q-10 -32 -33.5 -50.5t-56.5 -17.5q-29 0 -51 12.5t-34.5 36t-21 47t-11.5 57.5t-4 54.5t-1 49.5v41t2.5 46t6.5 51.5t13 46.5t21.5 42t32.5 26t45 11q35 0 55 -17t37 -51l2 2v58h95zM198 750l123 -140l-47 -38l-78 83
l-72 -83l-52 38z" />
    <glyph glyph-name="Gbreve" unicode="&#x11e;" horiz-adv-x="460" 
d="M238 398h184v-12q0 -11 0.5 -45.5t0.5 -51.5t-1.5 -51.5t-4.5 -53.5t-9.5 -49t-15.5 -47.5t-22.5 -38.5t-31.5 -32t-42.5 -19t-53.5 -8q-44 0 -77 13t-54.5 40t-35.5 59t-21 79t-9.5 91t-2.5 103q0 60 2 103t8.5 91t20 80.5t34 60t52.5 41t74 13.5q78 0 121 -38t63 -116
l-95 -39q-5 23 -9.5 37.5t-13.5 30t-25 23.5t-38 8q-20 0 -35 -8.5t-24.5 -28t-15.5 -41.5t-8.5 -59.5t-3.5 -71t-1 -85.5q0 -94 7 -155.5t21 -89.5t27.5 -37.5t32.5 -9.5q15 0 25 2t23 12t20 28.5t12.5 55t5.5 88.5v41h-84v87zM85 959h49q16 -77 106 -77q87 0 105 77h49
q-3 -69 -45.5 -102.5t-112.5 -33.5q-65 0 -107 34t-44 102z" />
    <glyph glyph-name="gbreve" unicode="&#x11f;" horiz-adv-x="382" 
d="M245 250q0 179 -61 179t-59 -165v-9q0 -106 17 -144q16 -35 45 -35q14 0 24.5 7t16.5 21t10 27t5.5 34t2 32t0 31t-0.5 22zM339 505v-509q0 -66 -9.5 -108.5t-30.5 -64.5t-47 -30t-67 -8q-69 0 -109 38t-40 108v14h91q-2 -31 12.5 -53.5t47.5 -22.5q10 0 18.5 2t14 7
t10 8.5t7 12.5t4.5 13t2.5 16t0.5 15.5v17v15.5v84h-2q-10 -32 -33.5 -50.5t-56.5 -17.5q-29 0 -51 12.5t-34.5 36t-21 47t-11.5 57.5t-4 54.5t-1 49.5v41t2.5 46t6.5 51.5t13 46.5t21.5 42t32.5 26t45 11q35 0 55 -17t37 -51l2 2v58h95zM48 740h49q17 -77 106 -77
q87 0 105 77h49q-3 -69 -45.5 -102.5t-112.5 -33.5q-65 0 -107 34t-44 102z" />
    <glyph glyph-name="Gdotaccent" unicode="&#x120;" horiz-adv-x="460" 
d="M238 398h184v-12q0 -11 0.5 -45.5t0.5 -51.5t-1.5 -51.5t-4.5 -53.5t-9.5 -49t-15.5 -47.5t-22.5 -38.5t-31.5 -32t-42.5 -19t-53.5 -8q-44 0 -77 13t-54.5 40t-35.5 59t-21 79t-9.5 91t-2.5 103q0 60 2 103t8.5 91t20 80.5t34 60t52.5 41t74 13.5q78 0 121 -38t63 -116
l-95 -39q-5 23 -9.5 37.5t-13.5 30t-25 23.5t-38 8q-20 0 -35 -8.5t-24.5 -28t-15.5 -41.5t-8.5 -59.5t-3.5 -71t-1 -85.5q0 -94 7 -155.5t21 -89.5t27.5 -37.5t32.5 -9.5q15 0 25 2t23 12t20 28.5t12.5 55t5.5 88.5v41h-84v87zM240 823q-24 0 -41.5 15.5t-17.5 39.5
q0 25 16.5 41.5t41.5 16.5q23 0 39 -16.5t16 -38.5q0 -24 -15.5 -41t-38.5 -17z" />
    <glyph glyph-name="gdotaccent" unicode="&#x121;" horiz-adv-x="382" 
d="M245 250q0 179 -61 179t-59 -165v-9q0 -106 17 -144q16 -35 45 -35q14 0 24.5 7t16.5 21t10 27t5.5 34t2 32t0 31t-0.5 22zM339 505v-509q0 -66 -9.5 -108.5t-30.5 -64.5t-47 -30t-67 -8q-69 0 -109 38t-40 108v14h91q-2 -31 12.5 -53.5t47.5 -22.5q10 0 18.5 2t14 7
t10 8.5t7 12.5t4.5 13t2.5 16t0.5 15.5v17v15.5v84h-2q-10 -32 -33.5 -50.5t-56.5 -17.5q-29 0 -51 12.5t-34.5 36t-21 47t-11.5 57.5t-4 54.5t-1 49.5v41t2.5 46t6.5 51.5t13 46.5t21.5 42t32.5 26t45 11q35 0 55 -17t37 -51l2 2v58h95zM206 604q-24 0 -41.5 15.5
t-17.5 39.5q0 25 16.5 41.5t41.5 16.5q23 0 39 -16.5t16 -38.5q0 -24 -15.5 -41t-38.5 -17z" />
    <glyph glyph-name="Gcommaaccent" unicode="&#x122;" horiz-adv-x="460" 
d="M238 398h184v-12q0 -11 0.5 -45.5t0.5 -51.5t-1.5 -51.5t-4.5 -53.5t-9.5 -49t-15.5 -47.5t-22.5 -38.5t-31.5 -32t-42.5 -19t-53.5 -8q-44 0 -77 13t-54.5 40t-35.5 59t-21 79t-9.5 91t-2.5 103q0 60 2 103t8.5 91t20 80.5t34 60t52.5 41t74 13.5q78 0 121 -38t63 -116
l-95 -39q-5 23 -9.5 37.5t-13.5 30t-25 23.5t-38 8q-20 0 -35 -8.5t-24.5 -28t-15.5 -41.5t-8.5 -59.5t-3.5 -71t-1 -85.5q0 -94 7 -155.5t21 -89.5t27.5 -37.5t32.5 -9.5q15 0 25 2t23 12t20 28.5t12.5 55t5.5 88.5v41h-84v87zM174 -278v52q60 10 60 79h-42v90h97v-81
q0 -61 -33 -97.5t-82 -42.5z" />
    <glyph glyph-name="gcommaaccent" unicode="&#x123;" horiz-adv-x="382" 
d="M245 250q0 179 -61 179t-59 -165v-9q0 -106 17 -144q16 -35 45 -35q14 0 24.5 7t16.5 21t10 27t5.5 34t2 32t0 31t-0.5 22zM339 505v-509q0 -66 -9.5 -108.5t-30.5 -64.5t-47 -30t-67 -8q-69 0 -109 38t-40 108v14h91q-2 -31 12.5 -53.5t47.5 -22.5q10 0 18.5 2t14 7
t10 8.5t7 12.5t4.5 13t2.5 16t0.5 15.5v17v15.5v84h-2q-10 -32 -33.5 -50.5t-56.5 -17.5q-29 0 -51 12.5t-34.5 36t-21 47t-11.5 57.5t-4 54.5t-1 49.5v41t2.5 46t6.5 51.5t13 46.5t21.5 42t32.5 26t45 11q35 0 55 -17t37 -51l2 2v58h95zM259 849v-52q-60 -10 -60 -79h42
v-90h-97v81q0 61 33 97.5t82 42.5z" />
    <glyph glyph-name="Hcircumflex" unicode="&#x124;" horiz-adv-x="473" 
d="M61 754h100v-294h151v294h100v-754h-100v373h-151v-373h-100v754zM240 969l123 -140l-47 -38l-78 83l-72 -83l-52 38z" />
    <glyph glyph-name="hcircumflex" unicode="&#x125;" horiz-adv-x="388" 
d="M44 830h94v-383h2q17 32 40 48q26 18 62 18q29 0 49.5 -10.5t30.5 -25t15.5 -40t6.5 -43t1 -47.5v-347h-94v349q0 80 -56 80q-20 0 -33 -9t-17.5 -28.5t-5.5 -32t-1 -35.5v-9v-315h-94v830zM121 1057l123 -140l-47 -38l-78 83l-72 -83l-52 38z" />
    <glyph glyph-name="Hbar" unicode="&#x126;" horiz-adv-x="473" 
d="M61 754h100v-144h151v144h100v-754h-100v373h-151v-373h-100v754zM161 460h151v92h-151v-92z" />
    <glyph glyph-name="hbar" unicode="&#x127;" horiz-adv-x="388" 
d="M44 830h94v-116h113v-58h-113v-209h2q34 66 102 66q29 0 49.5 -10.5t30.5 -25t15.5 -40t6.5 -43t1 -47.5v-347h-94v349q0 80 -56 80q-20 0 -33 -9t-17.5 -28.5t-5.5 -32t-1 -35.5v-9v-315h-94v656h-36v58h36v116z" />
    <glyph glyph-name="Itilde" unicode="&#x128;" horiz-adv-x="222" 
d="M161 754v-754h-100v754h100zM182 936h56q0 -42 -17.5 -70.5t-56.5 -28.5q-20 0 -51 16t-43 16q-24 0 -22 -28h-61q0 41 18.5 70t56.5 29q24 0 55.5 -16.5t45.5 -16.5q17 0 19 29z" />
    <glyph glyph-name="itilde" unicode="&#x129;" horiz-adv-x="180" 
d="M43 505h94v-505h-94v505zM161 717h56q1 -42 -16.5 -70.5t-57.5 -28.5q-20 0 -51 16t-43 16q-24 0 -22 -28h-61q1 41 19 70t56 29q25 0 56 -16.5t45 -16.5q17 0 19 29z" />
    <glyph glyph-name="Imacron" unicode="&#x12a;" horiz-adv-x="222" 
d="M161 754v-754h-100v754h100zM238 851h-253v58h253v-58z" />
    <glyph glyph-name="imacron" unicode="&#x12b;" horiz-adv-x="180" 
d="M43 505h94v-505h-94v505zM198 632h-213v58h213v-58z" />
    <glyph glyph-name="Iogonek" unicode="&#x12e;" horiz-adv-x="222" 
d="M87 0h-26v754h100v-754h-31q-77 -55 -77 -103q0 -47 52 -47q29 0 47 13l-7 -58q-24 -17 -59 -17q-37 0 -66 22t-29 60q0 75 96 130z" />
    <glyph glyph-name="iogonek" unicode="&#x12f;" horiz-adv-x="180" 
d="M69 0h-26v505h94v-505h-25q-77 -55 -77 -103q0 -47 52 -47q29 0 47 13l-7 -58q-24 -17 -59 -17q-37 0 -66 22t-29 60q0 75 96 130zM91 595q-26 0 -44.5 18.5t-18.5 44.5t18.5 44t44.5 18q25 0 43.5 -18t18.5 -44t-18.5 -44.5t-43.5 -18.5z" />
    <glyph glyph-name="Idotaccent" unicode="&#x130;" horiz-adv-x="222" 
d="M161 754v-754h-100v754h100zM116 823q-24 0 -41.5 15.5t-17.5 39.5q0 25 16.5 41.5t41.5 16.5q23 0 39 -16.5t16 -38.5q0 -24 -15.5 -41t-38.5 -17z" />
    <glyph glyph-name="dotlessi" unicode="&#x131;" horiz-adv-x="180" 
d="M43 505h94v-505h-94v505z" />
    <glyph glyph-name="Jcircumflex" unicode="&#x134;" horiz-adv-x="303" 
d="M242 754v-567q0 -46 -5 -77t-19.5 -60.5t-45.5 -44.5t-78 -15q-50 0 -86 20v102q43 -26 66 -26q24 0 38.5 8.5t20.5 26.5t7.5 32t1.5 39v562h100zM189 969l123 -140l-47 -38l-78 83l-72 -83l-52 38z" />
    <glyph glyph-name="jcircumflex" unicode="&#x135;" horiz-adv-x="180" 
d="M137 505v-712h-94v712h94zM94 755l123 -140l-47 -38l-78 83l-72 -83l-52 38z" />
    <glyph glyph-name="Kcommaaccent" unicode="&#x136;" horiz-adv-x="424" 
d="M61 754h102v-362l141 362h103l-148 -365l160 -389h-115l-141 382v-382h-102v754zM156 -278v52q60 10 60 79h-42v90h97v-81q0 -61 -33 -97.5t-82 -42.5z" />
    <glyph glyph-name="kcommaaccent" unicode="&#x137;" horiz-adv-x="395" 
d="M44 830h94v-549h2l117 224h105l-129 -224l146 -281h-109l-130 268h-2v-268h-94v830zM126 -278v52q60 10 60 79h-42v90h97v-81q0 -61 -33 -97.5t-82 -42.5z" />
    <glyph glyph-name="Lacute" unicode="&#x139;" horiz-adv-x="331" 
d="M61 754h100v-667h168v-87h-268v754zM243 922l-99 -135l-50 29l82 149z" />
    <glyph glyph-name="lacute" unicode="&#x13a;" horiz-adv-x="180" 
d="M137 830v-830h-94v830h94zM189 995l-99 -135l-50 29l82 149z" />
    <glyph glyph-name="Lcommaaccent" unicode="&#x13b;" horiz-adv-x="331" 
d="M61 754h100v-667h168v-87h-268v754zM120 -278v52q60 10 60 79h-42v90h97v-81q0 -61 -33 -97.5t-82 -42.5z" />
    <glyph glyph-name="lcommaaccent" unicode="&#x13c;" horiz-adv-x="180" 
d="M137 830v-830h-94v830h94zM23 -278v52q60 10 60 79h-42v90h97v-81q0 -61 -33 -97.5t-82 -42.5z" />
    <glyph glyph-name="Lcaron" unicode="&#x13d;" horiz-adv-x="331" 
d="M61 754h100v-667h168v-87h-268v754zM337 738l-65 -158l-52 11l47 164z" />
    <glyph glyph-name="lcaron" unicode="&#x13e;" horiz-adv-x="180" 
d="M137 830v-830h-94v830h94zM296 738l-65 -158l-52 11l47 164z" />
    <glyph glyph-name="Ldot" unicode="&#x13f;" horiz-adv-x="331" 
d="M61 754h100v-667h168v-87h-268v754zM275 383q-24 0 -41.5 15.5t-17.5 39.5q0 25 16.5 41.5t41.5 16.5q23 0 39 -16.5t16 -38.5q0 -24 -15.5 -41t-38.5 -17z" />
    <glyph glyph-name="ldot" unicode="&#x140;" horiz-adv-x="271" 
d="M137 830v-830h-94v830h94zM231 421q-24 0 -41.5 15.5t-17.5 39.5q0 25 16.5 41.5t41.5 16.5q23 0 39 -16.5t16 -38.5q0 -24 -15.5 -41t-38.5 -17z" />
    <glyph glyph-name="Lslash" unicode="&#x141;" horiz-adv-x="331" 
d="M61 390v364h100v-296l92 60v-88l-92 -60v-283h168v-87h-268v301l-72 -48v88z" />
    <glyph glyph-name="lslash" unicode="&#x142;" horiz-adv-x="180" 
d="M43 0v390l-68 -58v76l68 54v368h94v-291l68 59v-76l-68 -57v-465h-94z" />
    <glyph glyph-name="Nacute" unicode="&#x143;" horiz-adv-x="472" 
d="M140 579l6 -49l15 -253v-277h-100v754h96l176 -573l2 2l-24 302v269h100v-754h-93l-176 581zM353 922l-99 -135l-50 29l82 149z" />
    <glyph glyph-name="nacute" unicode="&#x144;" horiz-adv-x="388" 
d="M138 505v-58h2q17 32 40 48q26 18 62 18q29 0 49 -10.5t30.5 -25t16 -39.5t6.5 -43.5t1 -47.5v-347h-94v349q0 80 -56 80q-20 0 -33 -9t-17.5 -28.5t-5.5 -32t-1 -35.5v-9v-315h-94v505h94zM303 703l-99 -135l-50 29l82 149z" />
    <glyph glyph-name="Ncommaaccent" unicode="&#x145;" horiz-adv-x="472" 
d="M140 579l6 -49l15 -253v-277h-100v754h96l176 -573l2 2l-24 302v269h100v-754h-93l-176 581zM181 -278v52q60 10 60 79h-42v90h97v-81q0 -61 -33 -97.5t-82 -42.5z" />
    <glyph glyph-name="ncommaaccent" unicode="&#x146;" horiz-adv-x="388" 
d="M138 505v-58h2q17 32 40 48q26 18 62 18q29 0 49 -10.5t30.5 -25t16 -39.5t6.5 -43.5t1 -47.5v-347h-94v349q0 80 -56 80q-20 0 -33 -9t-17.5 -28.5t-5.5 -32t-1 -35.5v-9v-315h-94v505h94zM124 -278v52q60 10 60 79h-42v90h97v-81q0 -61 -33 -97.5t-82 -42.5z" />
    <glyph glyph-name="Ncaron" unicode="&#x147;" horiz-adv-x="472" 
d="M140 579l6 -49l15 -253v-277h-100v754h96l176 -573l2 2l-24 302v269h100v-754h-93l-176 581zM239 791l-126 139l52 39l72 -83l78 83l47 -39z" />
    <glyph glyph-name="ncaron" unicode="&#x148;" horiz-adv-x="388" 
d="M138 505v-58h2q17 32 40 48q26 18 62 18q29 0 49 -10.5t30.5 -25t16 -39.5t6.5 -43.5t1 -47.5v-347h-94v349q0 80 -56 80q-20 0 -33 -9t-17.5 -28.5t-5.5 -32t-1 -35.5v-9v-315h-94v505h94zM199 572l-126 139l52 39l72 -83l78 83l47 -39z" />
    <glyph glyph-name="Omacron" unicode="&#x14c;" horiz-adv-x="476" 
d="M238 764q40 0 72 -15t52 -37t34.5 -58.5t21.5 -66.5t11 -75t4.5 -70t0.5 -65t-0.5 -65t-4.5 -70t-11 -75t-21.5 -66.5t-34.5 -58.5t-52 -37t-72 -15t-72 15t-52 37t-34.5 58.5t-21.5 66.5t-11 75t-4.5 70t-0.5 65t0.5 65t4.5 70t11 75t21.5 66.5t34.5 58.5t52 37t72 15z
M238 670q-54 0 -72 -75.5t-18 -217.5t18 -217.5t72 -75.5t72 75.5t18 217.5t-18 217.5t-72 75.5zM365 851h-253v58h253v-58z" />
    <glyph glyph-name="omacron" unicode="&#x14d;" horiz-adv-x="375" 
d="M188 -8q-41 0 -71.5 17.5t-47 42.5t-26 62.5t-12 68t-2.5 68.5q0 39 2.5 70t12 69t26 63t47 42.5t71.5 17.5t71.5 -17.5t47 -42.5t26 -63t12 -69t2.5 -70q0 -38 -2.5 -68.5t-12 -68t-26 -62.5t-47 -42.5t-71.5 -17.5zM188 78q12 0 21.5 4.5t15.5 13.5t11 18.5t8 24
t4.5 25.5t2 26.5t0.5 24v21.5v15v16.5v22t-0.5 24.5t-2 27t-4.5 25.5t-8 24t-11 18.5t-15.5 13.5t-21.5 4.5t-21.5 -4.5t-15.5 -13.5t-11 -18.5t-8 -24t-4.5 -25.5t-2 -27t-0.5 -24.5v-22v-16.5v-15v-21.5t0.5 -24t2 -26.5t4.5 -25.5t8 -24t11 -18.5t15.5 -13.5t21.5 -4.5z
M346 657h-313v58h313v-58z" />
    <glyph glyph-name="Obreve" unicode="&#x14e;" horiz-adv-x="476" 
d="M238 764q40 0 72 -15t52 -37t34.5 -58.5t21.5 -66.5t11 -75t4.5 -70t0.5 -65t-0.5 -65t-4.5 -70t-11 -75t-21.5 -66.5t-34.5 -58.5t-52 -37t-72 -15t-72 15t-52 37t-34.5 58.5t-21.5 66.5t-11 75t-4.5 70t-0.5 65t0.5 65t4.5 70t11 75t21.5 66.5t34.5 58.5t52 37t72 15z
M238 670q-54 0 -72 -75.5t-18 -217.5t18 -217.5t72 -75.5t72 75.5t18 217.5t-18 217.5t-72 75.5zM83 959h49q16 -77 106 -77q87 0 105 77h49q-3 -69 -45.5 -102.5t-112.5 -33.5q-65 0 -107 34t-44 102z" />
    <glyph glyph-name="obreve" unicode="&#x14f;" horiz-adv-x="375" 
d="M188 -8q-41 0 -71.5 17.5t-47 42.5t-26 62.5t-12 68t-2.5 68.5q0 39 2.5 70t12 69t26 63t47 42.5t71.5 17.5t71.5 -17.5t47 -42.5t26 -63t12 -69t2.5 -70q0 -38 -2.5 -68.5t-12 -68t-26 -62.5t-47 -42.5t-71.5 -17.5zM188 78q12 0 21.5 4.5t15.5 13.5t11 18.5t8 24
t4.5 25.5t2 26.5t0.5 24v21.5v15v16.5v22t-0.5 24.5t-2 27t-4.5 25.5t-8 24t-11 18.5t-15.5 13.5t-21.5 4.5t-21.5 -4.5t-15.5 -13.5t-11 -18.5t-8 -24t-4.5 -25.5t-2 -27t-0.5 -24.5v-22v-16.5v-15v-21.5t0.5 -24t2 -26.5t4.5 -25.5t8 -24t11 -18.5t15.5 -13.5t21.5 -4.5z
M35 740h49q16 -77 106 -77q87 0 105 77h49q-3 -69 -45.5 -102.5t-112.5 -33.5q-65 0 -107 34t-44 102z" />
    <glyph glyph-name="Ohungarumlaut" unicode="&#x150;" horiz-adv-x="476" 
d="M238 764q40 0 72 -15t52 -37t34.5 -58.5t21.5 -66.5t11 -75t4.5 -70t0.5 -65t-0.5 -65t-4.5 -70t-11 -75t-21.5 -66.5t-34.5 -58.5t-52 -37t-72 -15t-72 15t-52 37t-34.5 58.5t-21.5 66.5t-11 75t-4.5 70t-0.5 65t0.5 65t4.5 70t11 75t21.5 66.5t34.5 58.5t52 37t72 15z
M238 670q-54 0 -72 -75.5t-18 -217.5t18 -217.5t72 -75.5t72 75.5t18 217.5t-18 217.5t-72 75.5zM205 965l67 -43l-99 -135l-50 29zM355 965l67 -43l-99 -135l-50 29z" />
    <glyph glyph-name="ohungarumlaut" unicode="&#x151;" horiz-adv-x="375" 
d="M188 -8q-41 0 -71.5 17.5t-47 42.5t-26 62.5t-12 68t-2.5 68.5q0 39 2.5 70t12 69t26 63t47 42.5t71.5 17.5t71.5 -17.5t47 -42.5t26 -63t12 -69t2.5 -70q0 -38 -2.5 -68.5t-12 -68t-26 -62.5t-47 -42.5t-71.5 -17.5zM188 78q12 0 21.5 4.5t15.5 13.5t11 18.5t8 24
t4.5 25.5t2 26.5t0.5 24v21.5v15v16.5v22t-0.5 24.5t-2 27t-4.5 25.5t-8 24t-11 18.5t-15.5 13.5t-21.5 4.5t-21.5 -4.5t-15.5 -13.5t-11 -18.5t-8 -24t-4.5 -25.5t-2 -27t-0.5 -24.5v-22v-16.5v-15v-21.5t0.5 -24t2 -26.5t4.5 -25.5t8 -24t11 -18.5t15.5 -13.5t21.5 -4.5z
M168 746l67 -43l-99 -135l-50 29zM318 746l67 -43l-99 -135l-50 29z" />
    <glyph glyph-name="OE" unicode="&#x152;" horiz-adv-x="598" 
d="M423 667v-236h154v-87h-154v-257h172v-87h-262v60h-2q-33 -70 -114 -70q-36 0 -64.5 16t-46.5 38.5t-31 60.5t-19 67t-9 74.5t-3.5 67.5t-0.5 59v13v47t1.5 51.5t4.5 56.5t9 54.5t14.5 53.5t22 45t30.5 37.5t41 23t52 9.5q81 0 108 -69h2v59h262v-87h-167zM149 379
q0 -3 -0.5 -24.5t0 -35.5t1 -40.5t3 -45.5t6.5 -43.5t11 -41t16 -32t22.5 -23.5t29.5 -8q32 0 52 20.5t27.5 68.5t8.5 77.5t1 93.5v34q0 7 1 35.5t1 51t-1.5 55t-7 57t-15 47.5t-27 35.5t-40.5 12.5q-50 0 -69.5 -64t-19.5 -230z" />
    <glyph glyph-name="oe" unicode="&#x153;" horiz-adv-x="581" 
d="M342 307v-8h115q0 134 -59 134q-21 0 -34 -14t-16.5 -34t-5.5 -41.5t0 -36.5zM553 234h-213l1 -6q4 -89 20 -119q15 -31 44 -31q58 0 60 93h86q-2 -78 -39 -128.5t-111 -50.5q-72 3 -108 80q-32 -77 -110 -80q-41 0 -71 18.5t-45.5 45t-24.5 66.5t-11 70.5t-2 70.5
q0 250 158 250q35 0 65 -21t42 -57h2q12 37 41 57.5t64 20.5q40 0 69.5 -18t45 -43.5t24.5 -64.5t11 -69.5t2 -68.5v-15zM125 252q0 -174 63 -174q61 0 61 174v6q1 170 -61 170q-64 0 -63 -168v-8z" />
    <glyph glyph-name="Racute" unicode="&#x154;" horiz-adv-x="416" 
d="M61 0v754h120q29 0 48 -1.5t48.5 -12t46.5 -29.5t30.5 -57.5t13.5 -92.5q0 -41 -8 -79t-32.5 -73t-63.5 -42l139 -367h-104l-136 369h-2v-369h-100zM161 420q101 -7 101 119q0 64 -16.5 97.5t-68.5 32.5h-16v-249zM305 922l-99 -135l-50 29l82 149z" />
    <glyph glyph-name="racute" unicode="&#x155;" horiz-adv-x="269" 
d="M138 505v-62h2q35 70 107 70v-93l-16 1q-50 0 -71 -26t-21 -77v-318h-95v505h94zM238 703l-99 -135l-50 29l82 149z" />
    <glyph glyph-name="Rcommaaccent" unicode="&#x156;" horiz-adv-x="416" 
d="M61 0v754h120q29 0 48 -1.5t48.5 -12t46.5 -29.5t30.5 -57.5t13.5 -92.5q0 -41 -8 -79t-32.5 -73t-63.5 -42l139 -367h-104l-136 369h-2v-369h-100zM161 420q101 -7 101 119q0 64 -16.5 97.5t-68.5 32.5h-16v-249zM153 -278v52q60 10 60 79h-42v90h97v-81
q0 -61 -33 -97.5t-82 -42.5z" />
    <glyph glyph-name="rcommaaccent" unicode="&#x157;" horiz-adv-x="269" 
d="M138 505v-62h2q35 70 107 70v-93l-16 1q-50 0 -71 -26t-21 -77v-318h-95v505h94zM29 -278v52q60 10 60 79h-42v90h97v-81q0 -61 -33 -97.5t-82 -42.5z" />
    <glyph glyph-name="Rcaron" unicode="&#x158;" horiz-adv-x="416" 
d="M61 0v754h120q29 0 48 -1.5t48.5 -12t46.5 -29.5t30.5 -57.5t13.5 -92.5q0 -41 -8 -79t-32.5 -73t-63.5 -42l139 -367h-104l-136 369h-2v-369h-100zM161 420q101 -7 101 119q0 64 -16.5 97.5t-68.5 32.5h-16v-249zM197 791l-126 139l52 39l72 -83l78 83l47 -39z" />
    <glyph glyph-name="rcaron" unicode="&#x159;" horiz-adv-x="269" 
d="M138 505v-62h2q35 70 107 70v-93l-16 1q-50 0 -71 -26t-21 -77v-318h-95v505h94zM124 572l-126 139l52 39l72 -83l78 83l47 -39z" />
    <glyph glyph-name="Sacute" unicode="&#x15a;" horiz-adv-x="354" 
d="M294 739l-1 -101q-44 32 -85 32q-40 0 -64.5 -28.5t-24.5 -68.5q0 -46 28 -82l76 -83q58 -59 82.5 -104.5t24.5 -116.5q0 -83 -48 -140t-129 -57q-65 0 -110 36v101q53 -39 99 -39q44 0 66 30t22 75q0 41 -21.5 77t-53 65t-62.5 60t-52.5 76t-21.5 100q0 84 44 138.5
t125 54.5q64 0 106 -25zM286 922l-99 -135l-50 29l82 149z" />
    <glyph glyph-name="sacute" unicode="&#x15b;" horiz-adv-x="276" 
d="M234 491v-89q-30 27 -70 27q-27 0 -45.5 -14.5t-18.5 -39.5q1 -23 17.5 -42.5t39.5 -35.5t46 -34.5t39 -49.5t16 -71q0 -67 -39 -108.5t-106 -41.5q-42 0 -82 24v92q40 -32 78 -32q30 0 46.5 17t16.5 47q0 24 -16.5 44.5t-39.5 37t-46 35.5t-39.5 49t-16.5 69
q0 60 37.5 99t97.5 39q48 0 85 -22zM245 703l-99 -135l-50 29l82 149z" />
    <glyph glyph-name="Scircumflex" unicode="&#x15c;" horiz-adv-x="354" 
d="M294 739l-1 -101q-44 32 -85 32q-40 0 -64.5 -28.5t-24.5 -68.5q0 -46 28 -82l76 -83q58 -59 82.5 -104.5t24.5 -116.5q0 -83 -48 -140t-129 -57q-65 0 -110 36v101q53 -39 99 -39q44 0 66 30t22 75q0 41 -21.5 77t-53 65t-62.5 60t-52.5 76t-21.5 100q0 84 44 138.5
t125 54.5q64 0 106 -25zM185 969l123 -140l-47 -38l-78 83l-72 -83l-52 38z" />
    <glyph glyph-name="scircumflex" unicode="&#x15d;" horiz-adv-x="276" 
d="M234 491v-89q-30 27 -70 27q-27 0 -45.5 -14.5t-18.5 -39.5q1 -23 17.5 -42.5t39.5 -35.5t46 -34.5t39 -49.5t16 -71q0 -67 -39 -108.5t-106 -41.5q-42 0 -82 24v92q40 -32 78 -32q30 0 46.5 17t16.5 47q0 24 -16.5 44.5t-39.5 37t-46 35.5t-39.5 49t-16.5 69
q0 60 37.5 99t97.5 39q48 0 85 -22zM144 750l123 -140l-47 -38l-78 83l-72 -83l-52 38z" />
    <glyph glyph-name="Scedilla" unicode="&#x15e;" horiz-adv-x="354" 
d="M294 739l-1 -101q-44 32 -85 32q-40 0 -64.5 -28.5t-24.5 -68.5q0 -46 28 -82l76 -83q58 -59 82.5 -104.5t24.5 -116.5q0 -83 -48 -140t-129 -57q-65 0 -110 36v101q53 -39 99 -39q44 0 66 30t22 75q0 41 -21.5 77t-53 65t-62.5 60t-52.5 76t-21.5 100q0 84 44 138.5
t125 54.5q64 0 106 -25zM158 -51l66 -32l-85 -133l-43 23z" />
    <glyph glyph-name="scedilla" unicode="&#x15f;" horiz-adv-x="276" 
d="M234 491v-89q-30 27 -70 27q-27 0 -45.5 -14.5t-18.5 -39.5q1 -23 17.5 -42.5t39.5 -35.5t46 -34.5t39 -49.5t16 -71q0 -67 -39 -108.5t-106 -41.5q-42 0 -82 24v92q40 -32 78 -32q30 0 46.5 17t16.5 47q0 24 -16.5 44.5t-39.5 37t-46 35.5t-39.5 49t-16.5 69
q0 60 37.5 99t97.5 39q48 0 85 -22zM124 -51l66 -32l-85 -133l-43 23z" />
    <glyph glyph-name="Scaron" unicode="&#x160;" horiz-adv-x="354" 
d="M294 739l-1 -101q-44 32 -85 32q-40 0 -64.5 -28.5t-24.5 -68.5q0 -46 28 -82l76 -83q58 -59 82.5 -104.5t24.5 -116.5q0 -83 -48 -140t-129 -57q-65 0 -110 36v101q53 -39 99 -39q44 0 66 30t22 75q0 41 -21.5 77t-53 65t-62.5 60t-52.5 76t-21.5 100q0 84 44 138.5
t125 54.5q64 0 106 -25zM179 791l-126 139l52 39l72 -83l78 83l47 -39z" />
    <glyph glyph-name="scaron" unicode="&#x161;" horiz-adv-x="276" 
d="M234 491v-89q-30 27 -70 27q-27 0 -45.5 -14.5t-18.5 -39.5q1 -23 17.5 -42.5t39.5 -35.5t46 -34.5t39 -49.5t16 -71q0 -67 -39 -108.5t-106 -41.5q-42 0 -82 24v92q40 -32 78 -32q30 0 46.5 17t16.5 47q0 24 -16.5 44.5t-39.5 37t-46 35.5t-39.5 49t-16.5 69
q0 60 37.5 99t97.5 39q48 0 85 -22zM141 572l-126 139l52 39l72 -83l78 83l47 -39z" />
    <glyph glyph-name="Tcommaaccent" unicode="&#x162;" horiz-adv-x="323" 
d="M-4 754h331v-87h-113v-667h-100v667h-118v87zM99 -278v52q60 10 60 79h-42v90h97v-81q0 -61 -33 -97.5t-82 -42.5z" />
    <glyph glyph-name="tcommaaccent" unicode="&#x163;" horiz-adv-x="221" 
d="M63 648h94v-143h50v-74h-50v-431h-94v431h-51v74h51v143zM46 -278v52q60 10 60 79h-42v90h97v-81q0 -61 -33 -97.5t-82 -42.5z" />
    <glyph glyph-name="Tcaron" unicode="&#x164;" horiz-adv-x="323" 
d="M-4 754h331v-87h-113v-667h-100v667h-118v87zM168 791l-126 139l52 39l72 -83l78 83l47 -39z" />
    <glyph glyph-name="tcaron" unicode="&#x165;" horiz-adv-x="221" 
d="M63 648h94v-143h50v-74h-50v-431h-94v431h-51v74h51v143zM331 738l-65 -158l-52 11l47 164z" />
    <glyph glyph-name="Tbar" unicode="&#x166;" horiz-adv-x="323" 
d="M284 410h-70v-410h-100v410h-73v58h73v199h-118v87h331v-87h-113v-199h70v-58z" />
    <glyph glyph-name="tbar" unicode="&#x167;" horiz-adv-x="221" 
d="M63 648h94v-143h50v-74h-50v-111h39v-58h-39v-262h-94v262h-40v58h40v111h-51v74h51v143z" />
    <glyph glyph-name="Utilde" unicode="&#x168;" horiz-adv-x="467" 
d="M61 754h100v-553q0 -68 18 -92.5t52 -24.5q47 0 61 25.5t15 80.5v564h100v-535q0 -30 -0.5 -45t-3.5 -43.5t-9 -44t-19 -37t-31 -32.5t-46 -19t-64 -8q-46 0 -79 13t-51 33t-28 54t-12.5 65.5t-2.5 78.5v520zM312 936h56q0 -42 -17.5 -70.5t-56.5 -28.5q-20 0 -51 16
t-43 16q-24 0 -22 -28h-61q0 41 18.5 70t56.5 29q24 0 55.5 -16.5t45.5 -16.5q17 0 19 29z" />
    <glyph glyph-name="utilde" unicode="&#x169;" horiz-adv-x="389" 
d="M44 505h94v-316v-15v-17.5t0.5 -16t2.5 -16.5t4.5 -14t7 -13.5t10.5 -9t14.5 -7.5t18.5 -2t18.5 2t14 6.5t10 8.5t7 12.5t4 13.5t2 15.5t0.5 15.5v17v15v321h94v-341q0 -84 -32.5 -128t-113.5 -44q-95 0 -125.5 47t-30.5 145v321zM266 717h56q1 -42 -16.5 -70.5
t-57.5 -28.5q-20 0 -51 16t-43 16q-24 0 -22 -28h-61q1 41 19 70t56 29q25 0 56 -16.5t45 -16.5q17 0 19 29z" />
    <glyph glyph-name="Umacron" unicode="&#x16a;" horiz-adv-x="467" 
d="M61 754h100v-553q0 -68 18 -92.5t52 -24.5q47 0 61 25.5t15 80.5v564h100v-535q0 -30 -0.5 -45t-3.5 -43.5t-9 -44t-19 -37t-31 -32.5t-46 -19t-64 -8q-46 0 -79 13t-51 33t-28 54t-12.5 65.5t-2.5 78.5v520zM362 851h-253v58h253v-58z" />
    <glyph glyph-name="umacron" unicode="&#x16b;" horiz-adv-x="389" 
d="M44 505h94v-316v-15v-17.5t0.5 -16t2.5 -16.5t4.5 -14t7 -13.5t10.5 -9t14.5 -7.5t18.5 -2t18.5 2t14 6.5t10 8.5t7 12.5t4 13.5t2 15.5t0.5 15.5v17v15v321h94v-341q0 -84 -32.5 -128t-113.5 -44q-95 0 -125.5 47t-30.5 145v321zM351 657h-313v58h313v-58z" />
    <glyph glyph-name="Ubreve" unicode="&#x16c;" horiz-adv-x="467" 
d="M61 754h100v-553q0 -68 18 -92.5t52 -24.5q47 0 61 25.5t15 80.5v564h100v-535q0 -30 -0.5 -45t-3.5 -43.5t-9 -44t-19 -37t-31 -32.5t-46 -19t-64 -8q-46 0 -79 13t-51 33t-28 54t-12.5 65.5t-2.5 78.5v520zM79 959h49q16 -77 106 -77q87 0 105 77h49
q-3 -69 -45.5 -102.5t-112.5 -33.5q-65 0 -107 34t-44 102z" />
    <glyph glyph-name="ubreve" unicode="&#x16d;" horiz-adv-x="389" 
d="M44 505h94v-316v-15v-17.5t0.5 -16t2.5 -16.5t4.5 -14t7 -13.5t10.5 -9t14.5 -7.5t18.5 -2t18.5 2t14 6.5t10 8.5t7 12.5t4 13.5t2 15.5t0.5 15.5v17v15v321h94v-341q0 -84 -32.5 -128t-113.5 -44q-95 0 -125.5 47t-30.5 145v321zM45 740h49q16 -77 106 -77q87 0 105 77
h49q-3 -69 -45.5 -102.5t-112.5 -33.5q-65 0 -107 34t-44 102z" />
    <glyph glyph-name="Uring" unicode="&#x16e;" horiz-adv-x="467" 
d="M61 754h100v-553q0 -68 18 -92.5t52 -24.5q47 0 61 25.5t15 80.5v564h100v-535q0 -30 -0.5 -45t-3.5 -43.5t-9 -44t-19 -37t-31 -32.5t-46 -19t-64 -8q-46 0 -79 13t-51 33t-28 54t-12.5 65.5t-2.5 78.5v520zM238 802q-34 0 -58.5 22.5t-24.5 56.5q0 36 23 60t58 24
t58.5 -24.5t23.5 -59.5q0 -32 -24 -55.5t-56 -23.5zM238 849q14 0 23.5 10t9.5 23q0 15 -9.5 25.5t-25.5 10.5q-15 0 -24.5 -10.5t-9.5 -25.5q0 -14 10.5 -23.5t25.5 -9.5z" />
    <glyph glyph-name="uring" unicode="&#x16f;" horiz-adv-x="389" 
d="M44 505h94v-316v-15v-17.5t0.5 -16t2.5 -16.5t4.5 -14t7 -13.5t10.5 -9t14.5 -7.5t18.5 -2t18.5 2t14 6.5t10 8.5t7 12.5t4 13.5t2 15.5t0.5 15.5v17v15v321h94v-341q0 -84 -32.5 -128t-113.5 -44q-95 0 -125.5 47t-30.5 145v321zM199 583q-34 0 -58.5 22.5t-24.5 56.5
q0 36 23 60t58 24t58.5 -24.5t23.5 -59.5q0 -32 -24 -55.5t-56 -23.5zM199 630q14 0 23.5 10t9.5 23q0 15 -9.5 25.5t-25.5 10.5q-15 0 -24.5 -10.5t-9.5 -25.5q0 -14 10.5 -23.5t25.5 -9.5z" />
    <glyph glyph-name="Uhungarumlaut" unicode="&#x170;" horiz-adv-x="467" 
d="M61 754h100v-553q0 -68 18 -92.5t52 -24.5q47 0 61 25.5t15 80.5v564h100v-535q0 -30 -0.5 -45t-3.5 -43.5t-9 -44t-19 -37t-31 -32.5t-46 -19t-64 -8q-46 0 -79 13t-51 33t-28 54t-12.5 65.5t-2.5 78.5v520zM217 965l67 -43l-99 -135l-50 29zM367 965l67 -43l-99 -135
l-50 29z" />
    <glyph glyph-name="uhungarumlaut" unicode="&#x171;" horiz-adv-x="389" 
d="M44 505h94v-316v-15v-17.5t0.5 -16t2.5 -16.5t4.5 -14t7 -13.5t10.5 -9t14.5 -7.5t18.5 -2t18.5 2t14 6.5t10 8.5t7 12.5t4 13.5t2 15.5t0.5 15.5v17v15v321h94v-341q0 -84 -32.5 -128t-113.5 -44q-95 0 -125.5 47t-30.5 145v321zM165 746l67 -43l-99 -135l-50 29z
M315 746l67 -43l-99 -135l-50 29z" />
    <glyph glyph-name="Uogonek" unicode="&#x172;" horiz-adv-x="467" 
d="M61 754h100v-553q0 -68 18 -92.5t52 -24.5q47 0 61.5 26.5t14.5 79.5v564h100v-535q0 -36 -1 -56t-7.5 -54t-18.5 -53.5t-37 -37.5t-61 -24q-68 -53 -68 -97q0 -47 52 -47q29 0 47 13l-7 -58q-24 -17 -59 -17q-37 0 -66 22t-29 60q0 70 79 120q-45 0 -77.5 13t-50 33
t-27.5 54t-12.5 65.5t-2.5 78.5v520z" />
    <glyph glyph-name="uogonek" unicode="&#x173;" horiz-adv-x="389" 
d="M44 505h94v-316v-15v-17.5t0.5 -16t2.5 -16.5t4.5 -14t7 -13.5t10.5 -9t14.5 -7.5t18.5 -2t18.5 2t14 6.5t10 8.5t7 12.5t4 13.5t2 15.5t0.5 15.5v17v15v321h94v-341q0 -74 -24 -116t-84 -53q-69 -52 -69 -98q0 -47 52 -47q29 0 47 13l-7 -58q-24 -17 -59 -17
q-37 0 -66 22t-29 60q0 70 82 122q-88 2 -116.5 49.5t-28.5 142.5v321z" />
    <glyph glyph-name="Wcircumflex" unicode="&#x174;" horiz-adv-x="592" 
d="M2 754h98l71 -511l4 -56h2l30 253l52 314h78l82 -562h2l27 242l46 320h97l-132 -754h-80l-57 351l-23 190l-1 19h-2l-22 -203l-60 -357h-82zM300 969l123 -140l-47 -38l-78 83l-72 -83l-52 38z" />
    <glyph glyph-name="wcircumflex" unicode="&#x175;" horiz-adv-x="487" 
d="M-3 505h99l54 -352v-10h2l22 157l39 205h67l57 -352v-10h2l26 188l33 174h92l-119 -505h-64l-51 259l-10 112h-2l-22 -181l-37 -190h-65zM249 750l123 -140l-47 -38l-78 83l-72 -83l-52 38z" />
    <glyph glyph-name="Ycircumflex" unicode="&#x176;" horiz-adv-x="392" 
d="M2 754h108l92 -349h2l16 97l64 252h107l-140 -429v-325h-100v325zM201 969l123 -140l-47 -38l-78 83l-72 -83l-52 38z" />
    <glyph glyph-name="ycircumflex" unicode="&#x177;" horiz-adv-x="373" 
d="M4 505h105l74 -352h2l85 352h95l-206 -712h-99l78 248zM194 750l123 -140l-47 -38l-78 83l-72 -83l-52 38z" />
    <glyph glyph-name="Ydieresis" unicode="&#x178;" horiz-adv-x="392" 
d="M2 754h108l92 -349h2l16 97l64 252h107l-140 -429v-325h-100v325zM117 823q-24 0 -41 15.5t-17 39.5t16.5 41t41.5 17q22 0 38.5 -16.5t16.5 -38.5q0 -23 -16 -40.5t-39 -17.5zM278 823q-24 0 -41 15.5t-17 39.5t16.5 41t41.5 17q22 0 38.5 -16.5t16.5 -38.5
q0 -23 -16 -40.5t-39 -17.5z" />
    <glyph glyph-name="Zacute" unicode="&#x179;" horiz-adv-x="393" 
d="M42 754h333l-227 -667h215v-87h-348l229 667h-202v87zM320 922l-99 -135l-50 29l82 149z" />
    <glyph glyph-name="zacute" unicode="&#x17a;" horiz-adv-x="335" 
d="M27 505h294l-169 -421h160v-84h-298l175 421h-162v84zM273 703l-99 -135l-50 29l82 149z" />
    <glyph glyph-name="Zdotaccent" unicode="&#x17b;" horiz-adv-x="393" 
d="M42 754h333l-227 -667h215v-87h-348l229 667h-202v87zM219 823q-24 0 -41.5 15.5t-17.5 39.5q0 25 16.5 41.5t41.5 16.5q23 0 39 -16.5t16 -38.5q0 -24 -15.5 -41t-38.5 -17z" />
    <glyph glyph-name="zdotaccent" unicode="&#x17c;" horiz-adv-x="335" 
d="M27 505h294l-169 -421h160v-84h-298l175 421h-162v84zM180 604q-24 0 -41.5 15.5t-17.5 39.5q0 25 16.5 41.5t41.5 16.5q23 0 39 -16.5t16 -38.5q0 -24 -15.5 -41t-38.5 -17z" />
    <glyph glyph-name="Zcaron" unicode="&#x17d;" horiz-adv-x="393" 
d="M42 754h333l-227 -667h215v-87h-348l229 667h-202v87zM207 791l-126 139l52 39l72 -83l78 83l47 -39z" />
    <glyph glyph-name="zcaron" unicode="&#x17e;" horiz-adv-x="335" 
d="M27 505h294l-169 -421h160v-84h-298l175 421h-162v84zM170 572l-126 139l52 39l72 -83l78 83l47 -39z" />
    <glyph glyph-name="florin" unicode="&#x192;" horiz-adv-x="411" 
d="M286 508h129l-9 -74h-131l-55 -300q-1 -3 -4.5 -23t-4.5 -26.5t-5 -25t-6.5 -27.5t-7 -24.5t-8.5 -26t-10 -22.5t-12 -21q-29 -43 -82 -65t-111 -22h-24l15 84h19q40 4 65 17t44 45q19 33 38 132l53 305h-65l9 74h70l21 121q17 100 60 153.5t137 53.5q33 0 60 -7l-16 -84
q-18 7 -41 7q-54 0 -76 -38q-18 -31 -30 -96z" />
    <glyph glyph-name="Scommaaccent" unicode="&#x218;" horiz-adv-x="354" 
d="M294 739l-1 -101q-44 32 -85 32q-40 0 -64.5 -28.5t-24.5 -68.5q0 -46 28 -82l76 -83q58 -59 82.5 -104.5t24.5 -116.5q0 -83 -48 -140t-129 -57q-65 0 -110 36v101q53 -39 99 -39q44 0 66 30t22 75q0 41 -21.5 77t-53 65t-62.5 60t-52.5 76t-21.5 100q0 84 44 138.5
t125 54.5q64 0 106 -25zM105 -278v52q60 10 60 79h-42v90h97v-81q0 -61 -33 -97.5t-82 -42.5z" />
    <glyph glyph-name="scommaaccent" unicode="&#x219;" horiz-adv-x="276" 
d="M234 491v-89q-30 27 -70 27q-27 0 -45.5 -14.5t-18.5 -39.5q1 -23 17.5 -42.5t39.5 -35.5t46 -34.5t39 -49.5t16 -71q0 -67 -39 -108.5t-106 -41.5q-42 0 -82 24v92q40 -32 78 -32q30 0 46.5 17t16.5 47q0 24 -16.5 44.5t-39.5 37t-46 35.5t-39.5 49t-16.5 69
q0 60 37.5 99t97.5 39q48 0 85 -22zM75 -278v52q60 10 60 79h-42v90h97v-81q0 -61 -33 -97.5t-82 -42.5z" />
    <glyph glyph-name="uni021A" unicode="&#x21a;" horiz-adv-x="323" 
d="M-4 754h331v-87h-113v-667h-100v667h-118v87zM99 -278v52q60 10 60 79h-42v90h97v-81q0 -61 -33 -97.5t-82 -42.5z" />
    <glyph glyph-name="uni021B" unicode="&#x21b;" horiz-adv-x="221" 
d="M63 648h94v-143h50v-74h-50v-431h-94v431h-51v74h51v143zM46 -278v52q60 10 60 79h-42v90h97v-81q0 -61 -33 -97.5t-82 -42.5z" />
    <glyph glyph-name="dotlessj" unicode="&#x237;" horiz-adv-x="180" 
d="M137 505v-712h-94v712h94z" />
    <glyph glyph-name="circumflex" unicode="&#x2c6;" 
d="M142 750l123 -140l-47 -38l-78 83l-72 -83l-52 38z" />
    <glyph glyph-name="caron" unicode="&#x2c7;" 
d="M142 572l-126 139l52 39l72 -83l78 83l47 -39z" />
    <glyph glyph-name="uni02C9" unicode="&#x2c9;" 
d="M267 632h-253v58h253v-58z" />
    <glyph glyph-name="breve" unicode="&#x2d8;" 
d="M-14 740h49q17 -77 106 -77q87 0 105 77h49q-3 -69 -45.5 -102.5t-112.5 -33.5q-65 0 -107 34t-44 102z" />
    <glyph glyph-name="dotaccent" unicode="&#x2d9;" 
d="M143 604q-24 0 -41.5 15.5t-17.5 39.5q0 25 16.5 41.5t41.5 16.5q23 0 39 -16.5t16 -38.5q0 -24 -15.5 -41t-38.5 -17z" />
    <glyph glyph-name="ring" unicode="&#x2da;" 
d="M142 583q-34 0 -58.5 22.5t-24.5 56.5q0 36 23 60t58 24t58.5 -24.5t23.5 -59.5q0 -32 -24 -55.5t-56 -23.5zM142 630q14 0 23.5 10t9.5 23q0 15 -9.5 25.5t-25.5 10.5q-15 0 -24.5 -10.5t-9.5 -25.5q0 -14 10.5 -23.5t25.5 -9.5z" />
    <glyph glyph-name="ogonek" unicode="&#x2db;" 
d="M158 0h43q-77 -55 -77 -103q0 -47 52 -47q29 0 47 13l-7 -58q-24 -17 -59 -17q-37 0 -66 22t-29 60q0 75 96 130z" />
    <glyph glyph-name="tilde" unicode="&#x2dc;" 
d="M210 717h56q1 -42 -16.5 -70.5t-57.5 -28.5q-20 0 -51 16t-43 16q-24 0 -22 -28h-61q1 41 19 70t56 29q25 0 56 -16.5t45 -16.5q17 0 19 29z" />
    <glyph glyph-name="hungarumlaut" unicode="&#x2dd;" 
d="M73 746l67 -43l-99 -135l-50 29zM223 746l67 -43l-99 -135l-50 29z" />
    <glyph glyph-name="uni0394" unicode="&#x394;" horiz-adv-x="717" 
d="M706 0h-694l292 754h101zM571 88l-218 561l-211 -561h429z" />
    <glyph glyph-name="uni03A9" unicode="&#x3a9;" horiz-adv-x="796" 
d="M733 0h-279v196q86 16 133.5 80.5t47.5 152.5q0 105 -69 175.5t-173 70.5q-105 0 -175 -71t-70 -176q0 -90 46.5 -152t132.5 -80v-196h-278v81h201v66q-95 27 -148 106t-53 181q0 141 100 235t243 94t242 -92t99 -235q0 -104 -52 -183t-149 -106v-66h201v-81z" />
    <glyph glyph-name="uni03BC" unicode="&#x3bc;" horiz-adv-x="388" 
d="M251 505h94v-347q0 -30 -1 -47.5t-6.5 -43t-15.5 -40t-30.5 -25t-49.5 -10.5q-68 0 -102 66h-2v-262h-94v709h94v-315v-9q0 -23 1 -36t5.5 -32t17.5 -28t33 -9q56 0 56 80v349z" />
    <glyph glyph-name="pi" unicode="&#x3c0;" horiz-adv-x="492" 
d="M455 77v-65q-40 -19 -74 -19q-57 0 -75 32t-18 93v306h-101v-424h-86v424h-70v81h421v-81h-78v-301q0 -18 1.5 -28t10.5 -19t26 -9q22 0 43 10z" />
    <glyph glyph-name="endash" unicode="&#x2013;" horiz-adv-x="500" 
d="M0 296h500v-74h-500v74z" />
    <glyph glyph-name="emdash" unicode="&#x2014;" horiz-adv-x="1000" 
d="M130 296h740v-74h-740v74z" />
    <glyph glyph-name="quoteleft" unicode="&#x2018;" horiz-adv-x="213" 
d="M108 474l-81 24l96 266l52 -15z" />
    <glyph glyph-name="quoteright" unicode="&#x2019;" horiz-adv-x="213" 
d="M105 764l81 -24l-97 -265l-51 14z" />
    <glyph glyph-name="quotesinglbase" unicode="&#x201a;" horiz-adv-x="213" 
d="M105 106l81 -25l-97 -265l-51 14z" />
    <glyph glyph-name="quotedblleft" unicode="&#x201c;" horiz-adv-x="344" 
d="M239 474l-81 24l96 266l52 -15zM102 474l-81 24l96 266l52 -15z" />
    <glyph glyph-name="quotedblright" unicode="&#x201d;" horiz-adv-x="344" 
d="M105 764l81 -24l-97 -265l-51 14zM242 764l81 -24l-97 -265l-51 14z" />
    <glyph glyph-name="quotedblbase" unicode="&#x201e;" horiz-adv-x="344" 
d="M105 106l81 -25l-97 -265l-51 14zM242 106l81 -25l-97 -265l-51 14z" />
    <glyph glyph-name="dagger" unicode="&#x2020;" horiz-adv-x="359" 
d="M133 754h94v-249h103v-82h-103v-560h-94v560h-104v82h104v249z" />
    <glyph glyph-name="daggerdbl" unicode="&#x2021;" horiz-adv-x="359" 
d="M133 754h94v-229h103v-82h-103v-184h103v-82h-103v-314h-94v314h-104v82h104v184h-104v82h104v229z" />
    <glyph glyph-name="bullet" unicode="&#x2022;" horiz-adv-x="400" 
d="M12 377q0 78 54.5 133.5t132.5 55.5q79 0 134.5 -55.5t55.5 -133.5q0 -77 -55.5 -132.5t-134.5 -55.5q-78 0 -132.5 55.5t-54.5 132.5z" />
    <glyph glyph-name="ellipsis" unicode="&#x2026;" horiz-adv-x="1000" 
d="M167 -10q-25 0 -42.5 18t-17.5 43q0 24 17.5 41.5t42.5 17.5t42.5 -17.5t17.5 -41.5q0 -25 -17.5 -43t-42.5 -18zM500 -10q-25 0 -42.5 18t-17.5 43q0 24 17.5 41.5t42.5 17.5t42.5 -17.5t17.5 -41.5q0 -25 -17.5 -43t-42.5 -18zM833 -10q-25 0 -42.5 18t-17.5 43
q0 24 17.5 41.5t42.5 17.5t42.5 -17.5t17.5 -41.5q0 -25 -17.5 -43t-42.5 -18z" />
    <glyph glyph-name="perthousand" unicode="&#x2030;" horiz-adv-x="817" 
d="M149 405q-35 0 -58 16.5t-33 47t-13 56t-3 59.5t3 60t13 56t33 46.5t58 16.5t58 -16.5t33 -46.5t13 -56t3 -60t-3 -59.5t-13 -56t-33 -47t-58 -16.5zM149 465q7 0 13 3t10 9t7 12.5t5 16.5t3 17.5t1.5 18.5t0.5 16.5v15v10.5v10.5v15t-0.5 16.5t-1.5 18t-3 17t-5 16.5
t-7 13t-10 9.5t-13 3t-13 -3t-10 -9.5t-7 -13t-5 -16.5t-3 -17t-1.5 -18t-0.5 -16.5v-15v-10.5v-10.5v-15t0.5 -16.5t1.5 -18.5t3 -17.5t5 -16.5t7 -12.5t10 -9t13 -3zM403 349q35 0 58 -16.5t33 -46.5t13 -56t3 -60t-3 -59.5t-13 -56t-33 -47t-58 -16.5t-58 16.5t-33 47
t-13 56t-3 59.5t3 60t13 56t33 46.5t58 16.5zM403 51q7 0 13 3t10 9t7 12.5t5 16.5t3 17.5t1.5 18.5t0.5 16.5v15v10.5v10.5v15t-0.5 16.5t-1.5 18t-3 17t-5 16.5t-7 13t-10 9.5t-13 3t-13 -3t-10 -9.5t-7 -13t-5 -16.5t-3 -17t-1.5 -18t-0.5 -16.5v-15v-10.5v-10.5v-15
t0.5 -16.5t1.5 -18.5t3 -17.5t5 -16.5t7 -12.5t10 -9t13 -3zM667 349q35 0 58 -16.5t33 -46.5t13 -56t3 -60t-3 -59.5t-13 -56t-33 -47t-58 -16.5t-58 16.5t-33 47t-13 56t-3 59.5t3 60t13 56t33 46.5t58 16.5zM667 51q7 0 13 3t10 9t7 12.5t5 16.5t3 17.5t1.5 18.5
t0.5 16.5v15v10.5v10.5v15t-0.5 16.5t-1.5 18t-3 17t-5 16.5t-7 13t-10 9.5t-13 3t-13 -3t-10 -9.5t-7 -13t-5 -16.5t-3 -17t-1.5 -18t-0.5 -16.5v-15v-10.5v-10.5v-15t0.5 -16.5t1.5 -18.5t3 -17.5t5 -16.5t7 -12.5t10 -9t13 -3zM432 754h62l-374 -754h-62z" />
    <glyph glyph-name="guilsinglleft" unicode="&#x2039;" horiz-adv-x="238" 
d="M26 260l129 222l45 -27l-115 -195l104 -199l-44 -25z" />
    <glyph glyph-name="guilsinglright" unicode="&#x203a;" horiz-adv-x="238" 
d="M212 260l-119 -224l-44 25l104 199l-115 195l45 27z" />
    <glyph glyph-name="fraction" unicode="&#x2044;" horiz-adv-x="122" 
d="M217 754h62l-374 -754h-62z" />
    <glyph glyph-name="Euro" unicode="&#x20ac;" horiz-adv-x="411" 
d="M389 731l-20 -84q-36 30 -81 30q-101 0 -125 -183h176l-16 -74h-168q-2 -13 -2 -50q0 -32 2 -43h146l-16 -74h-126q6 -82 39.5 -131.5t88.5 -49.5q45 0 85 37l23 -79q-48 -48 -114 -48q-96 0 -150 76.5t-65 194.5h-53l17 74h33q-1 15 -1 43q0 39 2 50h-50l18 74h37
q17 128 74.5 200t146.5 72q54 0 99 -35z" />
    <glyph glyph-name="afii61289" unicode="&#x2113;" horiz-adv-x="411" 
d="M374 96l34 -49q-70 -62 -152 -62q-66 0 -101 36.5t-35 105.5v97l-62 -61h-2l-35 51l98 90v268q0 89 38.5 140.5t104.5 51.5q59 0 94.5 -38.5t35.5 -104.5q0 -151 -188 -333v-146q0 -86 74 -86q45 0 94 40h2zM313 615q0 38 -14.5 61.5t-37.5 23.5q-25 0 -41 -29t-16 -83
v-217q109 127 109 244z" />
    <glyph glyph-name="trademark" unicode="&#x2122;" horiz-adv-x="750" 
d="M719 754v-421h-55v361h-2l-118 -361h-32l-115 361h-2v-361h-55v421h89l98 -297h2l102 297h88zM280 754v-60h-109v-361h-61v361h-110v60h280z" />
    <glyph glyph-name="Omega" unicode="&#x2126;" horiz-adv-x="796" 
d="M733 0h-279v196q86 16 133.5 80.5t47.5 152.5q0 105 -69 175.5t-173 70.5q-105 0 -175 -71t-70 -176q0 -90 46.5 -152t132.5 -80v-196h-278v81h201v66q-95 27 -148 106t-53 181q0 141 100 235t243 94t242 -92t99 -235q0 -104 -52 -183t-149 -106v-66h201v-81z" />
    <glyph glyph-name="estimated" unicode="&#x212e;" horiz-adv-x="600" 
d="M157 295h291v145q-63 60 -147 60t-144 -60v-145zM561 259h-404v-181q59 -59 145 -59q63 0 109 28.5t84 91.5l35 -21q-46 -73 -98 -104t-130 -31q-115 0 -186.5 79t-71.5 197q0 119 71 197.5t187 78.5q115 0 187 -77t72 -199z" />
    <glyph glyph-name="partialdiff" unicode="&#x2202;" horiz-adv-x="523" 
d="M481 360q0 -52 -5.5 -99.5t-21 -99t-41 -88.5t-69.5 -61t-101 -24q-94 0 -151 65t-57 160q0 93 55.5 154.5t147.5 61.5q89 0 156 -70q0 6 0.5 19.5t0.5 21.5q0 43 -8 84t-26 80t-52.5 63t-80.5 24q-57 0 -116 -47q-8 10 -23.5 28t-23.5 27q78 62 159 62q71 0 123.5 -32.5
t80.5 -87t40.5 -114.5t12.5 -127zM391 271q-50 90 -142 90q-63 0 -97 -44t-34 -108q0 -62 33 -108.5t94 -46.5q50 0 84 38t47 84t15 95z" />
    <glyph glyph-name="Delta" unicode="&#x2206;" horiz-adv-x="717" 
d="M706 0h-694l292 754h101zM571 88l-218 561l-211 -561h429z" />
    <glyph glyph-name="product" unicode="&#x220f;" horiz-adv-x="726" 
d="M660 -214h-90v917h-413v-917h-91v1000h594v-1000z" />
    <glyph glyph-name="summation" unicode="&#x2211;" horiz-adv-x="626" 
d="M601 -214h-576v72l316 433l-303 422v73h551v-83h-432l292 -412l-311 -423h463v-82z" />
    <glyph glyph-name="minus" unicode="&#x2212;" horiz-adv-x="500" 
d="M44 221v70h413v-70h-413z" />
    <glyph glyph-name="uni2215" unicode="&#x2215;" horiz-adv-x="122" 
d="M217 754h62l-374 -754h-62z" />
    <glyph glyph-name="uni2219" unicode="&#x2219;" horiz-adv-x="205" 
d="M103 195q-25 0 -42.5 17.5t-17.5 43.5q0 24 17.5 41.5t42.5 17.5t42.5 -17.5t17.5 -41.5q0 -26 -17.5 -43.5t-42.5 -17.5z" />
    <glyph glyph-name="radical" unicode="&#x221a;" horiz-adv-x="515" 
d="M526 786l-211 -1000h-86l-158 328l-48 -23l-33 70l124 58l144 -302l178 869h90z" />
    <glyph glyph-name="infinity" unicode="&#x221e;" horiz-adv-x="778" 
d="M681 260q0 38 -22 63.5t-60 25.5q-25 0 -55 -17.5t-46 -32t-42 -40.5q31 -29 44.5 -40.5t44 -27.5t57.5 -16q37 0 58 24t21 61zM361 259q-28 26 -44.5 40.5t-47 31.5t-55.5 17q-35 0 -56.5 -25.5t-21.5 -62.5q0 -39 22 -62t60 -23q59 0 143 84zM754 263
q0 -75 -43.5 -124.5t-117.5 -49.5q-54 0 -96 27.5t-89 79.5q-35 -37 -54.5 -54.5t-54.5 -34.5t-74 -17q-75 0 -119.5 48t-44.5 124q0 73 43.5 122t116.5 49q56 0 97.5 -29t89.5 -85q44 54 87.5 84.5t98.5 30.5q72 0 116 -49t44 -122z" />
    <glyph glyph-name="integral" unicode="&#x222b;" horiz-adv-x="574" 
d="M442 723q0 -19 -12.5 -30.5t-31.5 -11.5q-17 0 -27.5 8.5t-13.5 19t-8.5 19t-13.5 8.5q-26 0 -26 -86q0 -20 1 -49t1 -37v-568q0 -209 -132 -209q-32 0 -57.5 14.5t-25.5 45.5q0 17 12.5 29t29.5 12q16 0 26 -8.5t13.5 -18.5t9 -18.5t12.5 -8.5q25 0 25 89q0 15 -1 37
t-1 28q0 2 0.5 6t0.5 6v499q0 11 -0.5 36t-0.5 39q0 34 2 60t10 56.5t22 50t39 32.5t59 13q29 0 58.5 -16.5t29.5 -46.5z" />
    <glyph glyph-name="approxequal" unicode="&#x2248;" horiz-adv-x="500" 
d="M429 408h51q-16 -134 -119 -134q-38 0 -120 32q-83 29 -108 29t-40.5 -18t-21.5 -45h-51q7 57 35.5 95.5t81.5 38.5q43 0 118 -30q82 -30 114 -30q25 0 40.5 17.5t19.5 44.5zM429 235h51q-16 -133 -119 -133q-41 0 -120 31q-83 29 -108 29t-40.5 -18t-21.5 -45h-51
q7 58 35.5 96.5t81.5 38.5q41 0 118 -31q82 -30 114 -30q25 0 40.5 17.5t19.5 44.5z" />
    <glyph glyph-name="notequal" unicode="&#x2260;" horiz-adv-x="500" 
d="M471 129h-247l-67 -129l-63 33l51 96h-116v72h152l55 107h-207v72h245l67 129l64 -32l-52 -97h118v-72h-154l-56 -107h210v-72z" />
    <glyph glyph-name="lessequal" unicode="&#x2264;" horiz-adv-x="500" 
d="M471 140l-442 155v75l442 157v-77l-343 -118l343 -116v-76zM471 35h-442v72h442v-72z" />
    <glyph glyph-name="greaterequal" unicode="&#x2265;" horiz-adv-x="500" 
d="M471 295l-442 -155v76l343 116l-343 118v77l442 -157v-75zM471 35h-442v72h442v-72z" />
    <glyph glyph-name="lozenge" unicode="&#x25ca;" horiz-adv-x="593" 
d="M511 356l-174 -391h-82l-173 391l173 391h82zM424 356l-128 305l-127 -305l127 -305z" />
    <glyph glyph-name="grave.cap" unicode="&#xe300;" 
d="M66 922l67 43l82 -149l-50 -29z" />
    <glyph glyph-name="acute.cap" unicode="&#xe301;" 
d="M215 922l-99 -135l-50 29l82 149z" />
    <glyph glyph-name="circumflex.cap" unicode="&#xe302;" 
d="M142 969l123 -140l-47 -38l-78 83l-72 -83l-52 38z" />
    <glyph glyph-name="caron.cap" unicode="&#xe303;" 
d="M142 791l-126 139l52 39l72 -83l78 83l47 -39z" />
    <glyph glyph-name="tilde.cap" unicode="&#xe304;" 
d="M210 936h56q0 -42 -17.5 -70.5t-56.5 -28.5q-20 0 -51 16t-43 16q-24 0 -22 -28h-61q0 41 18.5 70t56.5 29q24 0 55.5 -16.5t45.5 -16.5q17 0 19 29z" />
    <glyph glyph-name="dieresis.cap" unicode="&#xe305;" 
d="M61 823q-24 0 -41 15.5t-17 39.5q0 25 16 41.5t42 16.5q23 0 39 -16.5t16 -38.5q0 -24 -16 -41t-39 -17zM222 823q-24 0 -41 15.5t-17 39.5q0 25 16 41.5t42 16.5q23 0 39 -16.5t16 -38.5q0 -24 -15.5 -41t-39.5 -17z" />
    <glyph glyph-name="macron.cap" unicode="&#xe306;" 
d="M267 851h-253v58h253v-58z" />
    <glyph glyph-name="breve.cap" unicode="&#xe307;" 
d="M-14 959h49q17 -77 106 -77q87 0 105 77h49q-3 -69 -45.5 -102.5t-112.5 -33.5q-65 0 -107 34t-44 102z" />
    <glyph glyph-name="ring.cap" unicode="&#xe308;" 
d="M142 802q-34 0 -58.5 22.5t-24.5 56.5q0 36 23 60t58 24t58.5 -24.5t23.5 -59.5q0 -32 -24 -55.5t-56 -23.5zM142 849q14 0 23.5 10t9.5 23q0 15 -9.5 25.5t-25.5 10.5q-15 0 -24.5 -10.5t-9.5 -25.5q0 -14 10.5 -23.5t25.5 -9.5z" />
    <glyph glyph-name="hungarumlaut.cap" unicode="&#xe309;" 
d="M73 965l67 -43l-99 -135l-50 29zM223 965l67 -43l-99 -135l-50 29z" />
    <glyph glyph-name="dotaccent.cap" unicode="&#xe30a;" 
d="M143 823q-24 0 -41.5 15.5t-17.5 39.5q0 25 16.5 41.5t41.5 16.5q23 0 39 -16.5t16 -38.5q0 -24 -15.5 -41t-38.5 -17z" />
    <glyph glyph-name="caron.alt" unicode="&#xe30b;" 
d="M194 738l-65 -158l-52 11l47 164z" />
    <glyph glyph-name="commaaccent" unicode="&#xe30c;" 
d="M77 -278v52q60 10 60 79h-42v90h97v-81q0 -61 -33 -97.5t-82 -42.5z" />
    <glyph glyph-name="commaaccent.alt" unicode="&#xe30d;" 
d="M203 849v-52q-60 -10 -60 -79h42v-90h-97v81q0 61 33 97.5t82 42.5z" />
    <glyph glyph-name="uniF8FF" unicode="&#xf8ff;" horiz-adv-x="512" 
d="M278 117h-56v67h56v-67zM271 234h-46l-2 17q0 56 13 81q15 28 46 59q30 28 40 45.5t10 37.5q0 36 -22.5 60.5t-53.5 24.5q-71 0 -82 -95l-50 8q6 69 42 103t93 34q55 0 89.5 -36t34.5 -95q0 -34 -13 -60t-50 -60q-37 -33 -43 -52q-6 -20 -6 -72zM50 50h412v617h-412v-617
zM0 718h512v-718h-512v718z" />
    </font>
</defs>
</svg>
