<?xml version="1.0" standalone="no"?>
<!DOCTYPE svg PUBLIC "-//W3C//DTD SVG 1.1//EN" "http://www.w3.org/Graphics/SVG/1.1/DTD/svg11.dtd" >
<svg xmlns="http://www.w3.org/2000/svg">
<metadata>
This is a custom SVG webfont generated by Font Squirrel.
Foundry     :  digitally encoded machine readable outline data for producing the typefaces licensed to you is copyrighted  by The Foundry London
</metadata>
<defs>
<font id="webfontAW2GLI4W" horiz-adv-x="567" >
<font-face units-per-em="1000" ascent="726" descent="-274" />
<missing-glyph horiz-adv-x="255" />
<glyph unicode=" "  horiz-adv-x="255" />
<glyph unicode="&#x09;" horiz-adv-x="255" />
<glyph unicode="&#xa0;" horiz-adv-x="255" />
<glyph unicode="!" horiz-adv-x="285" d="M171 190h-57v477h57v-477zM183 32q0 -40 -40 -40q-41 0 -41 40t40 40q41 0 41 -40z" />
<glyph unicode="&#x22;" horiz-adv-x="435" d="M318 450h-53v217h53v-217zM169 450h-53v217h53v-217z" />
<glyph unicode="#" d="M548 415h-127l-37 -137h113v-51h-126l-60 -227h-52l60 227h-135l-60 -227h-52l60 227h-114v51h127l37 137h-113v51h127l60 228h52l-61 -228h135l61 228h52l-61 -228h114v-51zM368 415h-134l-36 -137h134z" />
<glyph unicode="$" horiz-adv-x="556" d="M484 190q0 -96 -43.5 -141.5t-137.5 -48.5v-99h-54v99q-91 2 -134.5 35t-43.5 109h56q0 -49 26.5 -69.5t95.5 -21.5v267q-92 8 -132.5 43.5t-40.5 128.5q0 89 43.5 130.5t129.5 44.5v95h54v-95q91 -2 132.5 -34.5t41.5 -109.5h-56q0 50 -24.5 70t-93.5 21v-241 q55 -4 86.5 -12t54.5 -28.5t31.5 -54t8.5 -88.5zM249 376v238q-65 -2 -91.5 -30t-26.5 -97q0 -66 25.5 -86.5t92.5 -24.5zM429 194q0 76 -23.5 97t-102.5 27v-266q69 2 97.5 34.5t28.5 107.5z" />
<glyph unicode="%" horiz-adv-x="865" d="M783 194q0 -96 -7 -124q-18 -70 -100 -77q-11 -1 -24 -1q-28 0 -49 5.5t-35 15t-23.5 22.5t-14 29t-7 34t-2.5 37v39v20v17q0 32 0.5 47.5t4 41.5t11.5 39.5t22 28.5t37.5 21t55.5 6q28 0 49 -5t35 -14.5t23.5 -22.5t14 -28.5t7 -33.5t2.5 -37v-39v-21zM631 667 l-337 -667h-52l336 667h53zM344 473q0 -96 -7 -124q-18 -70 -100 -77q-11 -1 -24 -1q-28 0 -49 5.5t-35 15t-23.5 22.5t-14 29t-7 34t-2.5 37v39v20v17q0 32 0.5 47.5t4 41.5t11.5 39.5t22 28.5t37.5 21t55.5 6q28 0 49 -5t35 -14.5t23.5 -22.5t14 -28.5t7 -33.5t2.5 -37 v-39v-21zM733 194q0 104 -10 124q-14 30 -71 30q-61 0 -73 -38q-7 -22 -7 -116q0 -102 10 -125q14 -31 70 -31q62 0 74 39q7 22 7 117zM294 473q0 104 -10 124q-14 30 -71 30q-61 0 -73 -38q-7 -22 -7 -116q0 -102 10 -125q14 -31 70 -31q62 0 74 39q7 22 7 117z" />
<glyph unicode="&#x26;" horiz-adv-x="606" d="M571 324h-60v-103q0 -69 -9 -109.5t-39 -68.5q-50 -50 -174 -50q-117 0 -168.5 41t-51.5 151q0 71 21 111t67 56q-47 19 -64.5 52t-17.5 95q0 95 46.5 135t153.5 40q101 0 150.5 -34t49.5 -117h-57q0 54 -32.5 75t-110.5 21q-85 0 -114 -25t-29 -97q0 -71 33.5 -94.5 t109.5 -23.5h180v64h56v-64h60v-55zM455 221v103h-180q-87 0 -118 -28.5t-31 -113.5q0 -83 38 -108.5t125 -25.5q100 0 134 34q19 18 25.5 49.5t6.5 89.5z" />
<glyph unicode="'" horiz-adv-x="286" d="M169 450h-53v217h53v-217z" />
<glyph unicode="(" horiz-adv-x="296" d="M261 -191q-86 0 -131.5 26t-64.5 87q-31 104 -31 384q0 283 31 387q19 61 64.5 87t131.5 26v-51q-65 0 -94 -15.5t-43 -49.5q-14 -36 -24 -142.5t-10 -240.5t10 -240t24 -142q14 -34 43 -49.5t94 -15.5v-51z" />
<glyph unicode=")" horiz-adv-x="296" d="M261 306q0 -285 -31 -384q-18 -61 -63.5 -87t-132.5 -26v51q66 0 95 15.5t42 49.5q15 35 24.5 140.5t9.5 241.5t-9.5 242t-24.5 141q-13 34 -42 49.5t-95 15.5v51q87 0 132.5 -26t63.5 -87q31 -99 31 -387z" />
<glyph unicode="*" horiz-adv-x="528" d="M505 483l-201 -62l123 -160l-41 -29l-123 160l-122 -160l-41 29l123 160l-201 62l16 46l200 -61v199h51v-199l200 61z" />
<glyph unicode="+" d="M522 214h-212v-214h-56v214h-211v53h211v213h56v-213h212v-53z" />
<glyph unicode="," horiz-adv-x="213" d="M133 -11q0 -43 -8.5 -67t-35.5 -47l-30 -26l-34 34q40 35 47.5 49t7.5 57v81h53v-81z" />
<glyph unicode="-" horiz-adv-x="485" d="M394 214h-304v53h304v-53z" />
<glyph unicode="." horiz-adv-x="212" d="M146 32q0 -40 -40 -40t-40 40t40 40t40 -40z" />
<glyph unicode="/" horiz-adv-x="461" d="M471 755l-424 -839h-56l423 839h57z" />
<glyph unicode="0" d="M494 333q0 -112 -3 -156.5t-13 -72.5q-38 -112 -195 -112q-156 0 -195 112q-16 47 -16 229q0 121 5 169.5t20 80.5q45 91 186 91q142 0 186 -91q16 -31 20.5 -79t4.5 -171zM436 333q0 167 -14 209q-12 41 -43.5 59.5t-95.5 18.5q-63 0 -94.5 -18.5t-44.5 -59.5 q-14 -47 -14 -209q0 -182 19 -225q15 -32 46 -47t88 -15q107 0 134 62q11 24 15 70.5t4 154.5z" />
<glyph unicode="1" horiz-adv-x="453" d="M435 0h-382v53h162v541l-131 -118l-38 38l174 153h53v-614h162v-53z" />
<glyph unicode="2" horiz-adv-x="555" d="M489 485q0 -92 -50 -139q-37 -35 -165 -70q-47 -13 -69.5 -21t-40 -24t-22.5 -38.5t-5 -61.5v-78h351v-53h-409v150q0 27 5 49t12 37.5t22 29t26 21.5t34.5 16.5t37.5 13t43 12.5q116 33 140 59q32 32 32 97q0 75 -31.5 105t-115.5 30q-78 0 -112 -21t-34 -76h-57 q0 83 50 117t151 34q104 0 154 -40q53 -41 53 -149z" />
<glyph unicode="3" horiz-adv-x="556" d="M483 186q0 -104 -51.5 -149t-159.5 -45q-45 0 -78.5 6t-63.5 22t-45.5 47t-15.5 77h58q0 -54 33.5 -76t112.5 -22q80 0 116 29t36 108q0 86 -29.5 111t-123.5 25h-87v54h87q80 0 113.5 24t33.5 100q0 72 -29.5 97.5t-117.5 25.5q-80 0 -115.5 -22t-35.5 -75h-58 q0 83 52.5 117t156.5 34q110 0 157.5 -40t47.5 -135q0 -116 -73 -152q49 -18 64 -56.5t15 -104.5z" />
<glyph unicode="4" horiz-adv-x="557" d="M503 192h-98v-192h-56v192h-298v51l298 424h56v-422h98v-53zM349 245v337l-234 -337h234z" />
<glyph unicode="5" d="M492 205q0 -116 -49 -164q-50 -49 -165 -49q-99 0 -148 34t-49 118h56q0 -54 31.5 -76t109.5 -22q88 0 122 33t34 122q0 91 -27 129.5t-116 38.5q-145 0 -145 -83h-55v381h379v-54h-323v-234q38 44 146 44q114 0 156.5 -53.5t42.5 -164.5z" />
<glyph unicode="6" horiz-adv-x="561" d="M492 206q0 -111 -49.5 -162.5t-156.5 -51.5q-72 0 -122.5 28.5t-70.5 82.5q-21 55 -21 201q0 164 13 233q24 137 204 137q190 0 190 -151h-56q0 50 -32.5 73.5t-100.5 23.5q-65 0 -98 -19t-45 -60q-13 -44 -16 -188q54 70 159 70q109 0 155.5 -50.5t46.5 -166.5zM434 205 q0 94 -30.5 129t-108.5 35q-161 0 -161 -159q0 -87 36 -125.5t115 -38.5q82 0 115.5 35.5t33.5 123.5z" />
<glyph unicode="7" horiz-adv-x="460" d="M436 615l-293 -615h-62l295 613h-353v54h413v-52z" />
<glyph unicode="8" horiz-adv-x="569" d="M497 184q0 -97 -45 -143q-49 -49 -167 -49q-119 0 -167 49q-46 46 -46 143q0 70 21 107.5t68 54.5q-46 19 -64.5 55t-18.5 98q0 95 48 135t158 40q111 0 159 -40t48 -135q0 -63 -17.5 -98.5t-64.5 -54.5q47 -17 67.5 -54.5t20.5 -107.5zM432 497h1q0 72 -30.5 97.5 t-117.5 25.5q-88 0 -118.5 -25.5t-30.5 -95.5q0 -76 30 -100q38 -27 118 -27q83 0 119 27q29 22 29 98zM439 181q0 83 -37 112q-32 25 -117 25q-91 0 -123 -26t-32 -110q0 -82 33.5 -109t120.5 -27q86 0 120.5 27t34.5 108z" />
<glyph unicode="9" horiz-adv-x="562" d="M489 362q0 -164 -13 -233q-24 -137 -204 -137q-190 0 -190 151h56q0 -50 32.5 -73.5t100.5 -23.5q66 0 98.5 19t44.5 60q16 50 16 188q-54 -70 -159 -70q-109 0 -155.5 50.5t-46.5 166.5q0 110 50 162t156 52q73 0 123 -28.5t70 -82.5q21 -55 21 -201zM427 456 q0 87 -36 125.5t-115 38.5q-82 0 -115.5 -35.5t-33.5 -123.5q0 -94 30.5 -129t108.5 -35q82 0 121.5 39t39.5 120z" />
<glyph unicode=":" horiz-adv-x="213" d="M146 448q0 -40 -40 -40t-40 40t40 40t40 -40zM146 32q0 -40 -40 -40t-40 40t40 40t40 -40z" />
<glyph unicode=";" horiz-adv-x="213" d="M146 448q0 -40 -40 -40t-40 40t40 40t40 -40zM133 -11q0 -43 -8.5 -67t-35.5 -47l-30 -26l-34 34q40 35 47.5 49t7.5 57v81h53v-81z" />
<glyph unicode="&#x3c;" d="M527 52l-21 -52l-467 214v54l467 212l21 -52l-420 -186z" />
<glyph unicode="=" d="M521 311h-476v53h476v-53zM521 118h-476v53h476v-53z" />
<glyph unicode="&#x3e;" d="M527 214l-467 -214l-21 52l420 190l-420 186l21 52l467 -212v-54z" />
<glyph unicode="?" horiz-adv-x="425" d="M399 505q0 -63 -26.5 -100t-84.5 -62q-43 -19 -53 -38.5t-10 -72.5v-42h-57v58q0 55 18 86t44 42l50 22q26 11 44 36t18 71q0 65 -27 90t-100 25q-72 0 -101 -21.5t-29 -75.5h-55q0 82 45.5 116.5t137.5 34.5q96 0 141 -38.5t45 -130.5zM237 32q0 -40 -40 -40t-40 40 t40 40t40 -40z" />
<glyph unicode="@" horiz-adv-x="772" d="M694 380q0 -176 -51 -225q-26 -26 -59 -34q-29 -7 -72 -7h-11v42q-43 -48 -127 -48q-54 0 -88 14.5t-49.5 44.5t-20.5 61.5t-5 81.5q0 51 4.5 82t20 62t49.5 45.5t88 14.5q84 0 127 -48v41h50v-342h3q30 0 48 18q40 40 40 205q0 87 -11.5 125.5t-35.5 61.5 q-52 49 -203 49q-152 0 -203 -51q-56 -57 -56 -263q0 -221 53 -274q30 -30 77.5 -41.5t132.5 -11.5q88 0 145 17t85 72l45 -23q-19 -38 -50 -63t-72.5 -35.5t-76 -14t-81.5 -3.5q-98 0 -154.5 16t-94.5 54q-36 36 -49.5 112.5t-13.5 199.5q0 231 72 298q67 61 239 61 q180 0 245 -59q33 -30 46.5 -81t13.5 -154zM500 310q0 88 -29 120.5t-101 32.5q-67 0 -85.5 -35.5t-18.5 -117.5q0 -42 2.5 -64.5t12.5 -45.5t31.5 -32t58.5 -9q72 0 100.5 32t28.5 119z" />
<glyph unicode="A" horiz-adv-x="615" d="M593 0h-64l-75 197h-297l-74 -197h-62l258 667h56zM434 249l-128 344l-129 -344h257z" />
<glyph unicode="B" horiz-adv-x="649" d="M567 186q0 -101 -41 -140q-27 -27 -56.5 -35t-77.5 -10q-20 -1 -71 -1h-229v667h223q111 0 141 -6q78 -16 97 -90q8 -31 8 -73q0 -123 -72 -154q78 -35 78 -158zM503 491q0 26 -4.5 45.5t-9.5 32.5t-19 22t-22 13.5t-30 6.5t-32 3h-14h-24q-29 -1 -40 -1h-157v-244h164 h23q40 0 58.5 0.5t43.5 6.5t36 18.5t19 36.5t8 60zM508 184q0 76 -26 101q-20 20 -50.5 25.5t-118.5 5.5h-162v-262h162h19h46q15 0 38 2.5t33.5 7.5t24.5 14t19.5 23t10 34.5t4.5 48.5z" />
<glyph unicode="C" horiz-adv-x="641" d="M571 172q0 -99 -54.5 -139.5t-176.5 -40.5q-169 1 -222 83q-36 54 -39 189v69q0 151 16 207q26 91 117 118q51 16 128 16q122 0 176.5 -40.5t54.5 -139.5h-56q0 71 -38.5 97.5t-145.5 26.5q-122 0 -160 -54q-18 -28 -25.5 -72t-7.5 -159t7.5 -158.5t25.5 -71.5 q38 -55 160 -55q107 0 145.5 26.5t38.5 97.5h56z" />
<glyph unicode="D" horiz-adv-x="667" d="M587 333q0 -109 -8 -161t-31 -88q-30 -47 -79.5 -65.5t-143.5 -18.5h-233v667h233q93 0 143.5 -18.5t79.5 -65.5q23 -36 31 -88t8 -162zM528 333q0 103 -8 150.5t-27 75.5q-20 29 -57 41t-117 12h-168v-557h168q80 0 117.5 11.5t56.5 40.5q19 28 27 76t8 150z" />
<glyph unicode="E" horiz-adv-x="586" d="M509 0h-417v667h417v-54h-359v-244h349v-53h-349v-262h359v-54z" />
<glyph unicode="F" horiz-adv-x="561" d="M499 613h-348v-244h339v-54h-339v-315h-59v667h407v-54z" />
<glyph unicode="G" horiz-adv-x="666" d="M582 0h-53v69q-61 -77 -211 -77q-158 0 -206 89q-31 57 -33 199v53q0 41 0.5 61.5t2 54.5t5 51.5t9.5 43.5t16 40l24 30q14 18 33.5 26.5t44.5 17.5t57 12.5t71 3.5q122 0 181 -41t59 -139h-58q0 71 -42 97.5t-149 26.5q-123 0 -163 -55q-19 -27 -25.5 -70t-6.5 -160 q0 -115 7.5 -158.5t25.5 -71.5q38 -55 160 -55q123 0 166 63q18 25 24 66.5t6 133.5v5h-200v53h255v-187v-182z" />
<glyph unicode="H" horiz-adv-x="653" d="M560 0h-59v316h-350v-316h-59v667h59v-298h350v298h59v-667z" />
<glyph unicode="I" horiz-adv-x="244" d="M151 0h-59v667h59v-667z" />
<glyph unicode="J" horiz-adv-x="532" d="M443 208q0 -62 -4 -87q-11 -72 -62 -100.5t-135 -28.5q-104 0 -153.5 40t-49.5 139h56q0 -73 33.5 -98.5t113.5 -25.5q62 0 97.5 18t42.5 69q2 14 2 72v461h59v-459z" />
<glyph unicode="K" horiz-adv-x="575" d="M566 0h-85l-330 316v-316h-59v667h58v-298l336 298h79l-366 -320z" />
<glyph unicode="L" horiz-adv-x="512" d="M499 0h-407v667h59v-613h348v-54z" />
<glyph unicode="M" horiz-adv-x="823" d="M730 0h-56v569l-234 -569h-58l-234 568v-568h-56v667h72l248 -598l246 599h72v-668z" />
<glyph unicode="N" horiz-adv-x="651" d="M558 0h-67l-343 578v-578h-56v667h66l344 -577v577h56v-667z" />
<glyph unicode="O" horiz-adv-x="670" d="M590 335q0 -149 -13 -202q-24 -95 -114 -124q-51 -17 -128 -17q-167 0 -220 86q-34 56 -36 192v64q0 149 14 202q25 93 115 122q50 16 126 16q168 0 220 -84q34 -55 36 -188v-67zM531 334q0 117 -6.5 159t-25.5 69q-38 56 -165 56q-124 0 -164 -57q-19 -27 -25.5 -69.5 t-6.5 -158.5t6.5 -159t25.5 -70q39 -56 165 -56q125 0 164 57q19 27 25.5 69.5t6.5 159.5z" />
<glyph unicode="P" horiz-adv-x="612" d="M561 485q0 -44 -7 -76t-24 -52t-35 -32t-51 -17.5t-60 -7t-73 -1.5h-160v-299h-59v667h219q41 0 63 -0.5t53.5 -4t47.5 -10.5t35.5 -20t28.5 -32.5t15.5 -48t6.5 -66.5zM502 483q0 24 -2.5 43t-11.5 32l-14 24q-6 9 -22 15t-24.5 9.5t-31 5t-32.5 1.5h-36h-19h-158v-260 h158q96 0 122 7q62 18 70 96q1 13 1 27z" />
<glyph unicode="Q" horiz-adv-x="670" d="M590 334q0 -150 -15 -204q-25 -94 -116 -122q-24 -8 -53 -12l51 -115l-51 -22l-60 133q-43 0 -78 4.5t-61.5 12t-46.5 23t-33.5 29.5t-22.5 40t-14 45.5t-7.5 55.5t-3 61t-0.5 70q0 148 13 201q24 94 113 123q51 17 129 17q168 0 220 -85q34 -55 36 -190v-65zM531 333 q0 117 -6.5 159.5t-25.5 69.5q-38 56 -165 56q-124 0 -164 -57q-19 -27 -25.5 -70t-6.5 -159t6.5 -158.5t25.5 -69.5q39 -55 154 -56l-42 97l51 21l50 -116q85 8 116 55q19 27 25.5 69.5t6.5 158.5z" />
<glyph unicode="R" horiz-adv-x="648" d="M561 0h-58v164q0 39 -0.5 53.5t-6 33.5t-17.5 31t-35 17t-45 6t-73 1h-18h-157v-306h-59v667h219q43 0 65 -0.5t53.5 -4t47.5 -11t35 -21t28 -33.5t15 -49.5t6 -69.5q0 -113 -75 -144q15 -5 27.5 -13t20 -15.5t13.5 -21.5t8.5 -22.5t4 -25.5t1.5 -24v-24v-22v-166z M503 481q0 32 -5 55.5t-19 38t-25.5 22.5t-37.5 11.5t-41 4t-49 0.5h-17h-158v-253h164h25q40 0 58 0.5t43 6.5t35.5 18.5t18.5 36t8 59.5z" />
<glyph unicode="S" horiz-adv-x="641" d="M570 197q0 -107 -59 -156t-192 -49q-132 0 -190.5 41t-58.5 141h58q0 -72 41.5 -99t151.5 -27q109 0 149 32.5t40 111.5q0 83 -41 104q-5 3 -11 5t-14 4t-14.5 3t-16.5 2t-16.5 1.5t-19 0.5t-18.5 0.5t-20 0.5h-20q-115 2 -155 15q-88 28 -94 140v16q0 106 56.5 148 t190.5 42q131 0 188.5 -40.5t57.5 -139.5h-56q0 34 -10 57.5t-24.5 36.5t-41.5 20t-51.5 8.5t-64.5 1.5q-110 0 -148 -28t-38 -105q0 -76 42 -99q30 -16 150 -18q112 -2 150 -12q88 -25 98 -127q1 -15 1 -32z" />
<glyph unicode="T" horiz-adv-x="542" d="M514 613h-214v-613h-59v613h-214v54h487v-54z" />
<glyph unicode="U" horiz-adv-x="653" d="M564 336q0 -119 -2 -152q-1 -47 -14 -78q-43 -114 -222 -114q-178 0 -222 114q-11 31 -14 78q-2 66 -2 152v331h59v-331v-51v-47q0 -15 0.5 -38.5t2.5 -36t5.5 -26.5t9.5 -24q37 -65 161 -65q126 0 161 65q7 12 11 26.5t5.5 40t2.5 40.5v21.5v34.5q-1 41 -1 60v331h59 v-331z" />
<glyph unicode="V" d="M560 667l-250 -667h-56l-248 667h63l215 -591l215 591h61z" />
<glyph unicode="W" horiz-adv-x="875" d="M832 667l-171 -667h-63l-161 580l-161 -580h-66l-168 667h61l142 -574l161 574h63l160 -574l145 574h58z" />
<glyph unicode="X" horiz-adv-x="556" d="M527 0h-68l-182 291l-180 -291h-69l214 340l-208 327h68l175 -279l175 279h69l-209 -327z" />
<glyph unicode="Y" horiz-adv-x="530" d="M525 667l-231 -374v-293h-59v293l-231 374h67l195 -317l194 317h65z" />
<glyph unicode="Z" horiz-adv-x="604" d="M535 0h-467v53l398 560h-398v54h467v-54l-398 -559h398v-54z" />
<glyph unicode="[" horiz-adv-x="296" d="M261 -191h-206v997h206v-51h-150v-895h150v-51z" />
<glyph unicode="\" horiz-adv-x="522" d="M500 -84h-56l-423 839h56z" />
<glyph unicode="]" horiz-adv-x="296" d="M240 -191h-206v51h150v895h-150v51h206v-997z" />
<glyph unicode="^" d="M523 209l-52 -21l-190 420l-186 -420l-52 21l212 467h54z" />
<glyph unicode="_" horiz-adv-x="505" d="M503 -303h-501v55h501v-55z" />
<glyph unicode="`" horiz-adv-x="416" d="M306 541h-67l-130 126h67z" />
<glyph unicode="a" horiz-adv-x="534" d="M463 0h-55v54q-41 -62 -170 -62q-95 0 -140.5 34.5t-45.5 110.5q0 48 14 79t42.5 46t59 20.5t75.5 5.5h161v16v14v16q0 5 -0.5 15.5t-2 16t-4 13.5t-6.5 14.5t-10 11.5q-28 28 -117 28q-33 0 -52.5 -2t-44 -10t-36.5 -27t-12 -50h-54q0 80 53 112t154 32q168 0 187 -117 q4 -21 4 -95v-276zM404 236h-165q-68 0 -98 -19t-30 -79q0 -50 27.5 -72t96.5 -22q58 0 92.5 11t51 38.5t21 57.5t4.5 85z" />
<glyph unicode="b" horiz-adv-x="556" d="M492 241q0 -50 -3 -82.5t-14 -67t-32 -54t-58 -32.5t-90 -13q-112 0 -160 66v-58h-56v697h58v-271q50 62 158 62q54 0 92 -14t58.5 -34t31 -56t13 -65.5t2.5 -77.5zM434 239q0 104 -25.5 149t-108.5 45q-93 0 -128.5 -41t-35.5 -153t35.5 -151.5t128.5 -39.5 q83 0 108.5 43.5t25.5 147.5z" />
<glyph unicode="c" horiz-adv-x="522" d="M466 136q0 -144 -194 -144q-56 0 -94.5 12t-61 31t-34.5 53t-15.5 67t-3.5 84t3.5 84.5t15.5 67.5t34.5 53.5t61 31.5t94.5 12q194 0 194 -144h-54q0 29 -11.5 47.5t-34 27t-43.5 11.5t-50 3q-42 0 -70.5 -8.5t-44.5 -22t-24.5 -40.5t-10.5 -52t-2 -69t2 -69.5 t10.5 -52.5t24.5 -40.5t44.5 -22t70.5 -8.5q29 0 50 2.5t43.5 11t34 27t11.5 47.5h54z" />
<glyph unicode="d" horiz-adv-x="556" d="M476 0h-56v58q-48 -66 -160 -66q-53 0 -90 12.5t-57.5 32.5t-32 54.5t-14.5 67t-3 82.5q0 48 2.5 77.5t13 65.5t31 56t58.5 34t92 14q110 0 158 -62v271h58v-697zM419 239q0 113 -35.5 153.5t-128.5 40.5q-83 0 -108.5 -45t-25.5 -149t25.5 -147.5t108.5 -43.5 q94 0 129 39.5t35 151.5z" />
<glyph unicode="e" horiz-adv-x="536" d="M472 226h-351q0 -100 28 -140t123 -40q28 0 49.5 3t43.5 11.5t34 27.5t12 48h54q0 -144 -194 -144q-67 0 -109.5 15.5t-63.5 50.5t-28 75t-7 105t7 106.5t28.5 76.5t63 51t106.5 16q57 0 96 -13t60 -32t32 -57t13.5 -70.5t2.5 -89.5zM416 279q0 88 -31 122t-117 34 q-82 0 -114 -36.5t-32 -119.5h294z" />
<glyph unicode="f" horiz-adv-x="444" d="M433 595h-57q-3 31 -28.5 42.5t-72.5 11.5q-57 0 -83.5 -18t-26.5 -69v-82h190v-52h-190v-428h-58v428h-81v52h81v82q0 142 166 142q157 0 160 -109z" />
<glyph unicode="g" horiz-adv-x="556" d="M476 45q0 -89 -4 -111q-19 -128 -207 -128q-86 0 -138 32t-52 102h56q0 -81 131 -81q141 0 153 90q2 16 3 37v20.5v17.5q-1 6 -1 12q0 12 1 26q-49 -63 -157 -63q-53 0 -90 12.5t-58 31.5t-32.5 53.5t-14.5 66.5t-3 82q0 60 6 97.5t25 74t60 54t105 17.5q113 0 161 -62 v54h56v-435zM419 243q0 109 -35.5 149.5t-128.5 40.5q-84 0 -109 -43t-25 -147q0 -102 25.5 -145t108.5 -43q93 0 128.5 39t35.5 149z" />
<glyph unicode="h" horiz-adv-x="538" d="M467 0h-58v253v24v41q0 13 -2 33.5t-7 29.5t-13.5 21.5t-21.5 17.5t-33 9t-46 4q-31 0 -55 -6.5t-40 -15.5t-26.5 -27.5t-16 -32t-8 -41.5t-3 -43t-0.5 -48v-219h-58v697h58v-271q49 62 153 62q33 0 59 -4.5t44 -13t31.5 -20.5t21 -26.5t13 -31.5t6.5 -36l2 -39 q1 -10 1 -20.5t-1 -20.5v-23v-253z" />
<glyph unicode="i" horiz-adv-x="217" d="M147 636q0 -39 -39 -39q-38 0 -38 39q0 38 38 38q39 0 39 -38zM137 0h-58v480h58v-480z" />
<glyph unicode="j" horiz-adv-x="217" d="M147 636q0 -39 -39 -39q-38 0 -38 39q0 38 38 38q39 0 39 -38zM138 -46q0 -68 -36 -104q-46 -44 -132 -44q-73 0 -116 30.5t-44 93.5h56q0 -5 0.5 -10t6 -17.5t15.5 -21.5t31.5 -16t50.5 -7q59 0 91 32q5 5 8 10t5 12l4 12q1 5 1.5 14t0.5 13v14v12v503h58v-526z" />
<glyph unicode="k" horiz-adv-x="470" d="M464 0h-81l-246 232v-232h-58v697h58v-411l244 199h80l-278 -225z" />
<glyph unicode="l" horiz-adv-x="217" d="M137 0h-58v697h58v-697z" />
<glyph unicode="m" horiz-adv-x="806" d="M735 0h-58v292q0 28 -0.5 41.5t-3.5 33.5t-9.5 29t-18.5 19.5t-30.5 14t-45.5 3.5q-32 0 -56 -8t-38 -25.5t-22.5 -33.5t-12 -45.5t-4 -46.5t-0.5 -51v-8v-215h-58v292q0 28 -0.5 41.5t-3.5 33.5t-9.5 29t-18.5 19.5t-30.5 14t-45.5 3.5q-28 0 -49.5 -7t-35.5 -17 t-23.5 -29t-14 -33.5t-7 -40.5t-3 -41t-0.5 -44v-8v-213h-58v480h56v-56q43 64 144 64q111 0 142 -77q50 77 156 77q114 0 145 -76q13 -32 13 -122v-290z" />
<glyph unicode="n" horiz-adv-x="538" d="M467 0h-58v253v24v41q0 13 -2 33.5t-7 29.5t-13.5 21.5t-21.5 17.5t-33 9t-46 4q-31 0 -55 -6.5t-40 -15.5t-26.5 -27.5t-16 -32t-8 -41.5t-3 -43t-0.5 -48v-219h-58v480h56v-56q48 64 155 64q33 0 59 -4.5t44 -13t31.5 -20.5t21 -26.5t13 -31.5t6.5 -36l2 -39 q1 -10 1 -20.5t-1 -20.5v-23v-253z" />
<glyph unicode="o" horiz-adv-x="552" d="M488 240q0 -80 -10 -124t-36 -71q-52 -53 -166 -53t-167 53q-26 27 -36 71.5t-10 123.5t10 123.5t36 71.5q53 53 167 53t166 -53q26 -27 36 -71t10 -124zM430 242q0 56 -4 85.5t-18.5 57t-46.5 38t-85 10.5q-44 0 -73.5 -9t-45.5 -22t-24 -40.5t-10 -51.5t-2 -68 q0 -56 3.5 -84.5t18 -57.5t47 -40.5t86.5 -11.5q32 0 55.5 4.5t40 12t27.5 22t17 27.5t9.5 36.5t4 41.5t0.5 50z" />
<glyph unicode="p" horiz-adv-x="556" d="M492 239q0 -48 -2.5 -77.5t-13 -65.5t-31 -56t-58.5 -34t-92 -14q-108 0 -158 62v-245h-58v671h56v-58q48 66 160 66q53 0 90 -13t58 -32.5t32 -54t14 -67t3 -82.5zM434 240q0 104 -25.5 148.5t-108.5 44.5q-93 0 -128.5 -40.5t-35.5 -152.5t35.5 -152t128.5 -40 q83 0 108.5 44t25.5 148z" />
<glyph unicode="q" horiz-adv-x="556" d="M476 -191h-58v245q-48 -62 -158 -62q-54 0 -92 14t-58.5 34t-31 56t-13 65.5t-2.5 77.5q0 50 3 82.5t14.5 67t32 54.5t57.5 32.5t90 12.5q112 0 160 -66v58h56v-671zM419 240q0 113 -35 153t-129 40q-83 0 -108.5 -44.5t-25.5 -148.5t25.5 -148t108.5 -44q94 0 129 40 t35 152z" />
<glyph unicode="r" horiz-adv-x="442" d="M428 348h-54q0 49 -23 67t-81 18q-28 0 -49.5 -7.5t-35.5 -17t-23.5 -29t-14.5 -33.5t-7.5 -41t-2.5 -40v-42v-15v-208h-58v480h56v-56q47 64 146 64q147 0 147 -140z" />
<glyph unicode="s" horiz-adv-x="508" d="M451 137q0 -79 -49 -112t-153 -33q-100 0 -146 33t-46 111h54q0 -50 29.5 -69t107.5 -19q80 0 112.5 19t32.5 63q0 59 -22 70.5t-113 14.5q-94 3 -122 12q-69 27 -71 120q0 79 49 110t153 31q92 0 138 -32t46 -112h-54q0 49 -28.5 69.5t-100.5 20.5q-81 0 -113 -18 t-32 -61q0 -15 1 -26t5 -19.5t6 -14t11 -9.5t12.5 -6.5t18 -4t19.5 -1.5t25.5 -1t28.5 -1t37.5 -1t38 -2t32.5 -4.5t32 -8.5l24 -15q15 -10 20.5 -23.5t11 -34t5.5 -46.5z" />
<glyph unicode="t" horiz-adv-x="454" d="M424 136q0 -144 -161 -144q-80 0 -118 34.5t-38 108.5v293h-81v52h81v187h58v-187h219v-52h-219v-293q0 -51 23 -71t77 -20q57 0 81 21.5t24 70.5h54z" />
<glyph unicode="u" horiz-adv-x="538" d="M459 0h-56v56q-48 -64 -155 -64q-37 0 -66 7t-47.5 15.5t-31.5 27t-19 31.5t-9.5 40.5t-3.5 40.5v45v18v263h58v-253v-24q0 -38 0.5 -55.5t6.5 -41.5t18.5 -34t36.5 -18t61 -8q31 0 55 6.5t40 15.5t26.5 28t16 32.5t8 41t3 43t0.5 48.5v219h58v-480z" />
<glyph unicode="v" horiz-adv-x="462" d="M447 480l-187 -480h-58l-188 480h61l157 -411l154 411h61z" />
<glyph unicode="w" horiz-adv-x="698" d="M673 480l-145 -480h-61l-119 401l-118 -401h-61l-145 480h60l116 -399l119 399h58l121 -398l115 398h60z" />
<glyph unicode="x" horiz-adv-x="462" d="M443 0h-71l-143 202l-144 -202h-67l178 245l-171 235h71l136 -192l138 192h67l-172 -234z" />
<glyph unicode="y" horiz-adv-x="429" d="M417 480l-252 -670h-60l75 197l-176 473h61l146 -403l145 403h61z" />
<glyph unicode="z" horiz-adv-x="479" d="M428 0h-378v47l306 381h-306v52h378v-47l-305 -380h305v-53z" />
<glyph unicode="{" horiz-adv-x="367" d="M329 -191q-85 0 -122 37q-29 28 -38.5 63t-9.5 96v185q0 13 -21.5 30.5t-43 39.5t-21.5 47q0 27 30 57l54 54q1 0 1 3v209q0 61 10 96t38 63q38 37 123 37v-51q-59 0 -85 -26q-29 -28 -29 -118v-202q0 -17 -9.5 -35t-18 -27.5t-28.5 -28t-24 -22.5q-10 -9 -1 -18l56 -53 q24 -23 24 -61v-180q0 -89 30 -119q26 -25 85 -25v-51z" />
<glyph unicode="|" horiz-adv-x="286" d="M171 -191h-56v858h56v-858z" />
<glyph unicode="}" horiz-adv-x="367" d="M294 307q0 -20 -13.5 -38.5t-29 -29.5t-29 -24.5t-13.5 -24.5v-185q0 -61 -10 -96t-38 -63q-38 -37 -123 -37v51q59 0 84 25q30 29 30 119v180q0 37 24 61l56 53q10 9 1 18q-5 5 -19.5 18t-22.5 21t-18 21t-15 26t-5 27v202q0 89 -29 118q-27 26 -86 26v51q85 0 122 -37 q29 -28 38.5 -62.5t9.5 -96.5v-209q0 -2 1 -3l54 -54q31 -28 31 -57z" />
<glyph unicode="~" d="M531 254l-80 -58q-33 -25 -77 -26h-4q-41 0 -74 23q-54 39 -76 47q-13 4 -25 4q-26 0 -51 -17l-78 -55l-31 47l81 58q35 24 78 26h6q39 0 70 -22q1 -1 14 -10l14 -11q2 -1 13.5 -8.5t15.5 -8.5t14.5 -6t15.5 -5t15 -1.5t17 1t15.5 6t17.5 9.5l79 54z" />
<glyph unicode="&#xa1;" horiz-adv-x="285" d="M182 448q0 -40 -40 -40t-40 40t40 40t40 -40zM171 -187h-57v477h57v-477z" />
<glyph unicode="&#xa2;" horiz-adv-x="522" d="M466 136q0 -134 -168 -143v-88h-54v88q-90 6 -135 52q-26 27 -36 71.5t-10 124.5q0 79 10 123t36 71q45 46 135 52v88h54v-88q168 -9 168 -143h-54q0 83 -114 89v-386q114 6 114 89h54zM244 47v386q-34 -3 -56.5 -13t-36 -24t-20 -40t-8.5 -50.5t-2 -64.5 q0 -100 22 -143.5t101 -50.5z" />
<glyph unicode="&#xa3;" d="M520 0h-460v54h56v253h-56v53h56v98v18v21q0 3 0.5 18.5t1.5 21t3 18.5t5 20l7 17q4 10 10 17.5t13 14.5q52 50 159 50q33 0 56 -2t52 -10.5t46 -23.5t29.5 -44.5t12.5 -70.5h-56q0 60 -32 78.5t-98 18.5q-95 0 -128 -37q-6 -6 -10 -14t-6.5 -17.5t-4 -16.5t-2 -19.5 t-0.5 -17.5v-20v-17v-101h292v-53h-292v-253h346v-54z" />
<glyph unicode="&#xa4;" d="M509 144q0 -85 -49 -118.5t-144 -33.5q-155 0 -195 113q-14 43 -15 148h-52v53h52v56h-52v53h52q1 121 24 168q46 91 186 91q92 0 142.5 -33t50.5 -118h-57q0 58 -34.5 77.5t-101.5 19.5q-63 0 -94.5 -18.5t-44.5 -59.5q-12 -39 -13 -127h182v-53h-182v-56h182v-53h-182 q1 -104 18 -144q15 -32 45 -46.5t88 -14.5q69 0 103 19t34 77h57z" />
<glyph unicode="&#xa5;" horiz-adv-x="538" d="M521 667l-150 -252h84v-52h-115l-33 -56h148v-52h-157v-255h-58v255h-157v52h149l-34 56h-115v52h84l-151 252h67l188 -318l185 318h65z" />
<glyph unicode="&#xa6;" horiz-adv-x="287" d="M171 361h-56v306h56v-306zM171 -191h-56v306h56v-306z" />
<glyph unicode="&#xa7;" horiz-adv-x="566" d="M475 49q0 -89 -47.5 -121t-138.5 -33h-6q-100 0 -146 33q-47 33 -47 118h56q0 -55 30 -76q29 -19 105 -19h8q64 0 96 18t32 80q0 28 -8 46.5t-17 27.5t-31.5 13.5t-36 5t-45.5 0.5q-58 0 -91 6t-58 28q-40 34 -40 109q0 88 60 114q-60 28 -60 121q0 89 47.5 121t138.5 33 h6q100 0 146 -32q46 -33 47 -119h-56q0 56 -30 77q-29 20 -106 20h-7q-64 0 -96 -19t-32 -81q0 -28 8 -46.5t17 -27.5t31.5 -13.5t36 -5t45.5 -0.5q58 0 91 -6t58 -28q40 -34 40 -109q0 -88 -60 -114q60 -28 60 -121zM417 284q0 26 -7.5 43.5t-18 27t-31 14t-36 5.5t-43.5 1 q-34 0 -53 -2t-40 -10t-30.5 -27.5t-9.5 -50.5q0 -26 7.5 -43.5t18 -27t31 -14t36 -5.5t43.5 -1q27 0 42.5 1t35 5.5t30 14t18 27t7.5 42.5z" />
<glyph unicode="&#xa8;" horiz-adv-x="420" d="M357 629q0 -40 -40 -40t-40 40t40 40t40 -40zM142 629q0 -40 -40 -40t-40 40t40 40t40 -40z" />
<glyph unicode="&#xa9;" horiz-adv-x="830" d="M750 334q0 -112 -17 -173t-56 -99t-101 -54t-162 -16q-99 0 -161 16t-102 54q-38 38 -55 99.5t-17 174.5q0 112 17 173t55 99q39 37 100.5 51.5t162.5 14.5q102 0 163.5 -14.5t99.5 -51.5q39 -37 56 -99t17 -175zM696 337q0 103 -13 153.5t-43 79.5q-56 54 -226 54 q-169 0 -226 -54q-29 -29 -42 -81t-13 -156q0 -103 12.5 -153.5t42.5 -79.5q61 -58 226 -58q166 0 226 58q30 29 43 81t13 156zM612 249q0 -33 -4 -47q-22 -106 -192 -106q-117 0 -165 51q-26 28 -35.5 67.5t-9.5 119.5q0 79 9.5 118t35.5 67q49 52 165 52q35 0 62.5 -4 t56 -14t47.5 -32t26 -55q4 -16 4 -47h-53q0 51 -19 68q-34 34 -123 34q-90 0 -126 -38q-17 -18 -23.5 -48t-6.5 -101q0 -72 6.5 -102t23.5 -48q36 -38 126 -38q88 0 123 35q19 17 19 68h53z" />
<glyph unicode="&#xaa;" horiz-adv-x="384" d="M341 336h-41v41q-24 -23 -51 -34.5t-74 -11.5q-70 0 -103 23t-33 77q0 64 36.5 85.5t104.5 21.5h113v2q0 55 -17 71q-18 18 -82 18q-98 0 -98 -54h-47q0 99 151 99q125 0 139 -83q2 -10 2 -63v-192zM292 494h-115q-45 0 -67.5 -12t-22.5 -50q0 -32 18 -44.5t68 -12.5 q85 0 107 48q11 21 12 46v25z" />
<glyph unicode="&#xab;" horiz-adv-x="452" d="M407 404q-3 -4 -21 -21.5t-26.5 -26.5t-23.5 -27t-23 -31t-14.5 -29.5t-6.5 -30.5t6.5 -30.5t13 -28.5t22.5 -30.5t23 -26t27 -26.5l21 -21l-37 -37l-22 22l-28 27l-22 25q-18 20 -24 31t-16.5 28.5t-14 33.5t-3.5 32q0 19 7.5 39.5t15 35.5t26 38t26.5 32t31 33l26 27z M218 404q-3 -4 -21 -21.5t-26.5 -26.5t-23.5 -27t-23 -31t-14.5 -29.5t-6.5 -30.5t6.5 -30.5t13 -28.5t22.5 -30.5t23 -26t26 -26.5l22 -21l-37 -37l-23 22q-21 21 -26 27l-24 25q-17 20 -23 31t-16.5 28.5t-14 33.5t-3.5 32q0 19 7.5 39.5t15 35.5t26 38t26.5 32t31 33 l26 27z" />
<glyph unicode="&#xac;" d="M521 0h-56v311h-420v53h476v-364z" />
<glyph unicode="&#xad;" horiz-adv-x="485" d="M394 214h-304v53h304v-53z" />
<glyph unicode="&#xae;" horiz-adv-x="536" d="M493 448q0 -74 -10.5 -115t-35.5 -65q-47 -47 -179 -47t-180 47q-46 46 -46 181t46 181q45 44 180 44t179 -44q25 -24 35.5 -65.5t10.5 -116.5zM454 450q0 68 -8 101t-27 51q-33 35 -151 35q-117 0 -152 -35q-34 -34 -34 -155q0 -118 34 -152q38 -36 152 -36 q115 0 151 36q35 34 35 155zM372 308h-39v81q0 25 -7 35t-29 11q-9 1 -34 1h-54v-128h-40v285h97q35 0 51 -3q55 -10 55 -77q0 -38 -29 -59q29 -19 29 -63v-83zM333 514q0 28 -8 35q-6 6 -16 7.5t-46 1.5h-55v-88h58q44 0 52 4q15 7 15 40z" />
<glyph unicode="&#xaf;" horiz-adv-x="420" d="M377 607h-333v50h333v-50z" />
<glyph unicode="&#xb0;" horiz-adv-x="568" d="M433 524q0 -80 -35.5 -117t-113.5 -37q-77 0 -113.5 37t-36.5 117q0 79 36 114.5t114 35.5t113.5 -35t35.5 -115zM378 522q0 57 -19 79t-75 22t-75.5 -22t-19.5 -79t19.5 -78.5t75.5 -21.5t75 21.5t19 78.5z" />
<glyph unicode="&#xb1;" d="M522 240h-212v-188h-56v188h-211v53h211v187h56v-187h212v-53zM533 -53h-500v53h500v-53z" />
<glyph unicode="&#xb2;" horiz-adv-x="400" d="M319 558q0 -26 -6.5 -45.5t-15 -31t-27.5 -21.5t-31.5 -14t-40.5 -12q-9 -3 -14 -4q-28 -8 -36.5 -11t-21.5 -11.5t-16 -21t-3 -33.5v-39h211v-44h-261v93q0 23 7 40.5t15 28t27.5 20t29.5 13t36.5 11t34.5 9.5q36 11 49.5 25.5t13.5 47.5q0 41 -18 56t-64 15 q-44 0 -63.5 -10.5t-19.5 -44.5h-49q0 55 33.5 77.5t97.5 22.5q67 0 99.5 -26t32.5 -90z" />
<glyph unicode="&#xb3;" horiz-adv-x="400" d="M325 382q0 -58 -30 -87q-30 -30 -107 -30q-65 0 -98.5 23t-33.5 80h48q1 -33 19.5 -45.5t64.5 -12.5q52 0 70 12.5t18 58.5q0 47 -17.5 60.5t-68.5 13.5h-69v45h69q45 0 63.5 11t18.5 51q0 39 -16 53t-66 14q-46 0 -64.5 -12.5t-19.5 -45.5h-47q0 56 33 79.5t98 23.5 q69 0 100 -25.5t31 -84.5q0 -36 -8 -56t-32 -31q24 -11 34 -32t10 -63z" />
<glyph unicode="&#xb4;" horiz-adv-x="420" d="M308 667l-129 -126h-67l129 126h67z" />
<glyph unicode="&#xb5;" horiz-adv-x="547" d="M468 0h-56v56q-48 -64 -155 -64q-79 0 -119 38v-221h-59v671h59v-253v-18q0 -31 0.5 -45.5t2.5 -36t6.5 -30.5t13 -21t22 -16.5t32.5 -8t45 -3.5q32 0 56 6.5t39.5 15t26.5 27.5t16 32t7.5 41t3 42.5t0.5 48.5v219h59v-480z" />
<glyph unicode="&#xb6;" horiz-adv-x="564" d="M452 0h-56v613h-56v-613h-56v303h-26h-28q-6 0 -25.5 1t-27.5 2.5t-24 5t-26 8.5t-22 12.5t-22 17.5q-40 39 -40 134q0 156 121 178q29 5 124 5h164v-667zM284 358v255h-17q-39 0 -58 -1t-44.5 -7.5t-36.5 -19.5t-19.5 -37t-8.5 -61q0 -27 4 -47.5t9.5 -34.5t19.5 -23 t24 -14t33 -7t37.5 -2.5t46.5 -0.5h10z" />
<glyph unicode="&#xb7;" horiz-adv-x="213" d="M146 335q0 -40 -40 -40t-40 40t40 40t40 -40z" />
<glyph unicode="&#xb8;" horiz-adv-x="420" d="M283 -116q0 -75 -79 -75q-43 0 -62 15.5t-19 51.5h39q0 -19 8.5 -25.5t31.5 -6.5q24 0 31.5 9.5t7.5 29.5q0 7 -2 13t-4 10t-7.5 6.5t-8.5 4t-10.5 2t-10.5 0.5h-12h-11v81h42v-49q33 0 49.5 -18t16.5 -49z" />
<glyph unicode="&#xb9;" horiz-adv-x="400" d="M292 267h-231v43h90v291l-66 -59l-29 32l103 93h42v-357h91v-43z" />
<glyph unicode="&#xba;" horiz-adv-x="384" d="M347 503q0 -55 -7 -85t-27 -49q-36 -37 -121 -37t-122 37q-19 19 -26 49t-7 85t7 85t26 49q37 37 122 37t121 -37q20 -19 27 -49t7 -85zM299 503q0 81 -22 103q-21 23 -85 23q-71 0 -89 -26t-18 -100t18 -100t89 -26q70 0 88.5 26.5t18.5 99.5z" />
<glyph unicode="&#xbb;" horiz-adv-x="452" d="M402 237q0 -16 -3.5 -32t-14 -33.5t-16.5 -28.5t-24 -31l-22 -25l-28 -27l-22 -22l-37 37l21 21q20 19 27 26.5t23 26t22.5 30.5t13 28.5t6.5 30.5t-6.5 30.5t-14.5 29.5t-23 31t-23.5 27t-26.5 26.5t-21 21.5l37 38l26 -27q23 -24 31 -33t26.5 -32t26 -38t15 -35.5 t7.5 -39.5zM213 237q0 -16 -3.5 -32t-14 -33.5t-16.5 -28.5t-23 -31l-24 -25q-5 -6 -26 -27l-23 -22l-37 37l22 21q19 19 26 26.5t23 26t22.5 30.5t13 28.5t6.5 30.5t-6.5 30.5t-14.5 29.5t-23 31t-23.5 27t-26.5 26.5t-21 21.5l37 38l26 -27q23 -24 31 -33t26.5 -32t26 -38 t15 -35.5t7.5 -39.5z" />
<glyph unicode="&#xbc;" horiz-adv-x="795" d="M718 105h-61v-105h-48v105h-182v41l186 254h44v-254h61v-41zM600 667l-337 -667h-52l336 667h53zM292 267h-231v43h90v291l-66 -59l-29 32l103 93h42v-357h91v-43zM609 146v180l-127 -180h127z" />
<glyph unicode="&#xbd;" horiz-adv-x="795" d="M758 288q0 -26 -6.5 -45.5t-15 -31t-27.5 -21.5t-31.5 -14t-40.5 -12q-9 -3 -14 -4q-28 -8 -36.5 -11t-21.5 -11.5t-16 -21t-3 -33.5v-39h211v-44h-261v93q0 23 7 40.5t15 28t27.5 20t29.5 13t36.5 11t34.5 9.5q36 11 49.5 25.5t13.5 47.5q0 41 -18 56t-64 15 q-44 0 -63.5 -10.5t-19.5 -44.5h-49q0 55 33.5 77.5t97.5 22.5q67 0 99.5 -26t32.5 -90zM600 667l-337 -667h-52l336 667h53zM292 267h-231v43h90v291l-66 -59l-29 32l103 93h42v-357h91v-43z" />
<glyph unicode="&#xbe;" horiz-adv-x="795" d="M718 105h-61v-105h-48v105h-182v41l186 254h44v-254h61v-41zM600 667l-337 -667h-52l336 667h53zM325 382q0 -58 -30 -87q-30 -30 -107 -30q-65 0 -98.5 23t-33.5 80h48q1 -33 19.5 -45.5t64.5 -12.5q52 0 70 12.5t18 58.5q0 47 -17.5 60.5t-68.5 13.5h-69v45h69 q45 0 63.5 11t18.5 51q0 39 -16 53t-66 14q-46 0 -64.5 -12.5t-19.5 -45.5h-47q0 56 33 79.5t98 23.5q69 0 100 -25.5t31 -84.5q0 -36 -8 -56t-32 -31q24 -11 34 -32t10 -63zM609 146v180l-127 -180h127z" />
<glyph unicode="&#xbf;" horiz-adv-x="425" d="M273 448q0 -40 -40 -40q-41 0 -41 40t40 40q41 0 41 -40zM400 -43q0 -82 -45.5 -116.5t-137.5 -34.5q-96 0 -141.5 39t-45.5 130q0 63 27 100t84 62q44 19 53.5 38.5t9.5 72.5v42h58v-58q0 -55 -18 -86t-44 -42l-52 -22q-25 -11 -43 -36t-18 -71q0 -65 27.5 -90t99.5 -25 t101 21.5t29 75.5h56z" />
<glyph unicode="&#xc0;" horiz-adv-x="615" d="M593 0h-64l-75 197h-297l-74 -197h-62l258 667h56zM434 249l-128 344l-129 -344h257zM388 736h-67l-130 126h67z" />
<glyph unicode="&#xc1;" horiz-adv-x="615" d="M593 0h-64l-75 197h-297l-74 -197h-62l258 667h56zM434 249l-128 344l-129 -344h257zM422 862l-129 -126h-67l129 126h67z" />
<glyph unicode="&#xc2;" horiz-adv-x="615" d="M593 0h-64l-75 197h-297l-74 -197h-62l258 667h56zM434 249l-128 344l-129 -344h257zM461 736h-67l-87 83l-87 -83h-68l133 126h42z" />
<glyph unicode="&#xc3;" horiz-adv-x="615" d="M593 0h-64l-75 197h-297l-74 -197h-62l258 667h56zM434 249l-128 344l-129 -344h257zM489 817l-62 -33q-31 -17 -60 -17t-56 16l-18 11q-13 8 -19.5 11t-17 6.5t-21 1.5t-22.5 -8l-66 -35l-24 45q5 3 23 13t25 13.5t23 10.5t26.5 8.5t25.5 2.5h5q12 0 23 -3q13 -4 27 -12 q2 -1 14.5 -8.5t16.5 -9.5t15 -6.5t17.5 -4.5t16.5 1.5t19 6.5l65 35z" />
<glyph unicode="&#xc4;" horiz-adv-x="614" d="M593 0h-64l-75 197h-297l-74 -197h-62l258 667h56zM434 249l-128 344l-129 -344h257zM453 824q0 -40 -40 -40t-40 40t40 40t40 -40zM238 824q0 -40 -40 -40t-40 40t40 40t40 -40z" />
<glyph unicode="&#xc5;" horiz-adv-x="615" d="M593 0h-64l-75 197h-297l-74 -197h-62l241 625q-73 12 -73 114q0 60 27 84t91 24t91.5 -26.5t27.5 -87.5q0 -99 -74 -109zM375 732q0 42 -13 55.5t-55 13.5t-54.5 -13.5t-12.5 -55.5q0 -41 12.5 -53t55.5 -12q42 0 54.5 12.5t12.5 52.5zM434 249l-128 344l-129 -344h257z " />
<glyph unicode="&#xc6;" horiz-adv-x="909" d="M832 0h-376v202h-251l-135 -202h-66l445 667h383v-54h-318v-244h308v-53h-308v-262h318v-54zM456 254v329l-218 -329h218z" />
<glyph unicode="&#xc7;" horiz-adv-x="641" d="M571 172q0 -95 -50.5 -136t-163.5 -44v-42q32 0 48.5 -18t16.5 -49q0 -38 -18 -56.5t-61 -18.5q-42 0 -61 15.5t-19 51.5h39q0 -19 8.5 -25.5t31.5 -6.5q24 0 31 9.5t7 29.5q0 7 -2 13t-4 10t-7.5 6.5t-8.5 4t-10.5 2t-10.5 0.5h-11h-11v74q-154 7 -202 90 q-32 55 -34 191v60q0 151 16 207q26 91 117 118q51 16 128 16q122 0 176.5 -40.5t54.5 -139.5h-56q0 71 -38.5 97.5t-145.5 26.5q-122 0 -160 -54q-18 -28 -25.5 -72t-7.5 -159t7.5 -158.5t25.5 -71.5q38 -55 160 -55q107 0 145.5 26.5t38.5 97.5h56z" />
<glyph unicode="&#xc8;" horiz-adv-x="586" d="M509 0h-417v667h417v-54h-359v-244h349v-53h-349v-262h359v-54zM379 736h-67l-130 126h67z" />
<glyph unicode="&#xc9;" horiz-adv-x="586" d="M509 0h-417v667h417v-54h-359v-244h349v-53h-349v-262h359v-54zM408 862l-129 -126h-67l129 126h67z" />
<glyph unicode="&#xca;" horiz-adv-x="586" d="M509 0h-417v667h417v-54h-359v-244h349v-53h-349v-262h359v-54zM464 736h-67l-87 83l-87 -83h-68l133 126h42z" />
<glyph unicode="&#xcb;" horiz-adv-x="586" d="M509 0h-417v667h417v-54h-359v-244h349v-53h-349v-262h359v-54zM443 823q0 -40 -40 -40t-40 40t40 40t40 -40zM228 823q0 -40 -40 -40t-40 40t40 40t40 -40z" />
<glyph unicode="&#xcc;" horiz-adv-x="274" d="M169 0h-59v667h59v-667zM232 736h-67l-129 126h67z" />
<glyph unicode="&#xcd;" horiz-adv-x="274" d="M169 0h-59v667h59v-667zM244 862l-129 -126h-67l129 126h67z" />
<glyph unicode="&#xce;" horiz-adv-x="274" d="M169 0h-59v667h59v-667zM293 736h-67l-87 83l-87 -83h-67l133 126h42z" />
<glyph unicode="&#xcf;" horiz-adv-x="274" d="M169 0h-59v667h59v-667zM287 824q0 -40 -40 -40t-40 40t40 40t40 -40zM72 824q0 -40 -40 -40t-40 40t40 40t40 -40z" />
<glyph unicode="&#xd0;" horiz-adv-x="690" d="M610 333q0 -109 -8 -161t-31 -88q-30 -47 -79.5 -65.5t-143.5 -18.5h-233v309h-81v53h81v305h233q93 0 143.5 -18.5t79.5 -65.5q23 -36 31 -88t8 -162zM551 333q0 104 -8 151.5t-27 74.5q-20 29 -57 41t-117 12h-168v-250h181v-53h-181v-254h168q80 0 117.5 11.5 t56.5 40.5q19 28 27 76t8 150z" />
<glyph unicode="&#xd1;" horiz-adv-x="651" d="M558 0h-67l-343 578v-578h-56v667h66l344 -577v577h56v-667zM508 817l-62 -33q-31 -17 -60 -17t-56 16l-18 11q-13 8 -19.5 11t-17 6.5t-21 1.5t-22.5 -8l-66 -35l-24 45q5 3 23 13t25 13.5t23 10.5t26.5 8.5t25.5 2.5h5q12 0 23 -3q13 -4 27 -12q2 -1 14.5 -8.5 t16.5 -9.5t15 -6.5t17.5 -4.5t16.5 1.5t19 6.5l65 35z" />
<glyph unicode="&#xd2;" horiz-adv-x="670" d="M590 335q0 -149 -13 -202q-24 -95 -114 -124q-51 -17 -128 -17q-167 0 -220 86q-34 56 -36 192v64q0 149 14 202q25 93 115 122q50 16 126 16q168 0 220 -84q34 -55 36 -188v-67zM531 334q0 117 -6.5 159t-25.5 69q-38 56 -165 56q-124 0 -164 -57q-19 -27 -25.5 -69.5 t-6.5 -158.5t6.5 -159t25.5 -70q39 -56 165 -56q125 0 164 57q19 27 25.5 69.5t6.5 159.5zM436 736h-67l-130 126h67z" />
<glyph unicode="&#xd3;" horiz-adv-x="670" d="M590 335q0 -149 -13 -202q-24 -95 -114 -124q-51 -17 -128 -17q-167 0 -220 86q-34 56 -36 192v64q0 149 14 202q25 93 115 122q50 16 126 16q168 0 220 -84q34 -55 36 -188v-67zM531 334q0 117 -6.5 159t-25.5 69q-38 56 -165 56q-124 0 -164 -57q-19 -27 -25.5 -69.5 t-6.5 -158.5t6.5 -159t25.5 -70q39 -56 165 -56q125 0 164 57q19 27 25.5 69.5t6.5 159.5zM428 862l-129 -126h-67l129 126h67z" />
<glyph unicode="&#xd4;" horiz-adv-x="670" d="M590 335q0 -149 -13 -202q-24 -95 -114 -124q-51 -17 -128 -17q-167 0 -220 86q-34 56 -36 192v64q0 149 14 202q25 93 115 122q50 16 126 16q168 0 220 -84q34 -55 36 -188v-67zM531 334q0 117 -6.5 159t-25.5 69q-38 56 -165 56q-124 0 -164 -57q-19 -27 -25.5 -69.5 t-6.5 -158.5t6.5 -159t25.5 -70q39 -56 165 -56q125 0 164 57q19 27 25.5 69.5t6.5 159.5zM488 736h-67l-87 83l-87 -83h-68l133 126h42z" />
<glyph unicode="&#xd5;" horiz-adv-x="670" d="M590 335q0 -149 -13 -202q-24 -95 -114 -124q-51 -17 -128 -17q-167 0 -220 86q-34 56 -36 192v64q0 149 14 202q25 93 115 122q50 16 126 16q168 0 220 -84q34 -55 36 -188v-67zM531 334q0 117 -6.5 159t-25.5 69q-38 56 -165 56q-124 0 -164 -57q-19 -27 -25.5 -69.5 t-6.5 -158.5t6.5 -159t25.5 -70q39 -56 165 -56q125 0 164 57q19 27 25.5 69.5t6.5 159.5zM517 817l-62 -33q-31 -17 -60 -17t-56 16l-18 11q-13 8 -19.5 11t-17 6.5t-21 1.5t-22.5 -8l-66 -35l-24 45q5 3 23 13t25 13.5t23 10.5t26.5 8.5t25.5 2.5h5q12 0 23 -3 q13 -4 27 -12q2 -1 14.5 -8.5t16.5 -9.5t15 -6.5t17.5 -4.5t16.5 1.5t19 6.5l65 35z" />
<glyph unicode="&#xd6;" horiz-adv-x="670" d="M590 335q0 -149 -14 -203q-25 -95 -116 -124q-50 -16 -125 -16q-167 0 -220 86q-34 56 -36 192v64q0 149 14 202q25 93 115 122q50 16 126 16q167 0 219 -84q35 -55 37 -189v-66zM531 334q0 116 -6.5 158.5t-25.5 69.5q-38 56 -165 56q-125 0 -164 -57 q-19 -27 -25.5 -69.5t-6.5 -158.5t6.5 -159t25.5 -70q38 -56 165 -56q125 0 164 57q19 27 25.5 70t6.5 159zM482 824q0 -40 -40 -40t-40 40t40 40t40 -40zM267 824q0 -40 -40 -40t-40 40t40 40t40 -40z" />
<glyph unicode="&#xd7;" d="M511 63l-38 -38l-190 190l-189 -190l-38 38l190 189l-190 190l38 38l189 -190l190 190l38 -38l-190 -190z" />
<glyph unicode="&#xd8;" horiz-adv-x="670" d="M590 333q-1 -149 -15 -201q-25 -95 -115 -124q-47 -16 -119 -16h-8q-19 0 -47 2l-31 -135l-52 10l31 133q-39 8 -66.5 24t-44 38.5t-26.5 51.5t-13 63t-4 73q-1 20 -0.5 41t0.5 43q1 148 15 200q25 94 113 122q48 16 120 16h9q18 0 46 -2l30 132l52 -11l-29 -129 q32 -7 56.5 -19t41 -28.5t28 -38t17 -47t8.5 -56.5t3 -67v-75zM531 332v30q0 93 -5 130q-7 42 -25 69q-26 37 -78 48l-125 -560q11 -1 35 -1h4q120 0 160 56q19 26 26 69t8 159zM371 617q-11 1 -34 1h-4q-121 0 -161 -56q-19 -26 -25.5 -68t-7.5 -159v-30q0 -93 5 -130 q7 -43 25 -70q26 -37 77 -48z" />
<glyph unicode="&#xd9;" horiz-adv-x="653" d="M564 336q0 -119 -2 -152q-1 -47 -14 -78q-43 -114 -222 -114q-178 0 -222 114q-11 31 -14 78q-2 66 -2 152v331h59v-331v-51v-47q0 -15 0.5 -38.5t2.5 -36t5.5 -26.5t9.5 -24q37 -65 161 -65q126 0 161 65q7 12 11 26.5t5.5 40t2.5 40.5v21.5v34.5q-1 41 -1 60v331h59 v-331zM414 735h-67l-130 126h67z" />
<glyph unicode="&#xda;" horiz-adv-x="653" d="M564 336q0 -119 -2 -152q-1 -47 -14 -78q-43 -114 -222 -114q-178 0 -222 114q-11 31 -14 78q-2 66 -2 152v331h59v-331v-51v-47q0 -15 0.5 -38.5t2.5 -36t5.5 -26.5t9.5 -24q37 -65 161 -65q126 0 161 65q7 12 11 26.5t5.5 40t2.5 40.5v21.5v34.5q-1 41 -1 60v331h59 v-331zM448 862l-129 -126h-67l129 126h67z" />
<glyph unicode="&#xdb;" horiz-adv-x="653" d="M564 336q0 -119 -2 -152q-1 -47 -14 -78q-43 -114 -222 -114q-178 0 -222 114q-11 31 -14 78q-2 66 -2 152v331h59v-331v-51v-47q0 -15 0.5 -38.5t2.5 -36t5.5 -26.5t9.5 -24q37 -65 161 -65q126 0 161 65q7 12 11 26.5t5.5 40t2.5 40.5v21.5v34.5q-1 41 -1 60v331h59 v-331zM488 736h-67l-87 83l-87 -83h-68l133 126h42z" />
<glyph unicode="&#xdc;" horiz-adv-x="653" d="M564 336q0 -119 -2 -152q-3 -47 -14 -78q-44 -114 -222 -114t-222 114q-11 31 -14 78q-2 33 -2 152v331h59v-331v-51v-47q0 -15 0.5 -38.5t2.5 -36t5.5 -26.5t9.5 -24q37 -65 161 -65t161 65q6 10 9.5 24t5.5 26.5t2.5 36t0.5 38.5v47v51v331h59v-331zM477 824 q0 -40 -40 -40t-40 40t40 40t40 -40zM262 824q0 -40 -40 -40t-40 40t40 40t40 -40z" />
<glyph unicode="&#xdd;" horiz-adv-x="530" d="M525 667l-231 -374v-293h-59v293l-231 374h67l195 -317l194 317h65zM367 862l-129 -126h-67l129 126h67z" />
<glyph unicode="&#xde;" horiz-adv-x="612" d="M561 336q0 -44 -7 -76t-24 -52t-35 -32t-51 -17.5t-60 -7t-73 -1.5h-160v-150h-59v667h59v-149h160q41 0 63 -0.5t53.5 -4t47.5 -10.5t35.5 -20t28.5 -32.5t15.5 -48t6.5 -66.5zM502 334q0 24 -2.5 43t-11.5 33l-14 22q-6 10 -22 16t-24.5 9.5t-31 5t-32.5 1.5h-36h-19 h-158v-260h158q96 0 122 7q62 18 70 96q1 13 1 27z" />
<glyph unicode="&#xdf;" horiz-adv-x="566" d="M492 196q0 -114 -55 -155t-157 -41h-76v51h78q83 0 117 29q35 31 35 117q0 87 -34 117q-36 31 -126 31h-70v52h70q85 0 125 30q29 23 29 98q0 72 -30 97.5t-116 25.5q-51 0 -81 -9t-43.5 -33t-16.5 -47t-3 -70v-489h-58v486q0 84 9 114q30 104 193 104q108 0 156 -40 t48 -136q0 -121 -75 -157q45 -18 63 -60t18 -115z" />
<glyph unicode="&#xe0;" horiz-adv-x="534" d="M463 0h-55v54q-41 -62 -170 -62q-95 0 -140.5 34.5t-45.5 110.5q0 48 14 79t42.5 46t59 20.5t75.5 5.5h161v16v14v16q0 5 -0.5 15.5t-2 16t-4 13.5t-6.5 14.5t-10 11.5q-28 28 -117 28q-33 0 -52.5 -2t-44 -10t-36.5 -27t-12 -50h-54q0 80 53 112t154 32q168 0 187 -117 q4 -21 4 -95v-276zM404 236h-165q-68 0 -98 -19t-30 -79q0 -50 27.5 -72t96.5 -22q58 0 92.5 11t51 38.5t21 57.5t4.5 85zM356 541h-67l-130 126h67z" />
<glyph unicode="&#xe1;" horiz-adv-x="534" d="M463 0h-55v54q-41 -62 -170 -62q-95 0 -140.5 34.5t-45.5 110.5q0 48 14 79t42.5 46t59 20.5t75.5 5.5h161v16v14v16q0 5 -0.5 15.5t-2 16t-4 13.5t-6.5 14.5t-10 11.5q-28 28 -117 28q-33 0 -52.5 -2t-44 -10t-36.5 -27t-12 -50h-54q0 80 53 112t154 32q168 0 187 -117 q4 -21 4 -95v-276zM404 236h-165q-68 0 -98 -19t-30 -79q0 -50 27.5 -72t96.5 -22q58 0 92.5 11t51 38.5t21 57.5t4.5 85zM376 667l-129 -126h-67l129 126h67z" />
<glyph unicode="&#xe2;" horiz-adv-x="534" d="M463 0h-55v54q-41 -62 -170 -62q-95 0 -140.5 34.5t-45.5 110.5q0 48 14 79t42.5 46t59 20.5t75.5 5.5h161v16v14v16q0 5 -0.5 15.5t-2 16t-4 13.5t-6.5 14.5t-10 11.5q-28 28 -117 28q-33 0 -52.5 -2t-44 -10t-36.5 -27t-12 -50h-54q0 80 53 112t154 32q168 0 187 -117 q4 -21 4 -95v-276zM404 236h-165q-68 0 -98 -19t-30 -79q0 -50 27.5 -72t96.5 -22q58 0 92.5 11t51 38.5t21 57.5t4.5 85zM421 541h-67l-87 83l-87 -83h-68l133 126h42z" />
<glyph unicode="&#xe3;" horiz-adv-x="534" d="M463 0h-55v54q-41 -62 -170 -62q-95 0 -140.5 34.5t-45.5 110.5q0 48 14 79t42.5 46t59 20.5t75.5 5.5h161v16v14v16q0 5 -0.5 15.5t-2 16t-4 13.5t-6.5 14.5t-10 11.5q-28 28 -117 28q-33 0 -52.5 -2t-44 -10t-36.5 -27t-12 -50h-54q0 80 53 112t154 32q168 0 187 -117 q4 -21 4 -95v-276zM404 236h-165q-68 0 -98 -19t-30 -79q0 -50 27.5 -72t96.5 -22q58 0 92.5 11t51 38.5t21 57.5t4.5 85zM445 622l-62 -33q-31 -17 -60 -17t-56 16l-18 11q-13 8 -19.5 11t-17 6.5t-21 1.5t-22.5 -8l-66 -35l-24 45q5 3 23 13t25 13.5t23 10.5t26.5 8.5 t25.5 2.5h5q12 0 23 -3q13 -4 27 -12q2 -1 14.5 -8.5t16.5 -9.5t15 -6.5t17.5 -4.5t16.5 1.5t19 6.5l65 35z" />
<glyph unicode="&#xe4;" horiz-adv-x="534" d="M463 0h-55v54q-41 -62 -170 -62q-95 0 -140.5 34.5t-45.5 110.5q0 48 14 79t42 46t59 20.5t76 5.5h161v16v12v14q0 4 -0.5 13.5t-1.5 14t-2.5 12.5t-4 13t-6 11t-8.5 11q-28 28 -117 28q-33 0 -52.5 -2t-44 -10t-36.5 -27t-12 -50h-54q0 80 53 112t154 32q167 0 187 -117 q4 -26 4 -95v-276zM404 236h-165q-68 0 -98 -19t-30 -79q0 -50 27.5 -72t96.5 -22q58 0 92.5 11t51 38.5t21 57.5t4.5 85zM414 629q0 -40 -40 -40t-40 40t40 40t40 -40zM199 629q0 -40 -40 -40t-40 40t40 40t40 -40z" />
<glyph unicode="&#xe5;" horiz-adv-x="534" d="M465 0h-55v54q-41 -62 -170 -62q-95 0 -141.5 34.5t-46.5 110.5q0 48 14.5 79t43 46t59.5 20.5t76 5.5h161v16v14v16q0 5 -0.5 15.5t-2 16t-4 13.5t-6.5 14.5t-10 11.5q-29 29 -117 29q-25 0 -41.5 -1t-38 -6t-34.5 -14t-22 -26.5t-9 -42.5h-54q0 116 107 134 q-22 16 -22 80q0 60 27 84.5t91 24.5q65 0 92 -24t27 -85q0 -65 -25 -82q38 -9 64 -35.5t33 -69.5q4 -21 4 -95v-276zM339 551q0 43 -13 57t-56 14t-55.5 -14t-12.5 -57q0 -42 12.5 -54t56.5 -12q42 0 55 12.5t13 53.5zM406 236h-165q-68 0 -98 -19t-30 -79q0 -50 27.5 -72 t96.5 -22q58 0 92.5 11t51 38.5t21 57.5t4.5 85z" />
<glyph unicode="&#xe6;" horiz-adv-x="880" d="M816 232h-351q0 -51 5 -81t20 -56.5t45.5 -37.5t80.5 -11q28 0 49.5 3t43.5 11.5t34 27.5t12 48h54q0 -61 -31 -92q-14 -15 -28 -24t-50.5 -18.5t-87.5 -9.5q-144 0 -177 88q-47 -88 -195 -88q-96 0 -142 33.5t-46 109.5q0 48 14.5 79t43 46t59.5 20.5t76 5.5h163v16v14 v17q0 5 -0.5 15.5t-2 16.5t-4 14t-6.5 14.5t-10 11.5q-28 28 -119 28q-26 0 -42 -1t-38.5 -5.5t-35 -13.5t-22 -26.5t-9.5 -42.5h-54q0 80 53.5 112t155.5 32q133 0 171 -70q45 70 167 70q64 0 105 -13.5t62.5 -44.5t29 -69t7.5 -98v-31zM760 285q0 87 -30.5 117.5 t-117.5 30.5q-83 0 -114.5 -33t-31.5 -115h294zM408 234h-167q-68 0 -99 -19t-31 -79q0 -50 28.5 -71t97.5 -21q47 0 78.5 8t50 21.5t28 39t12 52t2.5 69.5z" />
<glyph unicode="&#xe7;" horiz-adv-x="522" d="M466 136q0 -138 -175 -144v-41q32 0 48.5 -18t16.5 -49q0 -38 -18 -56.5t-61 -18.5q-42 0 -61 15.5t-19 51.5h39q0 -19 8.5 -25.5t31.5 -6.5q24 0 31 9.5t7 29.5q0 7 -2 13t-4 10t-7.5 6.5t-8.5 4t-10.5 2t-10.5 0.5h-11h-11v73q-91 4 -140 51q-46 47 -46 196 q0 51 3.5 84.5t15.5 67.5t34.5 53.5t61 31.5t94.5 12q194 0 194 -144h-54q0 29 -11.5 47.5t-34 27t-43.5 11.5t-50 3q-42 0 -70.5 -8.5t-44.5 -22t-24.5 -40.5t-10.5 -52t-2 -69q0 -55 4 -85t18.5 -58.5t46 -40t83.5 -11.5q29 0 50.5 3t43 11.5t33.5 27.5t12 48h54z" />
<glyph unicode="&#xe8;" horiz-adv-x="536" d="M472 226h-351q0 -100 28 -140t123 -40q28 0 49.5 3t43.5 11.5t34 27.5t12 48h54q0 -144 -194 -144q-67 0 -109.5 15.5t-63.5 50.5t-28 75t-7 105t7 106.5t28.5 76.5t63 51t106.5 16q57 0 96 -13t60 -32t32 -57t13.5 -70.5t2.5 -89.5zM416 279q0 88 -31 122t-117 34 q-82 0 -114 -36.5t-32 -119.5h294zM354 541h-67l-130 126h67z" />
<glyph unicode="&#xe9;" horiz-adv-x="536" d="M472 226h-351q0 -100 28 -140t123 -40q28 0 49.5 3t43.5 11.5t34 27.5t12 48h54q0 -144 -194 -144q-67 0 -109.5 15.5t-63.5 50.5t-28 75t-7 105t7 106.5t28.5 76.5t63 51t106.5 16q57 0 96 -13t60 -32t32 -57t13.5 -70.5t2.5 -89.5zM416 279q0 88 -31 122t-117 34 q-82 0 -114 -36.5t-32 -119.5h294zM375 667l-129 -126h-67l129 126h67z" />
<glyph unicode="&#xea;" horiz-adv-x="536" d="M472 226h-351q0 -100 28 -140t123 -40q28 0 49.5 3t43.5 11.5t34 27.5t12 48h54q0 -144 -194 -144q-67 0 -109.5 15.5t-63.5 50.5t-28 75t-7 105t7 106.5t28.5 76.5t63 51t106.5 16q57 0 96 -13t60 -32t32 -57t13.5 -70.5t2.5 -89.5zM416 279q0 88 -31 122t-117 34 q-82 0 -114 -36.5t-32 -119.5h294zM420 541h-67l-87 83l-87 -83h-68l133 126h42z" />
<glyph unicode="&#xeb;" horiz-adv-x="536" d="M472 226h-351q0 -100 28 -140t123 -40q28 0 49.5 3t43.5 11.5t34 27.5t12 48h54q0 -144 -194 -144q-67 0 -109.5 15.5t-63.5 50.5t-28 75t-7 105t7 106.5t28 76.5t62.5 51t107.5 16q57 0 95.5 -13t60 -32t32.5 -56.5t13.5 -70.5t2.5 -90zM416 279q0 88 -31.5 122 t-116.5 34q-82 0 -114 -36.5t-32 -119.5h294zM414 629q0 -40 -40 -40t-40 40t40 40t40 -40zM199 629q0 -40 -40 -40t-40 40t40 40t40 -40z" />
<glyph unicode="&#xec;" horiz-adv-x="213" d="M140 0h-58v480h58v-480zM208 541h-67l-129 126h67z" />
<glyph unicode="&#xed;" horiz-adv-x="214" d="M140 0h-58v480h58v-480zM209 667l-129 -126h-67l129 126h67z" />
<glyph unicode="&#xee;" horiz-adv-x="213" d="M140 0h-58v480h58v-480zM263 541h-67l-87 83l-87 -83h-67l133 126h42z" />
<glyph unicode="&#xef;" horiz-adv-x="213" d="M140 0h-58v480h58v-480zM256 629q0 -40 -40 -40t-40 40t40 40t40 -40zM41 629q0 -40 -40 -40t-40 40t40 40t40 -40z" />
<glyph unicode="&#xf0;" horiz-adv-x="550" d="M486 240q0 -80 -10 -124t-36 -71q-52 -53 -166 -53t-167 53q-25 27 -34.5 71t-9.5 125q0 46 3 77t14.5 66t32 56t57.5 34.5t90 13.5q36 0 65 -6l-105 105l-60 -43l-31 35l57 43l-52 54l40 33l55 -56l62 46l31 -36l-59 -45l135 -139q55 -55 71.5 -102t16.5 -137zM428 240 q0 109 -37.5 150.5t-128.5 42.5q-47 0 -77 -13.5t-43.5 -42.5t-18 -59t-4.5 -78q0 -56 3.5 -84.5t18 -57.5t47 -40.5t86.5 -11.5q32 0 55.5 4.5t40 12t27.5 22t17 27.5t9.5 36.5t4 41.5t0.5 50z" />
<glyph unicode="&#xf1;" horiz-adv-x="538" d="M467 0h-58v253v24v41q0 13 -2 33.5t-7 29.5t-13.5 21.5t-21.5 17.5t-33 9t-46 4q-31 0 -55 -6.5t-40 -15.5t-26.5 -27.5t-16 -32t-8 -41.5t-3 -43t-0.5 -48v-219h-58v480h56v-56q48 64 155 64q33 0 59 -4.5t44 -13t31.5 -20.5t21 -26.5t13 -31.5t6.5 -36l2 -39 q1 -10 1 -20.5t-1 -20.5v-23v-253zM451 622l-62 -33q-31 -17 -60 -17t-56 16l-18 11q-13 8 -19.5 11t-17 6.5t-21 1.5t-22.5 -8l-66 -35l-24 45q5 3 23 13t25 13.5t23 10.5t26.5 8.5t25.5 2.5h5q12 0 23 -3q13 -4 27 -12q2 -1 14.5 -8.5t16.5 -9.5t15 -6.5t17.5 -4.5 t16.5 1.5t19 6.5l65 35z" />
<glyph unicode="&#xf2;" horiz-adv-x="552" d="M488 240q0 -80 -10 -124t-36 -71q-52 -53 -166 -53t-167 53q-26 27 -36 71.5t-10 123.5t10 123.5t36 71.5q53 53 167 53t166 -53q26 -27 36 -71t10 -124zM430 242q0 56 -4 85.5t-18.5 57t-46.5 38t-85 10.5q-44 0 -73.5 -9t-45.5 -22t-24 -40.5t-10 -51.5t-2 -68 q0 -56 3.5 -84.5t18 -57.5t47 -40.5t86.5 -11.5q32 0 55.5 4.5t40 12t27.5 22t17 27.5t9.5 36.5t4 41.5t0.5 50zM382 541h-67l-130 126h67z" />
<glyph unicode="&#xf3;" horiz-adv-x="552" d="M488 240q0 -80 -10 -124t-36 -71q-52 -53 -166 -53t-167 53q-26 27 -36 71.5t-10 123.5t10 123.5t36 71.5q53 53 167 53t166 -53q26 -27 36 -71t10 -124zM430 242q0 56 -4 85.5t-18.5 57t-46.5 38t-85 10.5q-44 0 -73.5 -9t-45.5 -22t-24 -40.5t-10 -51.5t-2 -68 q0 -56 3.5 -84.5t18 -57.5t47 -40.5t86.5 -11.5q32 0 55.5 4.5t40 12t27.5 22t17 27.5t9.5 36.5t4 41.5t0.5 50zM365 667l-129 -126h-67l129 126h67z" />
<glyph unicode="&#xf4;" horiz-adv-x="552" d="M488 240q0 -80 -10 -124t-36 -71q-52 -53 -166 -53t-167 53q-26 27 -36 71.5t-10 123.5t10 123.5t36 71.5q53 53 167 53t166 -53q26 -27 36 -71t10 -124zM430 242q0 56 -4 85.5t-18.5 57t-46.5 38t-85 10.5q-44 0 -73.5 -9t-45.5 -22t-24 -40.5t-10 -51.5t-2 -68 q0 -56 3.5 -84.5t18 -57.5t47 -40.5t86.5 -11.5q32 0 55.5 4.5t40 12t27.5 22t17 27.5t9.5 36.5t4 41.5t0.5 50zM430 541h-67l-87 83l-87 -83h-68l133 126h42z" />
<glyph unicode="&#xf5;" horiz-adv-x="552" d="M488 240q0 -80 -10 -124t-36 -71q-52 -53 -166 -53t-167 53q-26 27 -36 71.5t-10 123.5t10 123.5t36 71.5q53 53 167 53t166 -53q26 -27 36 -71t10 -124zM430 242q0 56 -4 85.5t-18.5 57t-46.5 38t-85 10.5q-44 0 -73.5 -9t-45.5 -22t-24 -40.5t-10 -51.5t-2 -68 q0 -56 3.5 -84.5t18 -57.5t47 -40.5t86.5 -11.5q32 0 55.5 4.5t40 12t27.5 22t17 27.5t9.5 36.5t4 41.5t0.5 50zM458 622l-62 -33q-31 -17 -60 -17t-56 16l-18 11q-13 8 -19.5 11t-17 6.5t-21 1.5t-22.5 -8l-66 -35l-24 45q5 3 23 13t25 13.5t23 10.5t26.5 8.5t24.5 2.5h6 q12 0 22 -3q14 -4 28 -12q2 -1 14.5 -8.5t16.5 -9.5t15 -6.5t17.5 -4.5t16.5 1.5t19 6.5l65 35z" />
<glyph unicode="&#xf6;" horiz-adv-x="552" d="M488 240q0 -80 -10 -124t-36 -71q-52 -53 -166 -53q-115 0 -167 53q-26 27 -36 71t-10 124t10 124t36 71q52 53 167 53q114 0 166 -53q26 -27 36 -71t10 -124zM430 242q0 56 -4 85.5t-18.5 57t-46.5 38t-85 10.5q-44 0 -73.5 -9t-45.5 -22t-24 -40.5t-10 -51.5t-2 -68 q0 -56 3.5 -84.5t18 -57.5t47 -40.5t86.5 -11.5q32 0 55.5 4.5t40 12t27.5 22t17 27.5t9.5 36.5t4 41.5t0.5 50zM423 629q0 -40 -40 -40t-40 40t40 40t40 -40zM208 629q0 -40 -40 -40t-40 40t40 40t40 -40z" />
<glyph unicode="&#xf7;" d="M323 448q0 -40 -40 -40t-40 40t40 40t40 -40zM521 214h-476v53h476v-53zM323 32q0 -40 -40 -40t-40 40t40 40t40 -40z" />
<glyph unicode="&#xf8;" horiz-adv-x="552" d="M488 238q-1 -81 -11 -124.5t-36 -69.5q-52 -52 -163 -52h-4q-23 0 -57 4l-33 -93l-52 18l32 88q-33 13 -56 37q-26 27 -36 72q-8 40 -8 109v15q1 81 11 124.5t36 69.5q52 52 164 52h4q27 0 55 -4l32 90l51 -18l-30 -85q35 -14 57 -37q26 -27 36 -72q8 -40 8 -109v-15z M431 241v13q0 68 -10 106q-11 42 -53 59l-131 -369q22 -2 38 -2q44 0 73.5 9t45.5 22t24.5 41.5t10.5 52.5t2 68zM315 432q-22 2 -37 2q-44 0 -73.5 -8.5t-45.5 -21.5t-24.5 -41t-10.5 -52t-2 -69v-13q0 -70 10 -107q11 -41 53 -58z" />
<glyph unicode="&#xf9;" horiz-adv-x="538" d="M459 0h-56v56q-48 -64 -155 -64q-37 0 -66 7t-47.5 15.5t-31.5 27t-19 31.5t-9.5 40.5t-3.5 40.5v45v18v263h58v-253v-24q0 -38 0.5 -55.5t6.5 -41.5t18.5 -34t36.5 -18t61 -8q31 0 55 6.5t40 15.5t26.5 28t16 32.5t8 41t3 43t0.5 48.5v219h58v-480zM355 541h-67 l-130 126h67z" />
<glyph unicode="&#xfa;" horiz-adv-x="538" d="M459 0h-56v56q-48 -64 -155 -64q-37 0 -66 7t-47.5 15.5t-31.5 27t-19 31.5t-9.5 40.5t-3.5 40.5v45v18v263h58v-253v-24q0 -38 0.5 -55.5t6.5 -41.5t18.5 -34t36.5 -18t61 -8q31 0 55 6.5t40 15.5t26.5 28t16 32.5t8 41t3 43t0.5 48.5v219h58v-480zM378 667l-129 -126 h-67l129 126h67z" />
<glyph unicode="&#xfb;" horiz-adv-x="538" d="M459 0h-56v56q-48 -64 -155 -64q-37 0 -66 7t-47.5 15.5t-31.5 27t-19 31.5t-9.5 40.5t-3.5 40.5v45v18v263h58v-253v-24q0 -38 0.5 -55.5t6.5 -41.5t18.5 -34t36.5 -18t61 -8q31 0 55 6.5t40 15.5t26.5 28t16 32.5t8 41t3 43t0.5 48.5v219h58v-480zM423 541h-67l-87 83 l-87 -83h-68l133 126h42z" />
<glyph unicode="&#xfc;" horiz-adv-x="537" d="M458 0h-56v56q-48 -64 -155 -64q-37 0 -66 7t-47.5 15.5t-31.5 27t-19 31.5t-9.5 40.5t-3.5 40.5v45v18v263h58v-253v-24q0 -38 0.5 -55.5t6.5 -41.5t18.5 -34t36.5 -18t61 -8q31 0 55 6.5t40 15.5t26.5 28t16 32.5t8 41t3 43t0.5 48.5v219h58v-480zM416 629 q0 -40 -40 -40t-40 40t40 40t40 -40zM201 629q0 -40 -40 -40t-40 40t40 40t40 -40z" />
<glyph unicode="&#xfd;" horiz-adv-x="429" d="M417 480l-252 -670h-60l75 197l-176 473h61l146 -403l145 403h61zM315 667l-129 -126h-67l129 126h67z" />
<glyph unicode="&#xfe;" horiz-adv-x="556" d="M492 239q0 -48 -2.5 -77.5t-13 -65.5t-31 -56t-58.5 -34t-92 -14q-108 0 -158 62v-245h-58v888h58v-272q49 63 158 63q53 0 90 -13t58 -32.5t32 -54t14 -67t3 -82.5zM434 240q0 104 -25.5 148.5t-108.5 44.5q-93 0 -128.5 -40.5t-35.5 -152.5t35.5 -152t128.5 -40 q83 0 108.5 44t25.5 148z" />
<glyph unicode="&#xff;" horiz-adv-x="430" d="M418 480l-252 -670h-60l75 197l-176 473h61l146 -403l145 403h61zM362 629q0 -40 -40 -40t-40 40t40 40t40 -40zM147 629q0 -40 -40 -40t-40 40t40 40t40 -40z" />
<glyph unicode="&#x152;" horiz-adv-x="921" d="M844 0h-503q-93 0 -143 18t-80 66q-23 36 -31 88.5t-8 161.5q0 108 8 160.5t31 88.5q30 47 80 65.5t143 18.5h503v-54h-326v-244h316v-53h-316v-262h326v-54zM460 54v559h-114q-79 0 -117 -12.5t-58 -41.5q-18 -27 -25.5 -74.5t-7.5 -150.5q0 -104 7 -151t26 -75 q20 -29 58 -41.5t117 -12.5h114z" />
<glyph unicode="&#x153;" horiz-adv-x="903" d="M839 226h-351q0 -100 28 -140t123 -40q28 0 49.5 3t43.5 11.5t34 27.5t12 48h54q0 -61 -31 -92q-14 -15 -28 -24t-50.5 -18.5t-87.5 -9.5q-143 0 -177 90q-33 -90 -182 -90q-114 0 -167 53q-26 27 -36 71.5t-10 123.5t10 123.5t36 71.5q53 53 169 53q147 0 180 -91 q35 91 177 91q57 0 95.5 -13t60 -32t32.5 -56.5t13.5 -70.5t2.5 -90zM783 279q0 88 -31 121t-117 33q-82 0 -114 -35.5t-32 -118.5h294zM430 242q0 56 -4 85.5t-18.5 57t-46.5 38t-85 10.5q-44 0 -73.5 -9t-45.5 -22t-24 -40.5t-10 -51.5t-2 -68q0 -56 3.5 -84.5t18 -57.5 t47 -40.5t86.5 -11.5q32 0 55.5 4.5t40 12t27.5 22t17 27.5t9.5 36.5t4 41.5t0.5 50z" />
<glyph unicode="&#x178;" horiz-adv-x="531" d="M526 667l-231 -374v-293h-59v293l-231 374h67l195 -317l194 317h65zM414 824q0 -40 -40 -40t-40 40t40 40t40 -40zM199 824q0 -40 -40 -40t-40 40t40 40t40 -40z" />
<glyph unicode="&#x2c6;" horiz-adv-x="420" d="M365 541h-67l-87 83l-87 -83h-68l133 126h42z" />
<glyph unicode="&#x2dc;" horiz-adv-x="420" d="M393 622l-62 -33q-31 -17 -60 -17t-56 16l-18 11q-13 8 -19.5 11t-17 6.5t-21 1.5t-22.5 -8l-66 -35l-24 45q5 3 23 13t25 13.5t23 10.5t26.5 8.5t25.5 2.5h5q12 0 23 -3q13 -4 27 -12q2 -1 14.5 -8.5t16.5 -9.5t15 -6.5t17.5 -4.5t16.5 1.5t19 6.5l65 35z" />
<glyph unicode="&#x2000;" horiz-adv-x="432" />
<glyph unicode="&#x2001;" horiz-adv-x="864" />
<glyph unicode="&#x2002;" horiz-adv-x="432" />
<glyph unicode="&#x2003;" horiz-adv-x="864" />
<glyph unicode="&#x2004;" horiz-adv-x="288" />
<glyph unicode="&#x2005;" horiz-adv-x="216" />
<glyph unicode="&#x2006;" horiz-adv-x="144" />
<glyph unicode="&#x2007;" horiz-adv-x="144" />
<glyph unicode="&#x2008;" horiz-adv-x="108" />
<glyph unicode="&#x2009;" horiz-adv-x="172" />
<glyph unicode="&#x200a;" horiz-adv-x="48" />
<glyph unicode="&#x2010;" horiz-adv-x="485" d="M394 214h-304v53h304v-53z" />
<glyph unicode="&#x2011;" horiz-adv-x="485" d="M394 214h-304v53h304v-53z" />
<glyph unicode="&#x2013;" d="M533 214h-500v53h500v-53z" />
<glyph unicode="&#x2014;" horiz-adv-x="1005" d="M902 214h-800v53h800v-53z" />
<glyph unicode="&#x2018;" horiz-adv-x="213" d="M187 642l-31 -28q-6 -6 -14.5 -19t-9 -24t-0.5 -35v-81h-53v81q0 43 8.5 67t35.5 47l30 26z" />
<glyph unicode="&#x2019;" horiz-adv-x="213" d="M133 586q0 -43 -8.5 -67t-35.5 -47l-30 -26l-34 34l31 28q6 6 14.5 19t9 24t0.5 35v81h53v-81z" />
<glyph unicode="&#x201a;" horiz-adv-x="213" d="M133 -11q0 -43 -8.5 -67t-35.5 -47l-30 -26l-34 34q39 35 47 49t8 57v81h53v-81z" />
<glyph unicode="&#x201c;" horiz-adv-x="375" d="M349 642l-31 -28q-6 -6 -14.5 -19t-9 -24t-0.5 -35v-81h-53v81q0 43 8.5 67t35.5 47l30 26zM187 642l-31 -28q-6 -6 -14.5 -19t-9 -24t-0.5 -35v-81h-53v81q0 43 8.5 67t35.5 47l30 26z" />
<glyph unicode="&#x201d;" horiz-adv-x="375" d="M295 586q0 -43 -8.5 -67t-35.5 -47l-30 -26l-34 34l31 28q6 6 14.5 19t9 24t0.5 35v81h53v-81zM133 586q0 -43 -8.5 -67t-35.5 -47l-30 -26l-34 34l31 28q6 6 14.5 19t9 24t0.5 35v81h53v-81z" />
<glyph unicode="&#x201e;" horiz-adv-x="375" d="M295 -11q0 -43 -8.5 -67t-35.5 -47l-30 -26l-34 34q39 35 47 49t8 57v81h53v-81zM133 -11q0 -43 -8.5 -67t-35.5 -47l-30 -26l-34 34q39 35 47 49t8 57v81h53v-81z" />
<glyph unicode="&#x2022;" horiz-adv-x="504" d="M345 334q0 -49 -22 -71t-71 -22t-71.5 22t-22.5 71t22.5 71.5t71.5 22.5t71 -22.5t22 -71.5z" />
<glyph unicode="&#x2026;" horiz-adv-x="1006" d="M877 32q0 -40 -40 -40q-41 0 -41 40t40 40q41 0 41 -40zM542 32h1q0 -40 -40 -40q-41 0 -41 40t40 40t40 -40zM209 32h1q0 -40 -40 -40q-41 0 -41 40t40 40t40 -40z" />
<glyph unicode="&#x202f;" horiz-adv-x="172" />
<glyph unicode="&#x2039;" horiz-adv-x="263" d="M218 404q-3 -4 -21 -21.5t-26.5 -26.5t-23.5 -27t-23 -31t-14.5 -29.5t-6.5 -30.5q0 -17 6.5 -34.5t22.5 -37.5l26 -32q9 -10 32 -33l26 -26l-37 -37l-26 26l-31 32q-8 8 -26.5 30.5t-25.5 36.5t-14 34.5t-7 39.5t7.5 39.5t15 35.5t26 38t26.5 32t31 33l26 27z" />
<glyph unicode="&#x203a;" horiz-adv-x="263" d="M213 237q0 -16 -3.5 -32t-14 -33.5t-16.5 -28.5t-23 -31l-24 -25q-5 -6 -26 -27l-23 -22l-37 37l22 21q19 19 26 26.5t23 26t22.5 30.5t13 28.5t6.5 30.5q0 12 -4 25t-13 27l-16 26q-6 10 -21 26l-21 22l-22 22l-18 18l37 38l23 -23q20 -21 26 -28l24 -27q17 -19 24 -31 l17 -30q10 -18 14 -34t4 -32z" />
<glyph unicode="&#x205f;" horiz-adv-x="216" />
<glyph unicode="&#x2122;" horiz-adv-x="853" d="M789 232h-47v346l-134 -346h-53l-132 345v-345h-48v435h63l144 -373l146 373h61v-435zM334 623h-131v-391h-50v391h-131v44h312v-44z" />
</font>
</defs>
</svg>
