<?xml version="1.0" standalone="no"?>
<!DOCTYPE svg PUBLIC "-//W3C//DTD SVG 1.1//EN" "http://www.w3.org/Graphics/SVG/1.1/DTD/svg11.dtd" >
<svg xmlns="http://www.w3.org/2000/svg">
<metadata>
This is a custom SVG webfont generated by Font Squirrel.
Foundry     :  digitally encoded machine readable outline data for producing the typefaces licensed to you is copyrighted  by The Foundry London
</metadata>
<defs>
<font id="webfontNnTnU919" horiz-adv-x="582" >
<font-face units-per-em="1000" ascent="726" descent="-274" />
<missing-glyph horiz-adv-x="237" />
<glyph unicode=" "  horiz-adv-x="237" />
<glyph unicode="&#x09;" horiz-adv-x="237" />
<glyph unicode="&#xa0;" horiz-adv-x="237" />
<glyph unicode="!" horiz-adv-x="289" d="M186 190h-83v477h83v-477zM199 46q0 -54 -55 -54q-54 0 -54 54q0 56 54 56q55 0 55 -56z" />
<glyph unicode="&#x22;" horiz-adv-x="455" d="M350 450h-79v217h79v-217zM185 450h-79v217h79v-217z" />
<glyph unicode="#" d="M565 402h-123l-29 -110h102v-73h-122l-59 -219h-79l59 219h-114l-59 -219h-79l59 219h-103v73h122l29 110h-101v73h122l59 219h80l-60 -219h114l59 219h75l-55 -219h103v-73zM362 402h-113l-28 -110h112z" />
<glyph unicode="$" horiz-adv-x="566" d="M501 195q0 -97 -44 -143t-138 -52v-99h-77v99q-88 4 -133 38.5t-45 113.5h85q0 -39 20.5 -56t72.5 -18v231q-90 10 -131.5 47.5t-41.5 130.5q0 91 43.5 132.5t129.5 47.5v95h77v-95q87 -4 131 -38t44 -114h-85q0 41 -19.5 58t-70.5 18v-207q104 -9 143 -46.5t39 -142.5z M242 389v202q-50 -1 -70 -25.5t-20 -83.5q0 -53 19.5 -71t70.5 -22zM418 199q0 63 -18.5 81.5t-80.5 23.5v-226q53 2 76 29.5t23 91.5z" />
<glyph unicode="%" horiz-adv-x="863" d="M791 194v-13q0 -38 -1 -57.5t-8 -49t-20.5 -44.5t-41 -26.5t-67.5 -11.5t-67.5 11.5t-41 26.5t-20.5 45t-8 49t-1 57v13v13q0 38 1 57.5t8 49t20.5 44t41 26t67.5 11.5t67.5 -11.5t41 -26t20.5 -44.5t8 -48.5t1 -57.5v-13zM647 667l-358 -667h-68l356 667h70zM348 473 v-13q0 -38 -1 -57.5t-8 -49t-20.5 -44.5t-41 -26.5t-67.5 -11.5t-67.5 11.5t-41 26.5t-20.5 45t-8 49t-1 57v13v13q0 38 1 57.5t8 49t20.5 44t41 26t67.5 11.5t67.5 -11.5t41 -26t20.5 -44.5t8 -48.5t1 -57.5v-13zM726 194q0 80 -8 108q-6 18 -19.5 26t-45.5 8t-45.5 -8 t-19.5 -26q-8 -28 -8 -108q0 -96 10 -116q14 -28 63 -28t63 28q10 20 10 116zM283 473q0 80 -8 108q-6 18 -19.5 26t-45.5 8t-45.5 -8t-19.5 -26q-8 -28 -8 -108q0 -96 10 -116q14 -28 63 -28t63 28q10 20 10 116z" />
<glyph unicode="&#x26;" horiz-adv-x="610" d="M581 311h-59v-85q0 -129 -51 -181.5t-180 -52.5q-120 0 -175 41.5t-55 155.5q0 64 17 104t60 57q-42 17 -56.5 53t-14.5 95q0 98 49 137t160 39q102 0 156 -35.5t54 -124.5h-85q0 47 -27.5 64.5t-96.5 17.5q-77 0 -101 -21.5t-24 -83.5q0 -61 28 -80.5t97 -19.5h161v52 h84v-52h59v-80zM438 226v85h-161q-78 0 -104.5 -24t-26.5 -99q0 -71 33.5 -94.5t111.5 -23.5q91 0 119 32t28 124z" />
<glyph unicode="'" horiz-adv-x="291" d="M185 450h-79v217h79v-217z" />
<glyph unicode="(" horiz-adv-x="311" d="M282 -191q-99 0 -150.5 27t-71.5 93q-31 101 -31 377q0 280 31 381q20 66 71.5 92.5t150.5 26.5v-75q-60 0 -92.5 -14t-46.5 -51q-15 -39 -23 -146.5t-8 -212.5q0 -104 8 -211.5t23 -146.5q14 -37 46.5 -50.5t92.5 -13.5v-76z" />
<glyph unicode=")" horiz-adv-x="311" d="M282 306q0 -276 -31 -377q-20 -66 -71.5 -93t-150.5 -27v76q60 0 92.5 13.5t46.5 50.5q15 39 23 146.5t8 211.5q0 105 -8 212.5t-23 146.5q-14 37 -46.5 51t-92.5 14v75q99 0 150.5 -26.5t71.5 -92.5q31 -101 31 -381z" />
<glyph unicode="*" horiz-adv-x="527" d="M509 473l-186 -57l113 -147l-59 -41l-114 147l-113 -147l-60 41l114 147l-186 57l24 67l184 -56v183h74v-183l185 56z" />
<glyph unicode="+" d="M544 204h-215v-204h-77v204h-214v77h214v203h77v-203h215v-77z" />
<glyph unicode="," horiz-adv-x="222" d="M155 9q0 -44 -9.5 -71.5t-36.5 -53.5l-37 -35l-53 51q29 27 37 36.5t14 26t6 46.5v93h79v-93z" />
<glyph unicode="-" horiz-adv-x="505" d="M431 204h-357v77h357v-77z" />
<glyph unicode="." horiz-adv-x="222" d="M165 48q0 -56 -54 -56q-55 0 -55 56q0 54 55 54q54 0 54 -54z" />
<glyph unicode="/" horiz-adv-x="492" d="M504 770l-433 -868h-83l433 868h83z" />
<glyph unicode="0" horiz-adv-x="566" d="M506 333v-26v-55q0 -19 -2 -51.5t-5.5 -49.5t-11 -43t-19 -40t-28 -31t-38.5 -25t-52 -14t-67 -6q-33 0 -60.5 4.5t-48.5 12.5t-38 19.5t-28.5 26.5t-20.5 32.5t-13.5 37t-8 41t-4 44.5t-1.5 48v24v25v26v26v55q0 19 2 51.5t5.5 49.5t11 43t19 40t28 31t38.5 25t52 14 t67 6q33 0 60.5 -4.5t48.5 -12.5t38 -19.5t28.5 -26.5t20.5 -32.5t13.5 -37t8 -41t4 -44.5t1.5 -48q1 -12 0.5 -24t-0.5 -25v-26zM420 333v55q0 18 -1 47t-2.5 41.5t-5 33t-8.5 28.5l-13 21q-7 13 -17 17l-23 11q-13 6 -29.5 7.5t-37.5 1.5t-37.5 -1.5t-29.5 -7.5l-23 -11 q-10 -4 -17 -17l-13 -21q-5 -8 -8.5 -28.5t-5 -33t-2.5 -41.5t-1 -47v-55v-55q0 -18 1 -47t2.5 -41.5t5 -33t8.5 -28.5l13 -21q7 -13 17 -17l23 -11q13 -6 29.5 -7.5t37.5 -1.5t37.5 1.5t29.5 7.5l23 11q10 4 17 17l13 21q5 8 8.5 28.5t5 33t2.5 41.5t1 47v55z" />
<glyph unicode="1" horiz-adv-x="471" d="M456 0h-402v77h158v482l-117 -109l-55 58l179 159h78v-590h159v-77z" />
<glyph unicode="2" horiz-adv-x="553" d="M494 479q0 -30 -6 -54.5t-13 -42t-24 -33t-28.5 -24.5t-38 -20t-40 -16t-46.5 -16q-14 -5 -42 -14t-36 -12t-25 -11t-21.5 -14.5t-12 -19t-9 -27.5t-1.5 -36v-62h342v-77h-428v158q0 27 5.5 50t13 39t22 29.5t27 21.5t34.5 17t36 13.5t40.5 12t41.5 12.5q30 10 42.5 14.5 t32.5 15t27.5 21.5t14 30t6.5 45q0 67 -26.5 92t-102.5 25q-70 0 -98.5 -17.5t-28.5 -63.5h-85q0 89 54 124t156 35q108 0 161 -41q56 -43 56 -154z" />
<glyph unicode="3" horiz-adv-x="554" d="M494 196q0 -113 -54.5 -158.5t-166.5 -45.5q-48 0 -83.5 6.5t-67 23.5t-48 49.5t-16.5 80.5h86q0 -45 29.5 -63.5t100.5 -18.5q73 0 104 25t31 94q0 77 -24.5 97.5t-111.5 20.5h-97v78h97q73 0 101.5 20t28.5 86q0 62 -25.5 83.5t-104.5 21.5q-71 0 -101.5 -18t-30.5 -63 h-86q0 89 56.5 124t161.5 35q114 0 164.5 -40t50.5 -141q0 -55 -13.5 -90t-53.5 -54q45 -18 59 -54.5t14 -98.5z" />
<glyph unicode="4" horiz-adv-x="560" d="M515 180h-97v-180h-84v180h-290v73l293 414h81v-410h97v-77zM334 257v281l-194 -281h194z" />
<glyph unicode="5" horiz-adv-x="568" d="M501 210q0 -119 -52 -168.5t-171 -49.5q-99 0 -152.5 35.5t-53.5 124.5h83q0 -46 27 -64t96 -18q80 0 109 28t29 108q0 84 -23 117t-102 33q-128 0 -128 -78h-82v389h399v-78h-317v-195q37 40 130 40q118 0 163 -51.5t45 -172.5z" />
<glyph unicode="6" horiz-adv-x="565" d="M499 211q0 -112 -52.5 -165.5t-162.5 -53.5q-75 0 -128 29.5t-74 86.5q-22 59 -22 197q0 159 13 227q27 142 214 142q200 0 200 -159h-84q0 43 -27.5 62t-87.5 19q-54 0 -81 -13.5t-43 -60.5t-17 -142q52 54 141 54q113 0 162 -51t49 -172zM414 210q0 86 -26 116t-95 30 q-73 0 -108 -34.5t-35 -106.5q0 -79 31 -112t102 -33q73 0 102 30.5t29 109.5z" />
<glyph unicode="7" horiz-adv-x="470" d="M451 593l-292 -593h-94l293 589h-339v78h432v-74z" />
<glyph unicode="8" horiz-adv-x="563" d="M503 185q0 -109 -54 -151t-167 -42t-167.5 42t-54.5 151q0 65 17 104.5t60 56.5q-42 17 -56.5 54t-14.5 98q0 98 50.5 137t165.5 39q114 0 164.5 -39t50.5 -137q0 -61 -14.5 -97.5t-56.5 -54.5q43 -17 60 -56.5t17 -104.5zM411 489q0 66 -29 86.5t-101 20.5t-101 -20.5 t-29 -86.5q0 -64 28.5 -84.5t101.5 -20.5t101.5 20.5t28.5 84.5zM417 188q0 73 -30 95.5t-105 22.5q-78 0 -107 -22.5t-29 -95.5q0 -71 30 -94.5t106 -23.5q75 0 105 23.5t30 94.5z" />
<glyph unicode="9" horiz-adv-x="564" d="M504 361q0 -159 -13 -227q-27 -142 -214 -142q-200 0 -200 159h84q0 -43 27.5 -62t87.5 -19q54 0 81 13.5t43 60.5t17 142q-52 -54 -141 -54q-113 0 -162 51t-49 172q0 112 52.5 165.5t162.5 53.5q75 0 128 -29.5t74 -86.5q22 -59 22 -197zM414 451q0 79 -31 112t-102 33 q-73 0 -102 -30.5t-29 -109.5q0 -86 26 -116t95 -30q73 0 108 34.5t35 106.5z" />
<glyph unicode=":" horiz-adv-x="223" d="M166 438q0 -56 -54 -56q-55 0 -55 56q0 54 55 54q54 0 54 -54zM166 48q0 -56 -54 -56q-55 0 -55 56q0 54 55 54q54 0 54 -54z" />
<glyph unicode=";" horiz-adv-x="222" d="M165 438q0 -56 -54 -56q-55 0 -55 56q0 54 55 54q54 0 54 -54zM148 9q0 -44 -9.5 -71.5t-36.5 -53.5l-37 -35l-53 51q29 27 37 36.5t14 26t6 46.5v93h79v-93z" />
<glyph unicode="&#x3c;" horiz-adv-x="583" d="M550 75l-29 -75l-488 205v75l487 204l30 -75l-407 -166z" />
<glyph unicode="=" d="M544 298h-506v77h506v-77zM544 113h-506v77h506v-77z" />
<glyph unicode="&#x3e;" horiz-adv-x="583" d="M550 205l-488 -205l-29 75l407 168l-407 166l30 75l487 -204v-75z" />
<glyph unicode="?" horiz-adv-x="442" d="M420 505q0 -62 -23.5 -100.5t-73.5 -63.5q-54 -27 -65 -41.5t-11 -67.5v-42h-86v58q0 48 13 79.5t32.5 45t42 25t42 20.5t32.5 31t13 56q0 58 -24 82.5t-90 24.5q-65 0 -90.5 -22t-25.5 -75h-83q0 96 49.5 135t147.5 39q102 0 151 -42t49 -142zM259 46q0 -54 -55 -54 q-54 0 -54 54q0 56 54 56q55 0 55 -56z" />
<glyph unicode="@" horiz-adv-x="768" d="M696 379q0 -176 -52 -225q-28 -27 -62 -35q-30 -7 -77 -7h-12v36q-45 -42 -121 -42q-44 0 -75.5 11t-49 27.5t-27 45t-12 55t-2.5 65.5q0 40 2.5 66t12 55t26.5 46t48 28t76 11q76 0 121 -43v36h59v-338q28 0 46 21q37 44 37 195q0 74 -11 117.5t-42.5 68.5t-74.5 32.5 t-119 7.5q-50 0 -87 -6t-64 -15.5t-45 -29.5t-28.5 -40.5t-16 -56.5t-7.5 -69t-2 -86q0 -44 0.5 -71.5t3 -60.5t7.5 -52t13.5 -41.5t22 -34.5t32 -24.5t44 -18.5t58 -9.5t73.5 -3.5q86 0 141 16t84 68l53 -30q-20 -38 -52.5 -62.5t-74.5 -35t-76 -14t-80 -3.5q-72 0 -124 9 t-86.5 31.5t-55 49.5t-31.5 75.5t-14 95t-3 121.5q0 84 6.5 138t25.5 100t54 70.5t90 37.5t137 13q95 0 151 -11t94 -44.5t52 -89.5t14 -150zM492 310q0 84 -27.5 114.5t-96.5 30.5q-63 0 -80 -32.5t-17 -112.5q0 -81 17 -112.5t81 -31.5q69 0 96 30.5t27 113.5z" />
<glyph unicode="A" horiz-adv-x="628" d="M616 0h-97l-68 184h-279l-67 -184h-93l258 667h89zM423 261l-111 299l-111 -299h222z" />
<glyph unicode="B" horiz-adv-x="651" d="M579 192q0 -40 -8 -71t-19 -51t-32.5 -34t-38 -21t-47.5 -10.5t-49 -4t-53 -0.5h-11h-237v667h231h20q36 0 53.5 -0.5t48 -3.5t46 -9t36 -18t30.5 -29.5t17.5 -45t7.5 -62.5q0 -126 -67 -155q42 -19 57 -56.5t15 -95.5zM486 485q0 22 -4 38t-8.5 27t-17.5 18.5t-21 11 t-30.5 5.5t-34.5 2h-42h-20h-136v-205h143h30h29q7 0 23.5 0.5t22.5 2.5l19 5q12 4 17 9l12 13q8 8 10.5 18t5 24t2.5 31zM491 190q0 28 -3.5 47.5t-14.5 32t-20 19t-32.5 9.5t-38 3.5t-50.5 0.5h-19h-141v-222h141h25q36 0 53 0.5t40.5 6t33.5 16.5t18 32.5t8 54.5z" />
<glyph unicode="C" horiz-adv-x="647" d="M584 179q0 -103 -59.5 -145t-181.5 -42q-179 0 -234 92q-35 57 -37 194v56q0 42 0.5 64.5t3 58.5t7 55t14 45.5t23 41t34 31.5t47.5 25t63 13.5t80 5.5q122 0 181 -42t59 -145h-86q0 61 -33.5 83.5t-129.5 22.5q-36 0 -62.5 -5t-45.5 -12.5t-31 -25.5t-19.5 -34 t-10.5 -48.5t-4 -59.5t-1 -75t1 -75t4 -59t10.5 -48.5t19.5 -34t31 -25t45.5 -12.5t62.5 -5q97 0 130 22t33 83h86z" />
<glyph unicode="D" horiz-adv-x="671" d="M599 333q0 -106 -8.5 -157.5t-32.5 -88.5q-32 -49 -85.5 -68t-148.5 -19h-240v667h240q95 0 148 -19t85 -68q24 -37 33 -89.5t9 -157.5zM510 333q0 159 -33 206q-19 27 -54 37t-105 10h-146v-505h146q71 0 105.5 9.5t53.5 36.5q33 47 33 206z" />
<glyph unicode="E" horiz-adv-x="593" d="M522 0h-438v667h438v-80h-349v-205h339v-80h-339v-222h349v-80z" />
<glyph unicode="F" horiz-adv-x="570" d="M512 587h-340v-205h331v-80h-331v-302h-88v667h428v-80z" />
<glyph unicode="G" horiz-adv-x="670" d="M594 0h-73v60q-62 -68 -200 -68q-41 0 -74 6t-57.5 14.5t-43 25.5t-31 32t-21 42t-13 46t-6.5 54.5t-2.5 57.5t-0.5 63q0 147 16 202q27 93 123 123q53 16 134 16q122 0 185.5 -42t63.5 -145h-88q0 60 -37 82.5t-133 22.5q-26 0 -47.5 -2t-38.5 -8l-29 -11 q-13 -5 -23 -18l-16 -21q-6 -9 -10 -28l-6 -32q-3 -13 -4 -40t-1 -43v-50v-6q0 -38 0.5 -57.5t2 -48t4.5 -43t8.5 -34t14.5 -29t21.5 -20.5t29.5 -15.5t39.5 -8t50.5 -3.5q29 0 52 3.5t40.5 8.5t31 16t22.5 20.5t15 27.5t9.5 30.5t5 37t2 40.5t0.5 46h-186v78h270v-382z" />
<glyph unicode="H" horiz-adv-x="657" d="M573 0h-88v302h-312v-302h-89v667h89v-285h312v285h88v-667z" />
<glyph unicode="I" horiz-adv-x="257" d="M173 0h-89v667h89v-667z" />
<glyph unicode="J" horiz-adv-x="537" d="M459 213q0 -61 -4 -85q-22 -136 -208 -136q-106 0 -159.5 42t-53.5 145h85q0 -64 29 -85t99 -21q30 0 50.5 3t34 12t21.5 18t11.5 27.5t4.5 34t1 43.5v456h89v-454z" />
<glyph unicode="K" horiz-adv-x="607" d="M602 0h-132l-297 285v-285h-89v667h88v-288l307 288h121l-361 -332z" />
<glyph unicode="L" horiz-adv-x="520" d="M512 0h-428v667h89v-587h339v-80z" />
<glyph unicode="M" horiz-adv-x="824" d="M740 0h-85v533l-201 -533h-85l-201 533v-533h-84v667h115l214 -556l212 556h115v-667z" />
<glyph unicode="N" horiz-adv-x="655" d="M571 0h-94l-307 520v-520h-86v667h93l308 -517v517h86v-667z" />
<glyph unicode="O" horiz-adv-x="674" d="M602 335q0 -42 -0.5 -67t-3 -60t-7.5 -55t-14 -46t-22.5 -41t-33.5 -31t-46 -24t-60.5 -13.5t-77.5 -5.5q-175 0 -229 91q-34 57 -36 194v57q0 146 15 200q26 95 121 124q52 16 128 16q175 0 229 -88q35 -57 37 -193v-58zM513 334q0 95 -6 138t-23 69q-18 28 -52 40 t-96 12q-115 0 -148 -53q-16 -25 -22 -68t-6 -139q0 -95 6 -138t23 -69q32 -52 148 -52q61 0 95 12t52 40q17 26 23 69.5t6 138.5z" />
<glyph unicode="P" horiz-adv-x="615" d="M573 477q0 -40 -7 -70t-17.5 -50.5t-31 -34.5t-38.5 -21.5t-49.5 -11.5t-55 -5t-63.5 -1h-138v-283h-89v667h227q40 0 63 -0.5t55 -4.5t49.5 -11t38.5 -21t31.5 -34t17.5 -50t7 -69zM485 475q0 77 -45 99q-8 4 -18.5 6.5t-19 4t-23.5 2t-23 0.5h-24h-23h-136v-224h136h23 h24q8 0 23 0.5t23.5 2t19 4t18.5 6.5q45 22 45 99z" />
<glyph unicode="Q" horiz-adv-x="674" d="M602 335q0 -143 -14 -197q-28 -105 -132 -132q-14 -4 -31 -7l48 -107l-71 -33l-61 133q-172 0 -227 81q-38 56 -41 194q-1 25 -1 67q0 146 15 200q26 95 121 124q52 16 128 16q175 0 229 -88q35 -57 37 -193v-58zM513 334q0 95 -6 138t-23 69q-18 28 -52 40t-96 12 q-115 0 -148 -53q-16 -25 -22 -68t-6 -139q0 -89 5 -130t19 -68q15 -31 43.5 -45.5t79.5 -15.5l-37 88l71 31l50 -117q71 8 96 56q15 27 20.5 69.5t5.5 132.5z" />
<glyph unicode="R" horiz-adv-x="653" d="M573 0h-86v168q0 49 -4 69.5t-21 33.5q-9 7 -20.5 10.5t-36.5 5t-39 1.5h-58h-135v-288h-89v667h227q32 0 50 -0.5t45 -2t42 -5t35.5 -10t31.5 -16t24 -24t19 -33t10.5 -43.5t4.5 -56q0 -117 -70 -146q14 -4 25.5 -12t19 -15.5t12.5 -21.5t7.5 -22t4 -25.5t1.5 -23.5v-25 v-21v-165zM486 476q0 55 -21 81q-17 21 -45.5 25.5t-110.5 4.5h-136v-218h142q8 0 29 -1h18h13q11 1 26.5 2t27 3.5t19.5 6.5q38 20 38 96z" />
<glyph unicode="S" horiz-adv-x="647" d="M583 203q0 -109 -63 -160t-197 -51q-131 0 -195 41.5t-64 145.5h88q0 -61 36.5 -83.5t136.5 -22.5t134 28t34 97q0 34 -8 54t-25 29t-37.5 12t-51.5 4h-10q-16 1 -52 1.5t-54 1.5t-48.5 4.5t-47 10.5t-37.5 20t-31.5 31.5t-18.5 47t-8 64.5q0 109 60.5 152.5t196.5 43.5 q131 0 193 -41.5t62 -145.5h-86q0 29 -8 48.5t-20.5 31t-36.5 17.5t-46.5 7.5t-59.5 1.5q-103 0 -134.5 -23.5t-31.5 -90.5q0 -69 48 -85q20 -7 85 -10q17 -1 51.5 -1.5t53.5 -1.5t48.5 -5t47 -10.5t38 -19.5t32 -31.5t19 -46.5t7.5 -65z" />
<glyph unicode="T" horiz-adv-x="541" d="M523 588h-208v-588h-89v588h-208v79h505v-79z" />
<glyph unicode="U" horiz-adv-x="652" d="M574 335q0 -114 -2 -146q-3 -47 -16 -81q-46 -116 -230 -116t-230 116q-13 34 -16 81q-2 32 -2 146v332h89v-332v-39v-37q0 -10 0.5 -30.5t1.5 -30.5l3 -24q1 -14 4 -23.5t7 -17.5q29 -60 143 -60q115 0 144 59q4 8 7 17.5t5 23.5l2 23q1 10 1.5 31t0.5 31v38v39v332h88 v-332z" />
<glyph unicode="V" horiz-adv-x="593" d="M589 667l-251 -667h-86l-248 667h94l199 -548l199 548h93z" />
<glyph unicode="W" horiz-adv-x="884" d="M848 667l-163 -667h-94l-149 545l-148 -545h-98l-160 667h90l125 -534l145 534h94l144 -534l127 534h87z" />
<glyph unicode="X" horiz-adv-x="590" d="M566 0h-101l-171 273l-170 -273h-100l219 340l-213 327h101l165 -262l164 262h101l-214 -327z" />
<glyph unicode="Y" horiz-adv-x="568" d="M566 667l-237 -376v-291h-89v291l-238 376h102l182 -295l180 295h100z" />
<glyph unicode="Z" horiz-adv-x="610" d="M549 0h-488v78l382 510h-382v79h488v-78l-383 -509h383v-80z" />
<glyph unicode="[" horiz-adv-x="311" d="M282 -191h-231v997h231v-75h-148v-846h148v-76z" />
<glyph unicode="\" horiz-adv-x="492" d="M504 -98h-83l-433 868h83z" />
<glyph unicode="]" horiz-adv-x="311" d="M260 -191h-231v76h148v846h-148v75h231v-997z" />
<glyph unicode="^" horiz-adv-x="583" d="M547 215l-77 -30l-181 388l-177 -388l-76 31l219 460h71z" />
<glyph unicode="_" horiz-adv-x="523" d="M523 -314h-523v79h523v-79z" />
<glyph unicode="`" horiz-adv-x="427" d="M328 541h-96l-133 126h96z" />
<glyph unicode="a" horiz-adv-x="539" d="M474 0h-78v47q-47 -55 -161 -55q-94 0 -141 35t-47 116q0 40 11 68.5t28.5 45t45 26t53.5 12t62 2.5h143q0 27 -0.5 38t-3.5 29t-10.5 24.5t-21 15t-34.5 11t-52 2.5q-21 0 -35 -1t-32.5 -5t-30 -11t-19.5 -21t-8 -34h-82q0 43 16 73t47 45.5t67 22t84 6.5q41 0 73.5 -7 t53 -16.5t35 -26.5t22 -30.5t11 -37t4 -36t0.5 -35.5v-6v-297zM391 225h-148q-60 0 -85 -16t-25 -65q0 -42 24 -60.5t86 -18.5q51 0 81 9t44.5 32t18.5 48t4 71z" />
<glyph unicode="b" horiz-adv-x="557" d="M502 241q0 -45 -2.5 -75t-14 -66t-32.5 -57.5t-60 -36t-94 -14.5q-101 0 -151 55v-47h-78v697h85v-258q46 53 153 53q63 0 103.5 -17.5t59.5 -54.5t25 -76.5t6 -102.5zM416 242q0 95 -23 132.5t-95 37.5q-84 0 -114 -34.5t-30 -135.5t30.5 -136.5t113.5 -35.5 q72 0 95 38.5t23 133.5z" />
<glyph unicode="c" horiz-adv-x="523" d="M473 141q0 -149 -201 -149q-57 0 -97.5 13t-63.5 33.5t-36 55t-16.5 67.5t-3.5 82t3.5 82t16.5 67t36 54.5t63.5 33t97.5 12.5q201 0 201 -149h-81q0 24 -10 39.5t-29.5 22t-37 8.5t-41.5 2q-37 0 -61 -7t-38.5 -18.5t-22 -35t-9.5 -47.5t-2 -64q0 -51 3.5 -78.5 t16.5 -52t40 -34t73 -9.5q24 0 41.5 2t37 8.5t29.5 22t10 39.5h81z" />
<glyph unicode="d" horiz-adv-x="557" d="M487 0h-79v49q-50 -57 -154 -57q-55 0 -93 14t-58.5 35t-31.5 57t-13.5 66.5t-2.5 77.5t3.5 80t15 67.5t32 55.5t56.5 34t87 13q107 0 153 -53v258h85v-697zM403 241q0 101 -30 136t-114 35q-72 0 -95 -38t-23 -133t23 -133t95 -38q84 0 114 35t30 136z" />
<glyph unicode="e" horiz-adv-x="538" d="M483 213h-342q0 -82 25.5 -114.5t108.5 -32.5q122 0 122 75h80q0 -149 -204 -149q-69 0 -113.5 16.5t-67 51.5t-30 75.5t-7.5 102.5q0 63 7.5 105t29.5 78t66 53.5t112 17.5q50 0 86.5 -8.5t59.5 -28t37 -40.5t20 -57t8 -66t2 -79zM399 286q0 74 -25 103.5t-104 29.5 q-75 0 -101.5 -32t-26.5 -101h257z" />
<glyph unicode="f" horiz-adv-x="443" d="M442 590h-83q0 22 -23.5 33t-56.5 11q-56 0 -75.5 -21.5t-19.5 -72.5v-56h183v-73h-182v-411h-85v411h-78v73h78v66q0 154 178 154q164 0 164 -114z" />
<glyph unicode="g" horiz-adv-x="556" d="M486 49q0 -82 -4 -109q-21 -134 -216 -134q-41 0 -75 7t-63 22.5t-45.5 45t-16.5 69.5h84q0 -69 113 -69q125 0 135 78q2 14 2.5 29.5t0.5 35.5v29q-47 -53 -149 -53q-53 0 -90.5 14t-58 34.5t-31.5 55.5t-14 65.5t-3 76.5q0 48 3.5 81.5t15.5 66.5t33 53t57 32.5 t87 12.5q106 0 156 -54v46h79v-435zM402 245q0 100 -30.5 134.5t-113.5 34.5q-72 0 -94.5 -37t-22.5 -132q0 -94 22.5 -130t94.5 -36q83 0 113.5 33.5t30.5 132.5z" />
<glyph unicode="h" horiz-adv-x="543" d="M478 0h-85v255q0 86 -5 105q-11 43 -66 51q-15 2 -35 2q-22 0 -40 -4t-31.5 -8t-23.5 -16t-16 -18t-10.5 -24.5t-6.5 -25.5t-3 -31t-1 -30v-33v-223h-85v697h85v-256q51 51 140 51q34 0 61 -5t45.5 -13.5t32.5 -20.5t22 -27t13.5 -32t6.5 -35l2 -37q1 -10 0.5 -19 t-0.5 -18v-20v-265z" />
<glyph unicode="i" horiz-adv-x="225" d="M162 624q0 -27 -16 -38.5t-34 -11.5t-34 11.5t-16 38.5t16 38.5t34 11.5q19 0 34.5 -11.5t15.5 -38.5zM155 0h-85v484h85v-484z" />
<glyph unicode="j" horiz-adv-x="225" d="M163 624q0 -27 -16 -38.5t-34 -11.5t-34 11.5t-16 38.5t16 38.5t34 11.5t34 -11.5t16 -38.5zM155 -37q0 -157 -179 -157q-166 0 -170 134h83q0 -62 87 -62q33 0 53.5 7.5t28.5 23t10 28.5t2 37v510h85v-521z" />
<glyph unicode="k" horiz-adv-x="497" d="M496 0h-116l-225 230v-230h-85v697h85v-404l224 191h117l-262 -222z" />
<glyph unicode="l" horiz-adv-x="225" d="M155 0h-85v697h85v-697z" />
<glyph unicode="m" horiz-adv-x="805" d="M740 0h-85v293q0 25 -0.5 35.5t-3 28.5t-8 25.5t-15.5 16.5t-26 12t-39 3q-33 0 -56 -11.5t-34.5 -26t-17.5 -43.5t-6.5 -46t-0.5 -52v-15v-220h-85v293q0 25 -0.5 35.5t-3 28.5t-8 25.5t-15.5 16.5t-26 12t-39 3q-34 0 -57 -12t-34.5 -27t-17.5 -44t-6.5 -47t-0.5 -53 v-13v-218h-85v484h79v-46q48 54 137 54q98 0 135 -64q54 64 151 64q120 0 155 -80q4 -9 6.5 -19.5t4 -18t2 -20.5t0.5 -20v-22v-21v-291z" />
<glyph unicode="n" horiz-adv-x="543" d="M478 0h-85v255q0 86 -5 105q-11 43 -66 51q-15 2 -35 2q-22 0 -40 -4t-31.5 -8t-23.5 -16t-16 -18t-10.5 -24.5t-6.5 -25.5t-3 -31t-1 -30v-33v-223h-85v484h77v-47q50 55 148 55q34 0 61 -5t45.5 -13.5t32.5 -20.5t22 -27t13.5 -32t6.5 -35l2 -37q1 -10 0.5 -19 t-0.5 -18v-20v-265z" />
<glyph unicode="o" horiz-adv-x="555" d="M500 242q0 -78 -10.5 -123t-38.5 -73q-54 -54 -173 -54q-120 0 -174 54q-28 28 -38.5 73t-10.5 123t10.5 123t38.5 73q54 54 174 54q119 0 173 -54q28 -28 38.5 -73t10.5 -123zM414 242q0 51 -3.5 78.5t-17 52t-41 33.5t-74.5 9q-48 0 -76 -9.5t-41 -34.5t-16.5 -51.5 t-3.5 -77.5t3.5 -77.5t16.5 -51.5t41 -34.5t76 -9.5t75.5 9.5t41 34.5t16.5 51.5t3 77.5z" />
<glyph unicode="p" horiz-adv-x="557" d="M502 241q0 -44 -3 -74.5t-14.5 -66.5t-32.5 -57.5t-60 -36t-93 -14.5q-97 0 -144 54v-237h-85v675h79v-48q52 56 156 56q52 0 88.5 -12.5t57.5 -32.5t32.5 -54t15 -67.5t3.5 -84.5zM417 242q0 95 -23 132.5t-95 37.5q-84 0 -114 -34.5t-30 -135.5q0 -102 30.5 -137 t113.5 -35q72 0 95 38.5t23 133.5z" />
<glyph unicode="q" horiz-adv-x="556" d="M486 -191h-85v237q-50 -54 -151 -54q-53 0 -90.5 14.5t-57.5 35t-31 57t-13.5 66.5t-2.5 77q0 33 1.5 58t6.5 52.5t13 47t23 38t35 29.5t49.5 18t66.5 7q105 0 157 -56v48h79v-675zM401 241q0 101 -30 136t-113 35q-71 0 -94 -38t-23 -133t23 -133t94 -38q83 0 113 35 t30 136z" />
<glyph unicode="r" horiz-adv-x="450" d="M440 345h-82q0 41 -19 55.5t-68 14.5q-28 0 -49 -7.5t-33.5 -24.5t-19.5 -31t-10 -41.5t-3.5 -41.5t-0.5 -44v-15v-210h-85v484h80v-47q46 55 137 55q153 0 153 -147z" />
<glyph unicode="s" horiz-adv-x="513" d="M463 343h-79q0 41 -24.5 58t-85.5 18h-9q-67 0 -93 -15q-27 -15 -28 -50q0 -14 2 -24.5t4.5 -17.5t9.5 -12l12 -8q4 -2 16 -4t16.5 -2.5t21 -1t21.5 -0.5q11 -1 36 -1.5t36 -1.5t32 -3.5t31 -6.5t25.5 -11t23 -17.5t16 -24.5t11.5 -34t3 -45q0 -81 -54 -115 q-52 -32 -154 -32h-6q-100 1 -148.5 34t-48.5 115h79q0 -42 25 -59t92 -17q73 0 101.5 15t28.5 65q0 39 -21.5 49t-80.5 12h-9q-98 4 -128 13q-77 24 -78 123v6q1 82 55 114q51 30 153 30h6q94 -1 142 -34.5t48 -114.5z" />
<glyph unicode="t" horiz-adv-x="467" d="M447 141q0 -149 -171 -149q-167 0 -167 151v268h-80v73h80v183h85v-183h214v-73h-214v-268q0 -43 19.5 -60.5t66.5 -17.5q46 0 67 18t21 58h79z" />
<glyph unicode="u" horiz-adv-x="543" d="M473 0h-79v48q-51 -56 -148 -56q-38 0 -67 7t-48 16.5t-32.5 29t-20 33.5t-9.5 41.5t-3.5 42.5t-0.5 45v13v264h86v-255q0 -86 5 -105q11 -43 66 -51q15 -2 35 -2q38 0 64 10.5t39 24t19.5 42t7.5 47t1 56.5v10v223h85v-484z" />
<glyph unicode="v" horiz-adv-x="490" d="M477 484l-189 -484h-85l-190 484h91l143 -380l141 380h89z" />
<glyph unicode="w" horiz-adv-x="713" d="M693 484l-138 -484h-89l-108 378l-108 -378h-91l-139 484h89l100 -377l105 377h87l106 -377l100 377h86z" />
<glyph unicode="x" horiz-adv-x="495" d="M480 0h-102l-131 188l-134 -188h-98l182 247l-175 237h102l124 -178l128 178h99l-177 -236z" />
<glyph unicode="y" horiz-adv-x="472" d="M460 484l-255 -675h-87l76 197l-180 478h89l135 -379l133 379h89z" />
<glyph unicode="z" horiz-adv-x="487" d="M440 0h-394v72l286 339h-286v73h394v-72l-285 -336h285v-76z" />
<glyph unicode="{" horiz-adv-x="381" d="M349 -191q-109 0 -152.5 46.5t-43.5 158.5v162q0 25 -21 47l-42 45q-21 23 -21 50q0 26 21 49l42 45q21 22 21 46v164q0 111 43.5 157.5t152.5 46.5v-75q-71 0 -92 -26t-21 -101v-178q0 -17 -3.5 -31t-12.5 -26.5t-15 -19.5t-19.5 -19t-18.5 -17q-8 -8 -8 -16t7 -15 t21.5 -20t20.5 -19.5t14 -18.5t11 -25t3 -30v-177q0 -74 21.5 -100.5t91.5 -26.5v-76z" />
<glyph unicode="|" horiz-adv-x="285" d="M184 -191h-83v858h83v-858z" />
<glyph unicode="}" horiz-adv-x="381" d="M312 318q0 -27 -21 -50l-42 -45q-21 -22 -21 -47v-162q0 -112 -43.5 -158.5t-152.5 -46.5v76q70 0 91.5 26.5t21.5 100.5v177q0 17 3 30t11 25t14 18.5t20.5 19.5t21.5 20t7 15t-8 16q-5 5 -18.5 17t-19.5 19t-15 19.5t-12.5 26.5t-3.5 31v178q0 75 -21 101t-92 26v75 q109 0 152.5 -46.5t43.5 -157.5v-164q0 -24 21 -46l42 -45q21 -23 21 -49z" />
<glyph unicode="~" d="M549 256q-40 -35 -83 -62q-45 -29 -87 -29q-39 0 -77 24q-63 39 -85 44q-8 2 -17 2l-45 -14q-47 -31 -74 -53l-48 58q37 34 83 62q45 29 88 29q39 0 76 -24q63 -39 84 -44q8 -2 17 -2l45 14q46 31 74 53z" />
<glyph unicode="&#xa1;" horiz-adv-x="289" d="M199 438q0 -56 -54 -56q-55 0 -55 56q0 54 55 54q54 0 54 -54zM186 -183h-83v477h83v-477z" />
<glyph unicode="&#xa2;" horiz-adv-x="537" d="M487 141q0 -135 -171 -147v-89h-76v89q-58 4 -96 22.5t-57 53.5t-25.5 74.5t-6.5 99.5q0 59 7 98.5t26 73.5t56.5 52.5t95.5 22.5v84h76v-84q171 -12 171 -148h-81q0 65 -90 71v-344q90 6 90 71h81zM240 70v344q-63 -6 -81.5 -44.5t-18.5 -126.5t18.5 -127t81.5 -46z" />
<glyph unicode="&#xa3;" horiz-adv-x="578" d="M538 0h-485v78h61v221h-61v77h61v82v19v21q0 5 0.5 18.5t1.5 20t3 18.5t5 19.5t7.5 17t10.5 17.5t14 15q51 50 167 50q33 0 55 -1.5t53.5 -10.5t50.5 -25t33 -47t14 -75h-82q0 50 -27.5 65.5t-86.5 15.5q-46 0 -73 -6.5t-40 -25t-16.5 -40.5t-3.5 -64v-84h285v-77h-285 v-221h338v-78z" />
<glyph unicode="&#xa4;" d="M532 152q0 -47 -16 -79.5t-45.5 -49.5t-64 -23.5t-79.5 -6.5q-125 0 -172 58.5t-49 182.5h-59v72h59v57h-60v72h60q3 124 50 181.5t171 57.5q94 0 149.5 -34.5t55.5 -124.5h-86q0 49 -29 65t-90 16q-44 0 -71.5 -10t-41 -33t-17.5 -48.5t-5 -69.5h179v-72h-180v-57h179 v-72h-178q1 -36 3 -57.5t10 -44t22 -34t38.5 -19t60.5 -7.5q62 0 91 15.5t29 64.5h86z" />
<glyph unicode="&#xa5;" horiz-adv-x="581" d="M565 667l-148 -242h76v-72h-120l-35 -56h155v-72h-159v-225h-87v225h-159v72h155l-35 56h-121v72h77l-148 242h99l176 -294l175 294h99z" />
<glyph unicode="&#xa6;" horiz-adv-x="285" d="M184 344h-83v323h83v-323zM184 -191h-83v323h83v-323z" />
<glyph unicode="&#xa7;" horiz-adv-x="575" d="M495 49q0 -48 -15.5 -80t-45.5 -48t-62.5 -22.5t-77.5 -6.5h-6q-103 0 -154 34q-53 35 -53 125h85q0 -46 26 -64q26 -17 94 -17h8q59 0 86.5 16.5t27.5 67.5q0 22 -6.5 37t-14 23t-25.5 11.5t-30 4t-38 0.5h-10q-58 0 -93.5 6.5t-64.5 29.5q-45 37 -45 116q0 88 60 114 q-61 29 -61 121q0 48 15.5 80t45.5 48t62.5 22.5t77.5 6.5h6q103 0 154 -34q52 -35 53 -125h-85q0 46 -27 64q-25 17 -93 17h-8q-59 0 -86.5 -16.5t-27.5 -67.5q0 -22 6 -37t14 -23t26 -11.5t30 -4t38 -0.5h10q58 0 93.5 -6.5t64.5 -29.5q45 -37 45 -116q0 -88 -60 -114 q61 -29 61 -121zM407 285q0 26 -8 42t-27 23t-36 8.5t-50 1.5q-24 0 -38 -1t-31.5 -5t-27 -12.5t-16 -24t-6.5 -37.5q0 -21 6.5 -35.5t15.5 -22.5t27 -11.5t32.5 -4.5t40.5 -1q24 0 38 1t31.5 5t26.5 12.5t15.5 24t6.5 37.5z" />
<glyph unicode="&#xa8;" horiz-adv-x="427" d="M370 619q0 -49 -50 -49q-48 0 -48 49q0 48 48 48q50 0 50 -48zM155 619q0 -49 -50 -49q-48 0 -48 49q0 48 48 48q50 0 50 -48z" />
<glyph unicode="&#xa9;" horiz-adv-x="815" d="M743 334q0 -197 -70 -269.5t-266 -72.5q-102 0 -165 16t-102 57.5t-53.5 105t-14.5 165.5q0 82 9.5 137.5t31.5 96t61.5 62.5t95 32t137.5 10q102 0 164.5 -15t102 -55.5t54.5 -103.5t15 -166zM679 337q0 87 -10.5 138t-41.5 83.5t-82 44t-138 11.5q-89 0 -140 -11.5 t-81.5 -45.5t-40 -84.5t-9.5 -139.5q0 -69 7 -113.5t23.5 -79t48 -52.5t77.5 -26.5t115 -8.5q87 0 138.5 12.5t82 47.5t41 86t10.5 138zM601 254q0 -86 -49 -118t-143 -32q-123 0 -164.5 51.5t-41.5 178.5q0 125 42 177.5t164 52.5q94 0 143 -32t49 -118h-64q0 56 -32 73 t-96 17q-48 0 -76.5 -9t-42.5 -33.5t-17.5 -51t-3.5 -76.5q0 -40 2 -63t9.5 -46.5t22.5 -35t41 -18.5t65 -7q65 0 96.5 17t31.5 73h64z" />
<glyph unicode="&#xaa;" horiz-adv-x="382" d="M345 336h-54v37q-48 -42 -116 -42q-70 0 -105 24t-35 79q0 65 38.5 87t106.5 22h103v1q1 45 -16.5 60t-72.5 15q-88 0 -88 -45h-61q0 100 155 100q31 0 54.5 -5t39 -12t26 -21t15.5 -23t7.5 -28.5t2.5 -28.5v-29v-191zM282 488h-105q-42 0 -61.5 -10t-19.5 -43 q0 -27 16 -38.5t61 -11.5q74 0 97 40q12 23 12 63z" />
<glyph unicode="&#xab;" horiz-adv-x="478" d="M439 397l-41 -42q-24 -25 -35 -37.5t-23.5 -35t-12.5 -42.5q0 -7 1.5 -14t3 -12.5t6 -13t6.5 -12t9 -12.5t9.5 -11.5t11 -12t10.5 -11t12 -11.5l11 -12l31 -31l-55 -52q-75 69 -99 103q-38 53 -38 101q0 29 11.5 57.5t38 60t40.5 46.5l48 47zM236 397l-41 -42 q-24 -25 -35 -37.5t-23.5 -35t-12.5 -42.5q0 -7 1.5 -14t3 -12.5t6 -13t6.5 -12t9 -12.5t9.5 -11.5t11 -12t10.5 -11t11 -11.5l12 -12l31 -31l-55 -52q-75 69 -99 103q-38 53 -38 101q0 29 11.5 57.5t38 60t41.5 46.5l47 47z" />
<glyph unicode="&#xac;" d="M544 0h-81v297h-425v78h506v-375z" />
<glyph unicode="&#xad;" horiz-adv-x="505" d="M431 204h-357v77h357v-77z" />
<glyph unicode="&#xae;" horiz-adv-x="525" d="M489 448q0 -131 -47 -179t-179 -48q-134 0 -180.5 47.5t-46.5 180.5q0 135 45.5 180t181.5 45q135 0 180.5 -45.5t45.5 -180.5zM441 450q0 110 -33.5 144t-144.5 34q-113 0 -146 -34t-33 -147q0 -110 34 -145t145 -35q110 0 144 36t34 147zM366 314h-46v80 q0 18 -5.5 26.5t-13.5 10t-27 1.5h-59v-118h-48v274h96q21 0 32.5 -0.5t27 -4.5t23.5 -11.5t14 -22t6 -35.5q0 -40 -28 -59q15 -9 21.5 -22t6.5 -42v-77zM319 510q0 6 -0.5 11t-1 8.5t-3 6.5t-3.5 5t-5 3t-5.5 2t-8.5 1h-8h-12h-13h-45v-73h48h12h12q3 0 9.5 0.5t8.5 2t6 4 t5.5 6.5t2.5 9.5t1 13.5z" />
<glyph unicode="&#xaf;" horiz-adv-x="428" d="M386 587h-344v65h344v-65z" />
<glyph unicode="&#xb0;" horiz-adv-x="537" d="M418 517q0 -80 -36 -117t-113 -37q-78 0 -114 37t-36 117t35.5 115t113.5 35t114 -35.5t36 -114.5zM354 515q0 51 -18 70.5t-68 19.5t-67 -19.5t-17 -70.5t17 -70.5t67 -19.5t68 19.5t18 70.5z" />
<glyph unicode="&#xb1;" d="M545 230h-216v-178h-77v178h-215v77h215v177h77v-177h216v-77zM550 -77h-518v77h518v-77z" />
<glyph unicode="&#xb2;" horiz-adv-x="410" d="M323 552q0 -28 -5 -47t-18.5 -30.5t-24 -17t-34.5 -14.5q-5 -2 -8 -3l-33 -12l-36 -12q-12 -4 -25 -12t-19 -17q-7 -12 -7 -33v-31h209v-56h-272v97q0 23 7.5 41t15 28.5t28 20.5t30 13.5t37.5 11t35 9.5q34 10 45.5 22.5t11.5 41.5q0 37 -15.5 50t-58.5 13 q-41 0 -58 -9.5t-17 -38.5h-62q0 58 35.5 81t100.5 23q69 0 103.5 -27t34.5 -92z" />
<glyph unicode="&#xb3;" horiz-adv-x="410" d="M327 385q0 -67 -36 -93.5t-106 -26.5q-66 0 -102 23.5t-36 83.5h62q1 -29 17.5 -40t58.5 -11q49 0 64.5 11t15.5 52q0 42 -15.5 54t-62.5 12h-76v55h76q42 0 58 9.5t16 44.5q0 33 -14 46t-60 13q-43 0 -59.5 -11t-16.5 -40h-61q0 59 35.5 83t101.5 24q70 0 103 -26.5 t33 -86.5q0 -63 -33 -84q37 -22 37 -92z" />
<glyph unicode="&#xb4;" horiz-adv-x="427" d="M328 667l-133 -126h-96l133 126h96z" />
<glyph unicode="&#xb5;" horiz-adv-x="548" d="M478 0h-79v47q-50 -55 -143 -55q-68 0 -102 28v-211h-84v675h85v-255q0 -90 8 -112q14 -40 75 -45q11 -1 24 -1q38 0 64 10.5t39 24t19.5 42t7.5 47t1 56.5v10v223h85v-484z" />
<glyph unicode="&#xb6;" horiz-adv-x="590" d="M492 0h-78v590h-58v-590h-78v291h-3h-4h-3h-3h-4h-3h-3h-4h-3h-3h-4h-8q-95 0 -145.5 40t-50.5 147q0 35 5 62.5t17 47t24 33.5t34.5 22.5t38 13.5t46.5 7t48.5 2.5t52.5 0.5h11h178v-667zM278 369v221q-82 0 -104 -7q-50 -24 -52 -102q0 -18 2 -33t4 -26t9 -19.5t10 -14 t15.5 -9.5t16 -6t21 -3t22.5 -1h28h28z" />
<glyph unicode="&#xb7;" horiz-adv-x="221" d="M165 337q0 -56 -54 -56q-55 0 -55 56q0 54 55 54q54 0 54 -54z" />
<glyph unicode="&#xb8;" horiz-adv-x="428" d="M292 -110q0 -79 -84 -79q-43 0 -63.5 16.5t-20.5 53.5h47q0 -17 8 -22.5t29 -5.5t27.5 8t6.5 27q0 31 -35 33q-8 1 -30 1v78h50v-41q32 -1 48.5 -19t16.5 -50z" />
<glyph unicode="&#xb9;" horiz-adv-x="401" d="M303 267h-243v57h89v256l-56 -49l-41 40l110 96h51v-343h90v-57z" />
<glyph unicode="&#xba;" horiz-adv-x="384" d="M351 503q0 -53 -8 -83t-28 -50q-39 -38 -123 -38q-85 0 -124 38q-20 20 -27.5 50t-7.5 83t7.5 83.5t27.5 50.5q38 37 124 37q85 0 123 -37q36 -35 36 -134zM289 503q0 67 -17 91t-80 24q-65 0 -81 -23.5t-16 -91.5t16 -91t81 -23q64 0 80.5 23.5t16.5 90.5z" />
<glyph unicode="&#xbb;" horiz-adv-x="478" d="M435 239q0 -36 -22.5 -75t-45 -62.5t-59.5 -57.5q-7 -6 -10 -9l-55 52l31 31l8 8q24 24 36 37t24 35t12 42t-12.5 42.5t-23.5 35t-35 37.5l-41 42l55 53l47 -47q15 -15 41.5 -46.5t38 -60t11.5 -57.5zM232 239q0 -36 -22.5 -75t-45 -62.5t-59.5 -57.5q-7 -6 -10 -9 l-55 52l31 31l8 8q24 24 36 37t24 35t12 42t-12.5 42.5t-23.5 35t-35 37.5l-41 42l55 53l48 -47q14 -15 40.5 -46.5t38 -60t11.5 -57.5z" />
<glyph unicode="&#xbc;" horiz-adv-x="807" d="M736 103h-60v-103h-61v103h-186v53l188 250h59v-249h60v-54zM630 667l-358 -667h-68l356 667h70zM303 267h-243v57h89v256l-56 -49l-41 40l110 96h51v-343h90v-57zM615 157v160l-116 -160h116z" />
<glyph unicode="&#xbd;" horiz-adv-x="804" d="M772 285q0 -28 -5 -47t-18.5 -30.5t-24 -17t-34.5 -14.5q-5 -2 -8 -3q-11 -4 -34 -11l-34 -12q-13 -5 -26 -13t-19 -17q-7 -12 -7 -33v-31h209v-56h-272v97q0 23 7.5 41t15 28.5t28 20.5t30 13.5t37.5 11t35 9.5q34 10 45.5 22.5t11.5 41.5q0 37 -15.5 50t-58.5 13 q-41 0 -58 -9.5t-17 -38.5h-62q0 58 35.5 81t100.5 23q69 0 103.5 -27t34.5 -92zM630 667l-358 -667h-68l356 667h70zM303 267h-243v56h89v257l-56 -49l-41 40l110 96h51v-344h90v-56z" />
<glyph unicode="&#xbe;" horiz-adv-x="797" d="M736 103h-60v-103h-61v103h-186v53l188 250h59v-249h60v-54zM630 667l-358 -667h-68l356 667h70zM327 385q0 -67 -36 -93.5t-106 -26.5q-66 0 -102 23.5t-36 83.5h62q1 -29 17.5 -40t58.5 -11q49 0 64.5 11t15.5 52q0 42 -15.5 54t-62.5 12h-76v55h76q42 0 58 9.5 t16 44.5q0 33 -14 46t-60 13q-43 0 -59.5 -11t-16.5 -40h-61q0 59 35.5 83t101.5 24q70 0 103 -26.5t33 -86.5q0 -63 -33 -84q37 -22 37 -92zM615 157v160l-116 -160h116z" />
<glyph unicode="&#xbf;" horiz-adv-x="442" d="M295 438q0 -56 -54 -56q-55 0 -55 56q0 54 55 54q54 0 54 -54zM422 -31q0 -96 -49.5 -135t-147.5 -39q-101 0 -150.5 42t-49.5 142q0 62 23.5 100.5t73.5 63.5q54 27 65 41.5t11 67.5v42h86v-58q0 -56 -18 -89.5t-44 -47t-51.5 -24t-43.5 -33.5t-18 -63q0 -58 24 -82.5 t90 -24.5q65 0 90.5 22t25.5 75h83z" />
<glyph unicode="&#xc0;" horiz-adv-x="628" d="M616 0h-97l-68 184h-279l-67 -184h-93l258 667h89zM423 261l-111 299l-111 -299h222zM418 736h-96l-133 126h96z" />
<glyph unicode="&#xc1;" horiz-adv-x="628" d="M616 0h-97l-68 184h-279l-67 -184h-93l258 667h89zM423 261l-111 299l-111 -299h222zM450 862l-133 -126h-96l133 126h96z" />
<glyph unicode="&#xc2;" horiz-adv-x="628" d="M616 0h-97l-68 184h-279l-67 -184h-93l258 667h89zM423 261l-111 299l-111 -299h222zM489 735h-90l-79 76l-78 -76h-91l131 127h76z" />
<glyph unicode="&#xc3;" horiz-adv-x="628" d="M616 0h-97l-68 184h-279l-67 -184h-93l258 667h89zM423 261l-111 299l-111 -299h222zM508 802l-30 -16l-32 -16q-9 -5 -30 -12.5t-34 -7.5q-2 -1 -4 -1q-12 0 -28 4q-19 4 -36 14l-14 9q-10 7 -13 8t-12 5.5t-15 4.5h-14q-8 0 -17 -3.5t-20 -8.5l-59 -30l-31 58l29 16 q26 13 33.5 16.5t29.5 11.5t35 8t32 -4t36 -14l14 -9q10 -7 13 -8t12 -5.5t14 -4.5h14q9 0 18 3.5t19 8.5l59 31z" />
<glyph unicode="&#xc4;" horiz-adv-x="628" d="M616 0h-97l-68 184h-279l-67 -184h-93l258 667h89zM423 261l-111 299l-111 -299h222zM475 815q0 -49 -50 -49q-48 0 -48 49q0 48 48 48q50 0 50 -48zM260 815q0 -49 -50 -49q-48 0 -48 49q0 48 48 48q50 0 50 -48z" />
<glyph unicode="&#xc5;" horiz-adv-x="628" d="M615 0h-96l-69 184h-278l-68 -184h-92l242 629q-60 18 -60 110q0 61 27 84.5t92 23.5t92.5 -25t27.5 -86q0 -92 -61 -107zM375 732q0 37 -12 50t-50 13q-37 0 -48.5 -12.5t-11.5 -50.5q0 -37 11.5 -48t49.5 -11q37 0 49 11.5t12 47.5zM422 260l-111 300l-111 -300h222z " />
<glyph unicode="&#xc6;" horiz-adv-x="931" d="M860 0h-397v184h-238l-121 -184h-102l446 667h412v-80h-310v-205h300v-80h-300v-222h310v-80zM463 262v284l-187 -284h187z" />
<glyph unicode="&#xc7;" horiz-adv-x="647" d="M584 179q0 -99 -53.5 -141t-165.5 -45v-34q32 -1 48.5 -19t16.5 -50q0 -79 -84 -79q-43 0 -63.5 16.5t-20.5 53.5h47q0 -17 8 -22.5t29 -5.5t27.5 8t6.5 27q0 31 -35 33q-8 1 -30 1v71q-40 1 -72 8t-56 15.5t-42.5 26t-30.5 32t-20.5 41t-12.5 45t-6 54t-2.5 56.5 t-0.5 63t0.5 64.5t3 58.5t7 55t14 45.5t23 41t34 31.5t47.5 25t63 13.5t80 5.5q122 0 181 -42t59 -145h-86q0 61 -33.5 83.5t-129.5 22.5q-36 0 -62.5 -5t-45.5 -12.5t-31 -25.5t-19.5 -34t-10.5 -48.5t-4 -59.5t-1 -75t1 -75t4 -59t10.5 -48.5t19.5 -34t31 -25t45.5 -12.5 t62.5 -5q96 0 129.5 22t33.5 83h86z" />
<glyph unicode="&#xc8;" horiz-adv-x="593" d="M522 0h-438v667h438v-80h-349v-205h339v-80h-339v-222h349v-80zM401 736h-96l-133 126h96z" />
<glyph unicode="&#xc9;" horiz-adv-x="593" d="M522 0h-438v667h438v-80h-349v-205h339v-80h-339v-222h349v-80zM432 862l-133 -126h-96l133 126h96z" />
<glyph unicode="&#xca;" horiz-adv-x="593" d="M522 0h-438v667h438v-80h-349v-205h339v-80h-339v-222h349v-80zM474 735h-90l-79 76l-78 -76h-91l131 127h76z" />
<glyph unicode="&#xcb;" horiz-adv-x="593" d="M522 0h-438v667h438v-80h-349v-205h339v-80h-339v-222h349v-80zM469 814q0 -49 -50 -49q-48 0 -48 49q0 48 48 48q50 0 50 -48zM254 814q0 -49 -50 -49q-48 0 -48 49q0 48 48 48q50 0 50 -48z" />
<glyph unicode="&#xcc;" horiz-adv-x="257" d="M173 0h-89v667h89v-667zM258 736h-96l-133 126h96z" />
<glyph unicode="&#xcd;" horiz-adv-x="257" d="M173 0h-89v667h89v-667zM263 862l-133 -126h-96l133 126h96z" />
<glyph unicode="&#xce;" horiz-adv-x="257" d="M173 0h-89v667h89v-667zM316 735h-90l-79 76l-78 -76h-91l131 127h76z" />
<glyph unicode="&#xcf;" horiz-adv-x="257" d="M173 0h-89v667h89v-667zM303 814q0 -49 -50 -49q-48 0 -48 49q0 48 48 48q50 0 50 -48zM88 814q0 -49 -50 -49q-48 0 -48 49q0 48 48 48q50 0 50 -48z" />
<glyph unicode="&#xd0;" horiz-adv-x="688" d="M616 333q0 -106 -8.5 -157.5t-32.5 -88.5q-32 -49 -85.5 -68t-148.5 -19h-240v296h-76v80h76v291h240q95 0 148 -19t85 -68q24 -37 33 -89.5t9 -157.5zM527 333q0 159 -33 206q-19 27 -54 37t-105 10h-146v-210h179v-80h-179v-215h146q71 0 105.5 9.5t53.5 36.5 q33 47 33 206z" />
<glyph unicode="&#xd1;" horiz-adv-x="655" d="M571 0h-94l-307 520v-520h-86v667h93l308 -517v517h86v-667zM525 804l-29 -15l-33 -18q-9 -4 -30 -11.5t-35 -8.5h-3q-12 0 -29 4q-18 4 -35 14l-13 9q-11 7 -14 8t-12 5.5t-14 4.5h-14q-9 0 -18 -3.5t-20 -8.5l-59 -30l-31 58l30 15q25 14 32.5 17.5t29.5 11.5t35 8 t32 -4t36 -14l13 -9q11 -7 14 -8t12 -5.5t14 -4.5h14q9 0 18 3.5t19 8.5l59 31z" />
<glyph unicode="&#xd2;" horiz-adv-x="674" d="M602 335q0 -42 -0.5 -67t-3 -60t-7.5 -55t-14 -46t-22.5 -41t-33.5 -31t-46 -24t-60.5 -13.5t-77.5 -5.5q-175 0 -229 91q-34 57 -36 194v57q0 146 15 200q26 95 121 124q52 16 128 16q175 0 229 -88q35 -57 37 -193v-58zM513 334q0 95 -6 138t-23 69q-18 28 -52 40 t-96 12q-115 0 -148 -53q-16 -25 -22 -68t-6 -139q0 -95 6 -138t23 -69q32 -52 148 -52q61 0 95 12t52 40q17 26 23 69.5t6 138.5zM456 736h-96l-133 126h96z" />
<glyph unicode="&#xd3;" horiz-adv-x="674" d="M602 335q0 -42 -0.5 -67t-3 -60t-7.5 -55t-14 -46t-22.5 -41t-33.5 -31t-46 -24t-60.5 -13.5t-77.5 -5.5q-175 0 -229 91q-34 57 -36 194v57q0 146 15 200q26 95 121 124q52 16 128 16q175 0 229 -88q35 -57 37 -193v-58zM513 334q0 95 -6 138t-23 69q-18 28 -52 40 t-96 12q-115 0 -148 -53q-16 -25 -22 -68t-6 -139q0 -95 6 -138t23 -69q32 -52 148 -52q61 0 95 12t52 40q17 26 23 69.5t6 138.5zM445 862l-133 -126h-96l133 126h96z" />
<glyph unicode="&#xd4;" horiz-adv-x="674" d="M602 335q0 -42 -0.5 -67t-3 -60t-7.5 -55t-14 -46t-22.5 -41t-33.5 -31t-46 -24t-60.5 -13.5t-77.5 -5.5q-175 0 -229 91q-34 57 -36 194v57q0 146 15 200q26 95 121 124q52 16 128 16q175 0 229 -88q35 -57 37 -193v-58zM513 334q0 95 -6 138t-23 69q-18 28 -52 40 t-96 12q-115 0 -148 -53q-16 -25 -22 -68t-6 -139q0 -95 6 -138t23 -69q32 -52 148 -52q61 0 95 12t52 40q17 26 23 69.5t6 138.5zM505 735h-90l-79 76l-78 -76h-91l131 127h76z" />
<glyph unicode="&#xd5;" horiz-adv-x="674" d="M602 335q0 -42 -0.5 -67t-3 -60t-7.5 -55t-14 -46t-22.5 -41t-33.5 -31t-46 -24t-60.5 -13.5t-77.5 -5.5q-175 0 -229 91q-34 57 -36 194v57q0 146 15 200q26 95 121 124q52 16 128 16q175 0 229 -88q35 -57 37 -193v-58zM513 334q0 95 -6 138t-23 69q-18 28 -52 40 t-96 12q-115 0 -148 -53q-16 -25 -22 -68t-6 -139q0 -95 6 -138t23 -69q32 -52 148 -52q61 0 95 12t52 40q17 26 23 69.5t6 138.5zM531 804l-29 -15l-33 -18q-9 -4 -30 -11.5t-35 -8.5h-3q-12 0 -29 4q-18 4 -35 14l-13 9q-11 7 -14 8t-12 5.5t-14 4.5h-14q-9 0 -18 -3.5 t-20 -8.5l-59 -30l-31 58l30 15q25 14 32.5 17.5t29.5 11.5t35 8t32 -4t36 -14l13 -9q11 -7 14 -8t12 -5.5t14 -4.5h14q9 0 18 3.5t19 8.5l59 31z" />
<glyph unicode="&#xd6;" horiz-adv-x="674" d="M602 335q0 -42 -0.5 -67t-3 -60t-7.5 -55t-14 -46t-22.5 -41t-33.5 -31t-46 -24t-60.5 -13.5t-77.5 -5.5q-175 0 -229 91q-34 57 -36 194v57q0 146 15 200q26 95 121 124q52 16 128 16q175 0 229 -88q35 -57 37 -193v-58zM513 334q0 95 -6 138t-23 69q-18 28 -52 40 t-96 12q-115 0 -148 -53q-16 -25 -22 -68t-6 -139q0 -95 6 -138t23 -69q32 -52 148 -52q61 0 95 12t52 40q17 26 23 69.5t6 138.5zM497 815q0 -49 -50 -49q-48 0 -48 49q0 48 48 48q50 0 50 -48zM282 815q0 -49 -50 -49q-48 0 -48 49q0 48 48 48q50 0 50 -48z" />
<glyph unicode="&#xd7;" d="M524 74l-54 -54l-180 179l-178 -179l-54 54l179 178l-179 180l54 54l178 -180l180 180l54 -54l-180 -180z" />
<glyph unicode="&#xd8;" horiz-adv-x="674" d="M602 333q0 -38 -1 -60.5t-3 -54.5t-6 -51t-10.5 -44t-17 -39.5t-25 -32t-34 -26.5t-44.5 -18t-57 -12t-70 -3q-5 0 -20 0.5t-18 0.5l-31 -136l-74 16l31 132q-32 8 -56 22t-40 29.5t-26.5 42.5t-16 47t-8.5 58t-3 62v70q1 146 17 199q26 95 121 124q49 15 120 15h9h16 q9 0 15 -0.5t7 -0.5l30 134l74 -18l-29 -127q36 -10 62 -25t42.5 -38.5t26.5 -47t14 -62.5t5 -71v-37v-48zM513 332v28q0 75 -5 111q-5 43 -22 69q-20 30 -53 40l-117 -505q9 -1 19 -1h9q55 0 86 12q34 12 52 39q17 26 23.5 69.5t7.5 137.5zM357 592q-5 1 -19 1h-9 q-55 0 -87 -11q-34 -13 -52 -41q-17 -26 -23 -68.5t-7 -137.5v-26q0 -75 5 -113q6 -43 22 -69q19 -31 54 -40z" />
<glyph unicode="&#xd9;" horiz-adv-x="652" d="M574 335q0 -114 -2 -146q-3 -47 -16 -81q-46 -116 -230 -116t-230 116q-13 34 -16 81q-2 32 -2 146v332h89v-332v-39v-37q0 -10 0.5 -30.5t1.5 -30.5l3 -24q1 -14 4 -23.5t7 -17.5q29 -60 143 -60q115 0 144 59q4 8 7 17.5t5 23.5l2 23q1 10 1.5 31t0.5 31v38v39v332h88 v-332zM432 736h-96l-133 126h96z" />
<glyph unicode="&#xda;" horiz-adv-x="652" d="M574 335q0 -114 -2 -146q-3 -47 -16 -81q-46 -116 -230 -116t-230 116q-13 34 -16 81q-2 32 -2 146v332h89v-332v-39v-37q0 -10 0.5 -30.5t1.5 -30.5l3 -24q1 -14 4 -23.5t7 -17.5q29 -60 143 -60q115 0 144 59q4 8 7 17.5t5 23.5l2 23q1 10 1.5 31t0.5 31v38v39v332h88 v-332zM459 862l-133 -126h-96l133 126h96z" />
<glyph unicode="&#xdb;" horiz-adv-x="652" d="M574 335q0 -114 -2 -146q-3 -47 -16 -81q-46 -116 -230 -116t-230 116q-13 34 -16 81q-2 32 -2 146v332h89v-332v-39v-37q0 -10 0.5 -30.5t1.5 -30.5l3 -24q1 -14 4 -23.5t7 -17.5q29 -60 143 -60q115 0 144 59q4 8 7 17.5t5 23.5l2 23q1 10 1.5 31t0.5 31v38v39v332h88 v-332zM502 735h-90l-79 76l-78 -76h-91l131 127h76z" />
<glyph unicode="&#xdc;" horiz-adv-x="652" d="M574 335q0 -114 -2 -146q-3 -47 -16 -81q-46 -116 -230 -116t-230 116q-13 34 -16 81q-2 32 -2 146v332h89v-332v-39v-37q0 -10 0.5 -30.5t1.5 -30.5l3 -24q1 -14 4 -23.5t7 -17.5q29 -60 143 -60q115 0 144 59q4 8 7 17.5t5 23.5l2 23q1 10 1.5 31t0.5 31v38v39v332h88 v-332zM489 815q0 -49 -50 -49q-48 0 -48 49q0 48 48 48q50 0 50 -48zM274 815q0 -49 -50 -49q-48 0 -48 49q0 48 48 48q50 0 50 -48z" />
<glyph unicode="&#xdd;" horiz-adv-x="568" d="M566 667l-237 -376v-291h-89v291l-238 376h102l182 -295l180 295h100zM409 862l-133 -126h-96l133 126h96z" />
<glyph unicode="&#xde;" horiz-adv-x="615" d="M573 337q0 -40 -7 -70t-17.5 -50.5t-31 -34.5t-38.5 -21.5t-49.5 -11.5t-55 -5t-63.5 -1h-138v-143h-89v667h89v-140h138q40 0 63 -0.5t55 -4.5t49.5 -11t38.5 -21t31.5 -34t17.5 -50t7 -69zM485 335q0 77 -45 99q-8 4 -18.5 6.5t-19 4t-23.5 2t-23 0.5h-24h-23h-136 v-224h136h23h24q8 0 23 0.5t23.5 2t19 4t18.5 6.5q45 22 45 99z" />
<glyph unicode="&#xdf;" horiz-adv-x="566" d="M501 196q0 -112 -55 -154t-167 -42h-61v77h63q77 0 105.5 24.5t28.5 95.5v5q0 76 -29 100q-29 26 -113 26h-55v77h55q73 0 105 21t32 91q0 64 -25.5 86.5t-103.5 22.5q-44 0 -70 -8t-38 -28.5t-15 -42.5t-3 -64v-483h-85v480v20v20q0 6 0.5 20t1.5 21t3 19t5 19.5 t7.5 17.5t10.5 18.5t14 15.5q55 53 169 53q110 0 161.5 -41.5t51.5 -139.5q0 -123 -72 -156q44 -17 61.5 -59.5t17.5 -111.5z" />
<glyph unicode="&#xe0;" horiz-adv-x="539" d="M474 0h-78v47q-47 -55 -161 -55q-94 0 -141 35t-47 116q0 40 11 68.5t28.5 45t45 26t53.5 12t62 2.5h143q0 27 -0.5 38t-3.5 29t-10.5 24.5t-21 15t-34.5 11t-52 2.5q-21 0 -35 -1t-32.5 -5t-30 -11t-19.5 -21t-8 -34h-82q0 43 16 73t47 45.5t67 22t84 6.5q41 0 73.5 -7 t53 -16.5t35 -26.5t22 -30.5t11 -37t4 -36t0.5 -35.5v-6v-297zM391 225h-148q-60 0 -85 -16t-25 -65q0 -42 24 -60.5t86 -18.5q51 0 81 9t44.5 32t18.5 48t4 71zM376 541h-96l-133 126h96z" />
<glyph unicode="&#xe1;" horiz-adv-x="539" d="M474 0h-78v47q-47 -55 -161 -55q-94 0 -141 35t-47 116q0 40 11 68.5t28.5 45t45 26t53.5 12t62 2.5h143q0 27 -0.5 38t-3.5 29t-10.5 24.5t-21 15t-34.5 11t-52 2.5q-21 0 -35 -1t-32.5 -5t-30 -11t-19.5 -21t-8 -34h-82q0 43 16 73t47 45.5t67 22t84 6.5q41 0 73.5 -7 t53 -16.5t35 -26.5t22 -30.5t11 -37t4 -36t0.5 -35.5v-6v-297zM391 225h-148q-60 0 -85 -16t-25 -65q0 -42 24 -60.5t86 -18.5q51 0 81 9t44.5 32t18.5 48t4 71zM396 667l-133 -126h-96l133 126h96z" />
<glyph unicode="&#xe2;" horiz-adv-x="539" d="M474 0h-78v47q-47 -55 -161 -55q-94 0 -141 35t-47 116q0 40 11 68.5t28.5 45t45 26t53.5 12t62 2.5h143q0 27 -0.5 38t-3.5 29t-10.5 24.5t-21 15t-34.5 11t-52 2.5q-21 0 -35 -1t-32.5 -5t-30 -11t-19.5 -21t-8 -34h-82q0 43 16 73t47 45.5t67 22t84 6.5q41 0 73.5 -7 t53 -16.5t35 -26.5t22 -30.5t11 -37t4 -36t0.5 -35.5v-6v-297zM391 225h-148q-60 0 -85 -16t-25 -65q0 -42 24 -60.5t86 -18.5q51 0 81 9t44.5 32t18.5 48t4 71zM441 540h-90l-79 76l-78 -76h-91l131 127h76z" />
<glyph unicode="&#xe3;" horiz-adv-x="539" d="M474 0h-78v47q-47 -55 -161 -55q-94 0 -141 35t-47 116q0 40 11 68.5t28.5 45t45 26t53.5 12t62 2.5h143q0 27 -0.5 38t-3.5 29t-10.5 24.5t-21 15t-34.5 11t-52 2.5q-21 0 -35 -1t-32.5 -5t-30 -11t-19.5 -21t-8 -34h-82q0 43 16 73t47 45.5t67 22t84 6.5q41 0 73.5 -7 t53 -16.5t35 -26.5t22 -30.5t11 -37t4 -36t0.5 -35.5v-6v-297zM391 225h-148q-60 0 -85 -16t-25 -65q0 -42 24 -60.5t86 -18.5q51 0 81 9t44.5 32t18.5 48t4 71zM465 609l-29 -15l-33 -18q-9 -4 -30 -11.5t-35 -8.5h-3q-12 0 -29 4q-18 4 -35 14l-13 9q-11 7 -14 8t-12 5.5 t-14 4.5h-14q-9 0 -18 -3.5t-20 -8.5l-59 -30l-31 58l30 15q25 14 32.5 17.5t29.5 11.5t35 8t32 -4t36 -14l13 -9q11 -7 14 -8t12 -5.5t14 -4.5h14q9 0 18 3.5t19 8.5l59 31z" />
<glyph unicode="&#xe4;" horiz-adv-x="539" d="M474 0h-78v47q-47 -55 -161 -55q-94 0 -141 35t-47 116q0 40 11 68.5t28.5 45t45 26t53.5 12t62 2.5h143q0 27 -0.5 38t-3.5 29t-10.5 24.5t-21 15t-34.5 11t-52 2.5q-21 0 -35 -1t-32.5 -5t-30 -11t-19.5 -21t-8 -34h-82q0 43 16 73t47 45.5t67 22t84 6.5q41 0 73.5 -7 t53 -16.5t35 -26.5t22 -30.5t11 -37t4 -36t0.5 -35.5v-6v-297zM391 225h-148q-60 0 -85 -16t-25 -65q0 -42 24 -60.5t86 -18.5q51 0 81 9t44.5 32t18.5 48t4 71zM428 619q0 -49 -50 -49q-48 0 -48 49q0 48 48 48q50 0 50 -48zM213 619q0 -49 -50 -49q-48 0 -48 49 q0 48 48 48q50 0 50 -48z" />
<glyph unicode="&#xe5;" horiz-adv-x="539" d="M474 0h-78v47q-47 -55 -161 -55q-94 0 -141 35t-47 116q0 40 11 68.5t28.5 45t45 26t53.5 12t62 2.5h143q0 27 -0.5 38t-3.5 29t-10.5 24.5t-21 15t-34.5 11t-52 2.5q-21 0 -35 -1t-32.5 -5t-30 -11t-19.5 -21t-8 -34h-82q0 110 112 137q-19 17 -19 77t27.5 84t92.5 24 q66 0 93 -23.5t27 -84.5q0 -59 -21 -79q30 -9 50.5 -26t30 -32.5t14.5 -43t5.5 -40t0.5 -41.5v-297zM335 550q0 38 -12.5 51.5t-50.5 13.5t-49.5 -13t-11.5 -52q0 -38 12 -49.5t51 -11.5q37 0 49 12t12 49zM391 225h-148q-60 0 -85 -16t-25 -65q0 -42 24 -60.5t86 -18.5 q51 0 81 9t44.5 32t18.5 48t4 71z" />
<glyph unicode="&#xe6;" horiz-adv-x="874" d="M819 219h-343q0 -83 26 -118t108 -35q123 0 123 75h80q0 -149 -206 -149q-131 0 -174 73q-53 -73 -195 -73q-95 0 -143 34t-48 114q0 49 16 81t47 47t62.5 20t76.5 5h145q0 39 -3.5 59.5t-16 37t-37 22t-67.5 5.5q-27 0 -44.5 -2t-39 -8t-32.5 -22t-11 -40h-82 q0 147 210 147q131 0 173 -62q46 62 162 62q43 0 76 -7t55.5 -18t38 -31t24 -39.5t13 -51.5t5.5 -58.5t1 -67.5zM735 292q0 72 -27 99.5t-103 27.5q-73 0 -100.5 -30t-27.5 -97h258zM394 220h-149q-61 0 -86.5 -15t-25.5 -64q0 -41 25 -58.5t87 -17.5q51 0 81 8t44.5 29.5 t19 46.5t4.5 71z" />
<glyph unicode="&#xe7;" horiz-adv-x="523" d="M473 141q0 -140 -176 -148v-34q32 -1 48.5 -19t16.5 -50q0 -79 -84 -79q-43 0 -63.5 16.5t-20.5 53.5h47q0 -17 8 -22.5t29 -5.5t27.5 8t6.5 27q0 31 -35 33q-8 1 -30 1v71q-61 3 -100 21t-58.5 52.5t-26.5 75t-7 101.5q0 49 3.5 82t16.5 67t36 54.5t63.5 33t97.5 12.5 q201 0 201 -149h-81q0 24 -10 39.5t-29.5 22t-37 8.5t-41.5 2q-37 0 -61 -7t-38.5 -18.5t-22 -35t-9.5 -47.5t-2 -64q0 -51 3.5 -78.5t16.5 -52t40 -34t73 -9.5q24 0 41.5 2t37 8.5t29.5 22t10 39.5h81z" />
<glyph unicode="&#xe8;" horiz-adv-x="538" d="M483 213h-342q0 -82 25.5 -114.5t108.5 -32.5q122 0 122 75h80q0 -149 -204 -149q-69 0 -113.5 16.5t-67 51.5t-30 75.5t-7.5 102.5q0 63 7.5 105t29.5 78t66 53.5t112 17.5q50 0 86.5 -8.5t59.5 -28t37 -40.5t20 -57t8 -66t2 -79zM399 286q0 74 -25 103.5t-104 29.5 q-75 0 -101.5 -32t-26.5 -101h257zM374 541h-96l-133 126h96z" />
<glyph unicode="&#xe9;" horiz-adv-x="538" d="M483 213h-342q0 -82 25.5 -114.5t108.5 -32.5q122 0 122 75h80q0 -149 -204 -149q-69 0 -113.5 16.5t-67 51.5t-30 75.5t-7.5 102.5q0 63 7.5 105t29.5 78t66 53.5t112 17.5q50 0 86.5 -8.5t59.5 -28t37 -40.5t20 -57t8 -66t2 -79zM399 286q0 74 -25 103.5t-104 29.5 q-75 0 -101.5 -32t-26.5 -101h257zM395 667l-133 -126h-96l133 126h96z" />
<glyph unicode="&#xea;" horiz-adv-x="538" d="M483 213h-342q0 -82 25.5 -114.5t108.5 -32.5q122 0 122 75h80q0 -149 -204 -149q-69 0 -113.5 16.5t-67 51.5t-30 75.5t-7.5 102.5q0 63 7.5 105t29.5 78t66 53.5t112 17.5q50 0 86.5 -8.5t59.5 -28t37 -40.5t20 -57t8 -66t2 -79zM399 286q0 74 -25 103.5t-104 29.5 q-75 0 -101.5 -32t-26.5 -101h257zM439 540h-90l-79 76l-78 -76h-91l131 127h76z" />
<glyph unicode="&#xeb;" horiz-adv-x="538" d="M483 213h-342q0 -82 25.5 -114.5t108.5 -32.5q122 0 122 75h80q0 -149 -204 -149q-69 0 -113.5 16.5t-67 51.5t-30 75.5t-7.5 102.5q0 63 7.5 105t29.5 78t66 53.5t112 17.5q50 0 86.5 -8.5t59.5 -28t37 -40.5t20 -57t8 -66t2 -79zM399 286q0 74 -25 103.5t-104 29.5 q-75 0 -101.5 -32t-26.5 -101h257zM427 619q0 -49 -50 -49q-48 0 -48 49q0 48 48 48q50 0 50 -48zM212 619q0 -49 -50 -49q-48 0 -48 49q0 48 48 48q50 0 50 -48z" />
<glyph unicode="&#xec;" horiz-adv-x="222" d="M155 0h-85v484h85v-484zM236 541h-96l-133 126h96z" />
<glyph unicode="&#xed;" horiz-adv-x="222" d="M155 0h-85v484h85v-484zM234 667l-133 -126h-96l133 126h96z" />
<glyph unicode="&#xee;" horiz-adv-x="222" d="M155 0h-85v484h85v-484zM289 540h-90l-79 76l-78 -76h-91l131 127h76z" />
<glyph unicode="&#xef;" horiz-adv-x="222" d="M155 0h-85v484h85v-484zM278 619q0 -49 -50 -49q-48 0 -48 49q0 48 48 48q50 0 50 -48zM63 619q0 -49 -50 -49q-48 0 -48 49q0 48 48 48q50 0 50 -48z" />
<glyph unicode="&#xf0;" horiz-adv-x="552" d="M497 242q0 -134 -45.5 -192t-175.5 -58q-69 0 -112.5 14.5t-67 48t-32.5 77t-9 111.5q0 42 2.5 71t13 62.5t29.5 54.5t53.5 36t82.5 18q14 1 27 1q19 0 35 -2l-96 97l-57 -48l-44 44l57 49l-46 46l57 51l46 -47l53 47l43 -44l-52 -46l148 -151q51 -52 70.5 -103.5 t19.5 -136.5zM412 242q0 99 -32.5 133.5t-115.5 35.5h-4q-75 0 -98 -39q-23 -40 -23 -130q0 -30 0.5 -47.5t3.5 -38.5t8.5 -32t15 -23.5t24.5 -18t36 -9t49 -3.5q48 0 76 9t41 34t16 51t3 78z" />
<glyph unicode="&#xf1;" horiz-adv-x="543" d="M478 0h-85v255q0 86 -5 105q-11 43 -66 51q-15 2 -35 2q-22 0 -40 -4t-31.5 -8t-23.5 -16t-16 -18t-10.5 -24.5t-6.5 -25.5t-3 -31t-1 -30v-33v-223h-85v484h77v-47q50 55 148 55q34 0 61 -5t45.5 -13.5t32.5 -20.5t22 -27t13.5 -32t6.5 -35l2 -37q1 -10 0.5 -19 t-0.5 -18v-20v-265zM467 609l-29 -15l-33 -18q-9 -4 -30 -11.5t-35 -8.5h-3q-12 0 -29 4q-18 4 -35 14l-13 9q-11 7 -14 8t-12 5.5t-14 4.5h-14q-9 0 -18 -3.5t-20 -8.5l-59 -30l-31 58l30 15q25 14 32.5 17.5t29.5 11.5t35 8t32 -4t36 -14l13 -9q11 -7 14 -8t12 -5.5 t14 -4.5h14q9 0 18 3.5t19 8.5l59 31z" />
<glyph unicode="&#xf2;" horiz-adv-x="555" d="M500 242q0 -78 -10.5 -123t-38.5 -73q-54 -54 -173 -54q-120 0 -174 54q-28 28 -38.5 73t-10.5 123t10.5 123t38.5 73q54 54 174 54q119 0 173 -54q28 -28 38.5 -73t10.5 -123zM414 242q0 51 -3.5 78.5t-17 52t-41 33.5t-74.5 9q-48 0 -76 -9.5t-41 -34.5t-16.5 -51.5 t-3.5 -77.5t3.5 -77.5t16.5 -51.5t41 -34.5t76 -9.5t75.5 9.5t41 34.5t16.5 51.5t3 77.5zM403 541h-96l-133 126h96z" />
<glyph unicode="&#xf3;" horiz-adv-x="555" d="M500 242q0 -78 -10.5 -123t-38.5 -73q-54 -54 -173 -54q-120 0 -174 54q-28 28 -38.5 73t-10.5 123t10.5 123t38.5 73q54 54 174 54q119 0 173 -54q28 -28 38.5 -73t10.5 -123zM414 242q0 51 -3.5 78.5t-17 52t-41 33.5t-74.5 9q-48 0 -76 -9.5t-41 -34.5t-16.5 -51.5 t-3.5 -77.5t3.5 -77.5t16.5 -51.5t41 -34.5t76 -9.5t75.5 9.5t41 34.5t16.5 51.5t3 77.5zM384 667l-133 -126h-96l133 126h96z" />
<glyph unicode="&#xf4;" horiz-adv-x="555" d="M500 242q0 -78 -10.5 -123t-38.5 -73q-54 -54 -173 -54q-120 0 -174 54q-28 28 -38.5 73t-10.5 123t10.5 123t38.5 73q54 54 174 54q119 0 173 -54q28 -28 38.5 -73t10.5 -123zM414 242q0 51 -3.5 78.5t-17 52t-41 33.5t-74.5 9q-48 0 -76 -9.5t-41 -34.5t-16.5 -51.5 t-3.5 -77.5t3.5 -77.5t16.5 -51.5t41 -34.5t76 -9.5t75.5 9.5t41 34.5t16.5 51.5t3 77.5zM449 540h-90l-79 76l-78 -76h-91l131 127h76z" />
<glyph unicode="&#xf5;" horiz-adv-x="555" d="M500 242q0 -78 -10.5 -123t-38.5 -73q-54 -54 -173 -54q-120 0 -174 54q-28 28 -38.5 73t-10.5 123t10.5 123t38.5 73q54 54 174 54q119 0 173 -54q28 -28 38.5 -73t10.5 -123zM414 242q0 51 -3.5 78.5t-17 52t-41 33.5t-74.5 9q-48 0 -76 -9.5t-41 -34.5t-16.5 -51.5 t-3.5 -77.5t3.5 -77.5t16.5 -51.5t41 -34.5t76 -9.5t75.5 9.5t41 34.5t16.5 51.5t3 77.5zM475 609l-29 -15l-33 -18q-9 -4 -30 -11.5t-35 -8.5h-3q-12 0 -29 4q-18 4 -35 14l-13 9q-11 7 -14 8t-12 5.5t-14 4.5h-14q-9 0 -18 -3.5t-20 -8.5l-59 -30l-31 58l30 15 q25 14 32.5 17.5t29.5 11.5t35 8t32 -4t36 -14l13 -9q11 -7 14 -8t12 -5.5t14 -4.5h14q9 0 18 3.5t19 8.5l59 31z" />
<glyph unicode="&#xf6;" horiz-adv-x="555" d="M500 242q0 -78 -10.5 -123t-38.5 -73q-54 -54 -173 -54q-120 0 -174 54q-28 28 -38.5 73t-10.5 123t10.5 123t38.5 73q54 54 174 54q119 0 173 -54q28 -28 38.5 -73t10.5 -123zM414 242q0 51 -3.5 78.5t-17 52t-41 33.5t-74.5 9q-48 0 -76 -9.5t-41 -34.5t-16.5 -51.5 t-3.5 -77.5t3.5 -77.5t16.5 -51.5t41 -34.5t76 -9.5t75.5 9.5t41 34.5t16.5 51.5t3 77.5zM437 619q0 -49 -50 -49q-48 0 -48 49q0 48 48 48q50 0 50 -48zM222 619q0 -49 -50 -49q-48 0 -48 49q0 48 48 48q50 0 50 -48z" />
<glyph unicode="&#xf7;" d="M346 438q0 -56 -54 -56q-55 0 -55 56q0 54 55 54q54 0 54 -54zM544 204h-506v77h506v-77zM346 48q0 -56 -54 -56q-55 0 -55 56q0 54 55 54q54 0 54 -54z" />
<glyph unicode="&#xf8;" horiz-adv-x="555" d="M500 240q-1 -76 -12 -121.5t-39 -73.5q-55 -53 -169 -53h-4q-34 0 -49 2l-35 -94l-73 26l34 88q-34 15 -55.5 39t-30 58.5t-10.5 61.5t-2 71q1 78 12 123t39 72q55 53 170 53h4q34 0 48 -2l33 88l72 -26l-31 -81q34 -15 55.5 -39t30 -59t10.5 -62.5t2 -70.5zM414 241 q0 55 -5.5 86.5t-12 42t-22.5 24.5l-118 -324q9 -1 25 -1q32 0 54.5 4t37 15t22.5 22t12.5 34.5t5.5 42.5t1 54zM301 414q-9 1 -21 1q-48 0 -76 -9t-41.5 -34t-17.5 -51.5t-4 -77.5v-14q0 -54 7 -85q8 -34 35 -52q118 318 118 322z" />
<glyph unicode="&#xf9;" horiz-adv-x="543" d="M473 0h-79v48q-51 -56 -148 -56q-38 0 -67 7t-48 16.5t-32.5 29t-20 33.5t-9.5 41.5t-3.5 42.5t-0.5 45v13v264h86v-255q0 -86 5 -105q11 -43 66 -51q15 -2 35 -2q38 0 64 10.5t39 24t19.5 42t7.5 47t1 56.5v10v223h85v-484zM388 541h-96l-133 126h96z" />
<glyph unicode="&#xfa;" horiz-adv-x="543" d="M473 0h-79v48q-51 -56 -148 -56q-38 0 -67 7t-48 16.5t-32.5 29t-20 33.5t-9.5 41.5t-3.5 42.5t-0.5 45v13v264h86v-255q0 -86 5 -105q11 -43 66 -51q15 -2 35 -2q38 0 64 10.5t39 24t19.5 42t7.5 47t1 56.5v10v223h85v-484zM399 667l-133 -126h-96l133 126h96z" />
<glyph unicode="&#xfb;" horiz-adv-x="543" d="M473 0h-79v48q-51 -56 -148 -56q-38 0 -67 7t-48 16.5t-32.5 29t-20 33.5t-9.5 41.5t-3.5 42.5t-0.5 45v13v264h86v-255q0 -86 5 -105q11 -43 66 -51q15 -2 35 -2q38 0 64 10.5t39 24t19.5 42t7.5 47t1 56.5v10v223h85v-484zM442 540h-90l-79 76l-78 -76h-91l131 127h76z " />
<glyph unicode="&#xfc;" horiz-adv-x="543" d="M473 0h-79v48q-51 -56 -148 -56q-38 0 -67 7t-48 16.5t-32.5 29t-20 33.5t-9.5 41.5t-3.5 42.5t-0.5 45v13v264h86v-255q0 -86 5 -105q11 -43 66 -51q15 -2 35 -2q38 0 64 10.5t39 24t19.5 42t7.5 47t1 56.5v10v223h85v-484zM431 619q0 -49 -50 -49q-48 0 -48 49 q0 48 48 48q50 0 50 -48zM216 619q0 -49 -50 -49q-48 0 -48 49q0 48 48 48q50 0 50 -48z" />
<glyph unicode="&#xfd;" horiz-adv-x="472" d="M460 484l-255 -675h-87l76 197l-180 478h89l135 -379l133 379h89zM363 667l-133 -126h-96l133 126h96z" />
<glyph unicode="&#xfe;" horiz-adv-x="557" d="M502 241q0 -44 -3 -74.5t-14.5 -66.5t-32.5 -57.5t-60 -36t-93 -14.5q-97 0 -144 54v-237h-85v888h84v-259q51 54 151 54q52 0 88.5 -12.5t57.5 -32.5t32.5 -54t15 -67.5t3.5 -84.5zM417 242q0 95 -23 132.5t-95 37.5q-84 0 -114 -34.5t-30 -136.5q0 -101 30 -136 t114 -35q72 0 95 38.5t23 133.5z" />
<glyph unicode="&#xff;" horiz-adv-x="472" d="M460 484l-255 -675h-87l76 197l-180 478h89l135 -379l133 379h89zM395 619q0 -49 -50 -49q-48 0 -48 49q0 48 48 48q50 0 50 -48zM180 619q0 -49 -50 -49q-48 0 -48 49q0 48 48 48q50 0 50 -48z" />
<glyph unicode="&#x152;" horiz-adv-x="917" d="M846 0h-499q-97 0 -149.5 19t-84.5 68q-24 37 -32.5 88.5t-8.5 157.5q0 104 9 157t33 90q32 49 85.5 68t147.5 19h499v-80h-308v-205h298v-80h-298v-222h308v-80zM450 80v507h-97q-70 0 -105 -10.5t-54 -37.5q-33 -47 -33 -206q0 -157 33 -206q20 -29 56 -38t103 -9h97z " />
<glyph unicode="&#x153;" horiz-adv-x="897" d="M842 213h-342q0 -82 25.5 -114.5t108.5 -32.5q122 0 122 75h80q0 -149 -204 -149q-133 0 -176 74q-45 -74 -178 -74q-120 0 -174 54q-28 28 -38.5 73t-10.5 123t10.5 123t38.5 73q54 54 175 54q132 0 177 -74q43 74 173 74q50 0 86.5 -8.5t59.5 -28t37 -40.5t20 -57 t8 -66t2 -79zM758 286q0 74 -25 103.5t-104 29.5q-75 0 -101.5 -31.5t-26.5 -101.5h257zM414 241q0 52 -3.5 79t-17 52t-41 34t-74.5 9q-48 0 -76 -9.5t-41 -34.5t-16.5 -51.5t-3.5 -77.5t3.5 -77.5t16.5 -51.5t41 -34.5t76 -9.5q38 0 63.5 7.5t40 19t21.5 35.5t9 46.5 t2 63.5z" />
<glyph unicode="&#x178;" horiz-adv-x="568" d="M566 667l-237 -376v-291h-89v291l-238 376h102l182 -295l180 295h100zM442 814q0 -49 -50 -49q-48 0 -48 49q0 48 48 48q50 0 50 -48zM227 814q0 -49 -50 -49q-48 0 -48 49q0 48 48 48q50 0 50 -48z" />
<glyph unicode="&#x2c6;" horiz-adv-x="428" d="M383 540h-90l-79 76l-78 -76h-91l131 127h76z" />
<glyph unicode="&#x2dc;" horiz-adv-x="428" d="M409 609l-29 -15l-33 -18q-9 -4 -30 -11.5t-35 -8.5h-3q-12 0 -29 4q-18 4 -35 14l-13 9q-11 7 -14 8t-12 5.5t-14 4.5h-14q-9 0 -18 -3.5t-20 -8.5l-59 -30l-31 58l30 15q25 14 32.5 17.5t29.5 11.5t35 8t32 -4t36 -14l13 -9q11 -7 14 -8t12 -5.5t14 -4.5h14q9 0 18 3.5 t19 8.5l59 31z" />
<glyph unicode="&#x2000;" horiz-adv-x="432" />
<glyph unicode="&#x2001;" horiz-adv-x="864" />
<glyph unicode="&#x2002;" horiz-adv-x="432" />
<glyph unicode="&#x2003;" horiz-adv-x="864" />
<glyph unicode="&#x2004;" horiz-adv-x="288" />
<glyph unicode="&#x2005;" horiz-adv-x="216" />
<glyph unicode="&#x2006;" horiz-adv-x="144" />
<glyph unicode="&#x2007;" horiz-adv-x="144" />
<glyph unicode="&#x2008;" horiz-adv-x="108" />
<glyph unicode="&#x2009;" horiz-adv-x="172" />
<glyph unicode="&#x200a;" horiz-adv-x="48" />
<glyph unicode="&#x2010;" horiz-adv-x="505" d="M431 204h-357v77h357v-77z" />
<glyph unicode="&#x2011;" horiz-adv-x="505" d="M431 204h-357v77h357v-77z" />
<glyph unicode="&#x2013;" d="M550 204h-518v77h518v-77z" />
<glyph unicode="&#x2014;" horiz-adv-x="1003" d="M904 204h-805v77h805v-77z" />
<glyph unicode="&#x2018;" horiz-adv-x="222" d="M210 625q-29 -27 -37 -36.5t-14 -26t-6 -46.5v-93h-79v93q0 44 9.5 71.5t36.5 53.5l37 35z" />
<glyph unicode="&#x2019;" horiz-adv-x="222" d="M148 574q0 -44 -9.5 -71.5t-36.5 -53.5l-37 -35l-53 51q29 27 37 36.5t14 26t6 46.5v93h79v-93z" />
<glyph unicode="&#x201a;" horiz-adv-x="222" d="M148 9q0 -44 -9.5 -71.5t-36.5 -53.5l-37 -35l-53 51q29 27 37 36.5t14 26t6 46.5v93h79v-93z" />
<glyph unicode="&#x201c;" horiz-adv-x="394" d="M382 625q-29 -27 -37 -36.5t-14 -26t-6 -46.5v-93h-79v93q0 44 9.5 71.5t36.5 53.5l37 35zM208 626q-38 -35 -46.5 -51t-8.5 -58v-94h-79v94q0 46 8 73t35 52l37 34z" />
<glyph unicode="&#x201d;" horiz-adv-x="393" d="M319 574q0 -46 -8 -73t-35 -52l-37 -35l-53 51q37 35 45.5 51t8.5 58v93h79v-93zM148 574q0 -44 -9.5 -71.5t-36.5 -53.5l-37 -35l-53 51q29 27 37 36.5t14 26t6 46.5v93h79v-93z" />
<glyph unicode="&#x201e;" horiz-adv-x="394" d="M320 9q0 -46 -8 -73t-35 -52l-37 -35l-54 51q38 35 46.5 51t8.5 58v93h79v-93zM148 9q0 -44 -9.5 -71.5t-36.5 -53.5l-37 -35l-53 51q29 27 37 36.5t14 26t6 46.5v93h79v-93z" />
<glyph unicode="&#x2022;" horiz-adv-x="497" d="M356 334q0 -56 -25.5 -81.5t-81.5 -25.5t-82 25.5t-26 81.5t26 82t82 26t81.5 -26t25.5 -82z" />
<glyph unicode="&#x2026;" horiz-adv-x="990" d="M880 48q0 -56 -54 -56q-27 0 -41.5 15t-14.5 41q0 54 55 54t55 -54zM549 48h1q0 -56 -54 -56q-27 0 -41.5 15t-14.5 41q0 54 55 54q54 0 54 -54zM219 48h1q0 -56 -54 -56q-27 0 -41.5 15t-14.5 41q0 54 55 54q54 0 54 -54z" />
<glyph unicode="&#x202f;" horiz-adv-x="172" />
<glyph unicode="&#x2039;" horiz-adv-x="275" d="M236 397l-41 -42q-24 -25 -35 -37.5t-23.5 -35t-12.5 -42.5q0 -7 1.5 -14t3 -12.5t6 -13t6.5 -12t9 -12.5t9.5 -11.5t11 -12t10.5 -11t11 -11.5l12 -12l31 -31l-55 -52q-75 69 -99 103q-38 53 -38 101q0 29 11.5 57.5t38 60t41.5 46.5l47 47z" />
<glyph unicode="&#x203a;" horiz-adv-x="275" d="M232 239q0 -36 -22.5 -75t-45 -62.5t-59.5 -57.5q-7 -6 -10 -9l-55 52l31 31l8 8q24 24 36 37t24 35t12 42t-12.5 42.5t-23.5 35t-35 37.5l-41 42l55 53l48 -47q14 -15 40.5 -46.5t38 -60t11.5 -57.5z" />
<glyph unicode="&#x205f;" horiz-adv-x="216" />
<glyph unicode="&#x2122;" horiz-adv-x="846" d="M791 233h-61v321l-118 -321h-64l-115 320v-320h-61v434h80l130 -350l131 350h78v-434zM338 610h-127v-377h-65v377h-128v57h320v-57z" />
</font>
</defs>
</svg>
