<?xml version="1.0" standalone="no"?>
<!DOCTYPE svg PUBLIC "-//W3C//DTD SVG 1.1//EN" "http://www.w3.org/Graphics/SVG/1.1/DTD/svg11.dtd" >
<svg xmlns="http://www.w3.org/2000/svg">
<metadata>
This is a custom SVG webfont generated by Font Squirrel.
Foundry     :  digitally encoded machine readable outline data for producing the typefaces licensed to you is copyrighted  by The Foundry London
</metadata>
<defs>
<font id="webfontqRHzVeaH" horiz-adv-x="677" >
<font-face units-per-em="1000" ascent="726" descent="-274" />
<missing-glyph horiz-adv-x="225" />
<glyph unicode=" "  horiz-adv-x="225" />
<glyph unicode="&#x09;" horiz-adv-x="225" />
<glyph unicode="&#xa0;" horiz-adv-x="225" />
<glyph unicode="!" horiz-adv-x="298" d="M203 190h-110v477h110v-477zM218 63q0 -71 -69 -71t-69 71q0 69 69 69t69 -69z" />
<glyph unicode="&#x22;" horiz-adv-x="480" d="M383 450h-106v217h106v-217zM203 450h-106v217h106v-217z" />
<glyph unicode="#" horiz-adv-x="602" d="M583 394h-105l-27 -95h83v-94h-108l-57 -205h-107l57 205h-112l-57 -205h-107l57 205h-81v94h105l27 95h-83v94h109l57 206h107l-58 -206h113l57 206h97l-48 -206h81v-94zM370 394h-111l-27 -95h111z" />
<glyph unicode="$" horiz-adv-x="581" d="M519 199q0 -98 -44 -144t-138 -55v-99h-100v98q-85 6 -131.5 41t-46.5 117h114q0 -36 26.5 -50.5t89.5 -14.5q71 0 93 23.5t22 73.5q0 63 -23.5 79t-96.5 22q-10 1 -15 1q-32 3 -49.5 5t-43 8t-39.5 13.5t-30.5 21.5t-24.5 33t-13.5 46.5t-5.5 63.5q0 92 44 133.5 t130 50.5v96h100v-95q85 -7 130 -42.5t45 -118.5h-114q0 36 -24 50t-87 14q-64 0 -86.5 -20t-22.5 -71q0 -13 2 -23t7 -18l9 -12q3 -6 12 -10t13.5 -6.5t17 -4.5t16.5 -2.5t18.5 -2t17.5 -1.5q111 -10 144 -23q62 -24 77 -99q7 -32 7 -78z" />
<glyph unicode="%" horiz-adv-x="864" d="M800 194q0 -3 -3 -72q-4 -66 -36.5 -98t-105.5 -32q-42 0 -70.5 12t-43 27t-21.5 45.5t-8 50t-1 58.5v9v9q0 28 0.5 42t3 38t7.5 37t15.5 29.5t25.5 25t38.5 14.5t53.5 6q42 0 71 -11.5t43 -26.5t21.5 -45t8.5 -49.5t1 -59.5v-9zM663 667l-377 -667h-85l376 667h86z M353 473q0 -3 -3 -72q-4 -66 -36.5 -98t-105.5 -32q-42 0 -70.5 12t-43 27t-21.5 45.5t-8 50t-1 58.5v9v9q0 28 0.5 42t3 38t7.5 37t15.5 29.5t25.5 25t38.5 14.5t53.5 6q42 0 71 -11.5t43 -26.5t21.5 -45t8.5 -49.5t1 -59.5v-9zM723 194q0 82 -12 106q-11 24 -56 24 q-21 0 -33.5 -4.5t-16.5 -10t-7 -15.5q-9 -27 -9 -100q0 -85 11 -107q12 -25 55 -25q30 0 41.5 8t16.5 23q10 30 10 101zM276 473q0 82 -12 106q-11 24 -56 24q-21 0 -33.5 -4.5t-16.5 -10t-7 -15.5q-9 -27 -9 -100q0 -85 11 -107q13 -25 55 -25q30 0 41.5 8t16.5 23 q10 30 10 101z" />
<glyph unicode="&#x26;" horiz-adv-x="618" d="M592 288h-58v-58q0 -67 -10 -109.5t-44 -74.5q-58 -54 -186 -54q-62 0 -102.5 7.5t-73.5 28t-48.5 59.5t-15.5 100q0 58 13 95.5t54 55.5q-38 17 -49.5 55.5t-11.5 97.5q0 100 53 141.5t167 41.5q49 0 86 -7.5t68 -25.5t47.5 -52t16.5 -83h-111q0 38 -23 51.5t-84 13.5 q-68 0 -88.5 -20t-20.5 -72q0 -51 23.5 -69t85.5 -18h146v51h108v-51h58v-104zM426 230v58h-146q-71 0 -93 -17.5t-22 -81.5q0 -57 29.5 -76t101.5 -19q81 0 105.5 30t24.5 106z" />
<glyph unicode="'" horiz-adv-x="300" d="M203 450h-106v217h106v-217z" />
<glyph unicode="(" horiz-adv-x="366" d="M341 -191q-111 0 -168 28t-79 98q-32 104 -32 371q0 270 32 374q22 70 79 98t168 28v-100q-28 0 -44.5 -1.5t-38 -7t-36 -19.5t-22.5 -36q-27 -72 -27 -335q0 -262 27 -334q8 -22 22.5 -36t36 -19.5t38 -7t44.5 -1.5v-100z" />
<glyph unicode=")" horiz-adv-x="366" d="M304 306q0 -267 -32 -371q-22 -70 -79 -98t-168 -28v100q28 0 44.5 1.5t38 7t36 19.5t22.5 36q27 72 27 334q0 263 -27 335q-8 22 -22.5 36t-36 19.5t-38 7t-44.5 1.5v100q111 0 168 -28t79 -98q32 -104 32 -374z" />
<glyph unicode="*" horiz-adv-x="530" d="M514 463l-170 -52l103 -134l-78 -54l-105 134l-103 -134l-79 54l104 134l-170 52l31 88l169 -51v167h97v-167l169 51z" />
<glyph unicode="+" horiz-adv-x="602" d="M569 193h-220v-193h-99v193h-217v102h218v193h98v-193h220v-102z" />
<glyph unicode="," horiz-adv-x="241" d="M175 28q0 -46 -10 -77t-38 -59l-44 -43l-73 67l14 14l14 14q2 2 9.5 10.5t9 12t5.5 11t5 14t2 16t1 20.5v106h105v-106z" />
<glyph unicode="-" horiz-adv-x="540" d="M475 193h-410v102h410v-102z" />
<glyph unicode="." horiz-adv-x="242" d="M190 63q0 -71 -69 -71t-69 71q0 69 69 69t69 -69z" />
<glyph unicode="/" horiz-adv-x="533" d="M518 784l-396 -897h-107l396 897h107z" />
<glyph unicode="0" horiz-adv-x="572" d="M517 333v-15v-54q0 -17 -1.5 -48t-4.5 -47.5t-8.5 -42t-14 -39t-21 -31.5t-29.5 -27.5t-39 -19t-50.5 -13.5t-62.5 -4t-63 4.5t-50.5 13t-39 20.5t-29.5 27t-21 32.5t-14 37.5t-8.5 42t-4 44.5t-1.5 46.5q0 12 -0.5 24t0.5 24v25q0 137 9 185q23 112 121 143 q42 13 101 13q163 0 208 -108q23 -58 23 -195v-16v-22zM403 333q0 145 -11 181q-9 29 -31.5 43t-74.5 14t-75 -14.5t-31 -42.5q-11 -36 -11 -181t11 -181q9 -29 31.5 -43t74.5 -14t74.5 14t31.5 43q11 36 11 181z" />
<glyph unicode="1" horiz-adv-x="494" d="M478 0h-421v101h153v422l-103 -99l-71 77l184 166h103v-566h155v-101z" />
<glyph unicode="2" horiz-adv-x="555" d="M500 473q0 -114 -71 -161q-36 -23 -141 -53q-9 -2 -15 -4q-72 -20 -89.5 -38t-17.5 -70v-46h333v-101h-447v165q0 41 11.5 72t28.5 49t46 32.5t53 21.5l61 18q38 10 61 18q43 15 58.5 34t15.5 63q0 58 -21.5 78.5t-89.5 20.5q-62 0 -85.5 -14t-23.5 -52h-112 q0 49 16.5 83t48 52t68.5 25.5t86 7.5q119 0 172.5 -44.5t53.5 -156.5z" />
<glyph unicode="3" horiz-adv-x="573" d="M506 205q0 -122 -56 -167.5t-174 -45.5q-50 0 -88 7.5t-71 25t-50.5 52t-17.5 83.5h113q0 -36 25.5 -50.5t88.5 -14.5q66 0 91.5 20t25.5 80q0 67 -19 83t-98 16h-94v102h94q66 0 88.5 16t22.5 72q0 53 -20.5 70.5t-90.5 17.5q-63 0 -88.5 -15t-25.5 -51h-113 q0 49 17.5 83.5t50.5 52t71 25t88 7.5q119 0 171.5 -40t52.5 -147q0 -56 -10.5 -87.5t-49.5 -48.5q41 -18 53.5 -53t12.5 -93z" />
<glyph unicode="4" horiz-adv-x="568" d="M528 168h-95v-168h-106v168h-288v95l287 404h107v-398h95v-101zM327 269v245l-168 -245h168z" />
<glyph unicode="5" horiz-adv-x="573" d="M512 215q0 -122 -56 -172.5t-177 -50.5q-99 0 -157 37t-58 131h111q0 -38 22 -51.5t82 -13.5q72 0 96 23t24 93q0 77 -18.5 103t-88.5 26q-63 0 -86.5 -17.5t-23.5 -52.5h-110v397h419v-102h-310v-157q34 34 113 34q124 0 171 -48.5t47 -178.5z" />
<glyph unicode="6" horiz-adv-x="568" d="M513 216q0 -224 -225 -224q-77 0 -132.5 30t-78.5 90q-22 56 -22 194q0 152 12 220q28 148 224 148q209 0 209 -168h-111q0 36 -22.5 51t-74.5 15q-40 0 -64 -7.5t-36 -28t-15.5 -40t-5.5 -58.5q-1 -9 -1 -31q48 35 122 35q119 0 170 -50t51 -176zM400 215q0 77 -21 101 t-82 24q-65 0 -95 -28.5t-30 -91.5q0 -70 26 -97.5t89 -27.5q65 0 89 25t24 95z" />
<glyph unicode="7" horiz-adv-x="485" d="M468 570l-292 -570h-124l292 565h-327v102h451v-97z" />
<glyph unicode="8" horiz-adv-x="572" d="M517 186q0 -59 -16.5 -98.5t-49.5 -59.5t-71.5 -28t-93.5 -8q-113 0 -172 41t-59 153q0 61 13 101.5t53 58.5q-38 17 -49 53.5t-11 96.5q0 99 53.5 138.5t171.5 39.5t171.5 -39.5t53.5 -138.5q0 -60 -11 -96.5t-49 -53.5q40 -18 53 -58.5t13 -101.5zM399 483 q0 52 -23 70.5t-90 18.5t-90 -18.5t-23 -70.5t22.5 -70t90.5 -18t90.5 18t22.5 70zM404 194q0 61 -26 80t-92 19t-92 -19t-26 -80t26 -80t92 -19t92 19t26 80z" />
<glyph unicode="9" horiz-adv-x="568" d="M513 360q0 -152 -12 -220q-28 -148 -224 -148q-209 0 -209 168h111q0 -36 22.5 -51t74.5 -15q40 0 64 7.5t36 28t15.5 40t5.5 58.5q1 9 1 31q-48 -35 -122 -35q-119 0 -170 50t-51 176q0 224 225 224q77 0 132.5 -30t78.5 -90q22 -56 22 -194zM396 446q0 70 -26 97.5 t-89 27.5q-65 0 -89 -25t-24 -95q0 -77 21 -101t82 -24q65 0 95 28.5t30 91.5z" />
<glyph unicode=":" horiz-adv-x="241" d="M189 427q0 -71 -69 -71t-69 71q0 69 69 69t69 -69zM189 63q0 -71 -69 -71t-69 71q0 69 69 69t69 -69z" />
<glyph unicode=";" horiz-adv-x="241" d="M194 427q0 -71 -69 -71t-69 71q0 69 69 69t69 -69zM175 28q0 -46 -10 -77t-38 -59l-44 -43l-73 67l14 14l14 14q2 2 9.5 10.5t9 12t5.5 11t5 14t2 16t1 20.5v106h105v-106z" />
<glyph unicode="&#x3c;" horiz-adv-x="592" d="M564 98l-38 -98l-498 196v96l497 196l39 -99l-387 -145z" />
<glyph unicode="=" horiz-adv-x="592" d="M564 283h-536v102h536v-102zM564 108h-536v102h536v-102z" />
<glyph unicode="&#x3e;" horiz-adv-x="592" d="M564 196l-497 -196l-39 99l387 145l-387 146l38 98l498 -196v-96z" />
<glyph unicode="?" horiz-adv-x="464" d="M443 505q0 -117 -84 -166q-16 -9 -36 -19t-27 -14t-15 -13.5t-9.5 -22.5t-1.5 -38v-42h-114v58q0 94 48 135q19 17 55.5 31.5t54 33t17.5 57.5q0 53 -20 75.5t-80 22.5t-81.5 -22.5t-21.5 -74.5h-110q0 110 54 153.5t157 43.5q108 0 161 -44.5t53 -153.5zM283 63 q0 -71 -69 -71t-69 71q0 69 69 69t69 -69z" />
<glyph unicode="@" horiz-adv-x="761" d="M697 378q0 -174 -54 -226q-29 -27 -65 -36q-32 -7 -83 -7h-12v31q-47 -37 -114 -37q-56 0 -92 15.5t-52 47t-21 63t-5 81.5q0 40 2.5 66t12 55.5t27 47t49.5 29t78 11.5q67 0 114 -38v31h68v-334q75 0 75 208q0 73 -11 115.5t-42.5 65.5t-73 29.5t-116.5 6.5 q-48 0 -83.5 -5.5t-61.5 -14.5t-43 -27.5t-28 -38.5t-16.5 -54.5t-7.5 -67.5t-2 -85q0 -56 1 -89.5t6 -70.5t15.5 -57t27.5 -40t44 -29t64 -14.5t88 -5.5q83 0 136.5 15t83.5 64l16 -9l30 -18l16 -9q-29 -50 -83.5 -77t-98 -32t-105.5 -5q-72 0 -123 8.5t-86.5 30.5 t-56.5 49t-32.5 74.5t-15 96t-3.5 123.5q0 106 11.5 169.5t46.5 109t96 63t162 17.5q76 0 125.5 -7t89 -25t60.5 -52t31.5 -85t10.5 -127zM482 310q0 80 -25.5 108.5t-91.5 28.5q-59 0 -74.5 -30t-15.5 -107q0 -78 15.5 -107t75.5 -29q65 0 90.5 28t25.5 108z" />
<glyph unicode="A" horiz-adv-x="651" d="M643 0h-129l-62 170h-260l-61 -170h-123l258 667h121zM416 272l-93 264l-94 -264h187z" />
<glyph unicode="B" horiz-adv-x="656" d="M591 198q0 -103 -49 -148q-11 -10 -24.5 -18t-24 -13.5t-29 -9t-26.5 -5.5t-30.5 -3t-27.5 -1h-31h-29h-244v667h238h16q36 0 54.5 -0.5t50.5 -3.5t49 -9t39 -18t33.5 -29.5t20 -45t9.5 -62.5v-8q0 -121 -62 -147q40 -18 53.5 -54t13.5 -92zM468 478q0 25 -7.5 41.5 t-17 25t-32.5 12.5t-38 4.5t-49 0.5h-17h-114v-169h121q82 0 106 8q48 16 48 77zM473 196q0 54 -20 72q-10 9 -18 12.5t-37 6t-86 2.5h-119v-183h119q102 0 125 10q36 16 36 80z" />
<glyph unicode="C" horiz-adv-x="656" d="M596 480h-116q0 51 -29 69t-114 18q-99 0 -127 -44t-28 -190t27.5 -189.5t126.5 -43.5q86 0 114.5 17.5t28.5 68.5h116q0 -107 -63.5 -150.5t-186.5 -43.5q-46 0 -83 6t-65 14.5t-49 26t-35 32.5t-23.5 42.5t-14.5 46.5t-7.5 54.5t-3 57t-0.5 62.5q0 36 0.5 56.5t2 52 t5.5 49.5t11 43.5t17.5 40.5t25.5 33t36 28t47.5 19.5t61 13.5t75.5 4q123 0 186.5 -43.5t63.5 -150.5z" />
<glyph unicode="D" horiz-adv-x="675" d="M611 333q0 -101 -8.5 -153t-34.5 -90q-35 -51 -91 -70.5t-153 -19.5h-248v667h247q97 0 153 -19.5t91 -71.5q26 -38 35 -90.5t9 -152.5zM493 333q0 56 -3 93.5t-13 63.5t-21 40t-34.5 21.5t-44.5 9t-60 1.5h-125v-456h126q40 0 60.5 1.5t44 8.5t34 21t20.5 39.5t13 63 t3 93.5z" />
<glyph unicode="E" horiz-adv-x="595" d="M535 0h-459v667h459v-105h-343v-169h333v-104h-333v-183h343v-106z" />
<glyph unicode="F" horiz-adv-x="579" d="M525 562h-331v-169h322v-104h-322v-289h-118v667h449v-105z" />
<glyph unicode="G" horiz-adv-x="679" d="M605 0h-93v50q-60 -58 -190 -58q-177 0 -228 108q-29 60 -30 202v32q0 36 0.5 56.5t2 52t5.5 49.5t11 43.5t17.5 40.5t25.5 33t36 28t47.5 19.5t61 13.5t75.5 4q122 0 190 -43.5t68 -150.5h-117q0 50 -32.5 68.5t-117.5 18.5q-99 0 -127 -44t-28 -190q0 -76 5 -117.5 t21.5 -69.5t44.5 -37t79 -9q33 0 57.5 4.5t41.5 11t28 21t17.5 27t9.5 36.5t4 42t1 50h-164v102h278v-394z" />
<glyph unicode="H" horiz-adv-x="660" d="M584 0h-118v288h-272v-288h-118v667h118v-273h272v273h118v-667z" />
<glyph unicode="I" horiz-adv-x="270" d="M194 0h-118v667h118v-667z" />
<glyph unicode="J" horiz-adv-x="548" d="M476 218q0 -66 -3 -84q-24 -142 -220 -142q-107 0 -165 43t-58 151h114q0 -54 25 -71t84 -17q38 0 60 6t31.5 24t11.5 34.5t2 53.5v451h118v-449z" />
<glyph unicode="K" horiz-adv-x="642" d="M638 0h-172l-272 268v-268h-118v667h118v-270l282 270h159l-355 -331z" />
<glyph unicode="L" horiz-adv-x="531" d="M525 0h-449v667h118v-561h331v-106z" />
<glyph unicode="M" horiz-adv-x="824" d="M748 0h-110v518l-171 -518h-114l-169 518v-518h-108v667h156l181 -531l180 532h155v-668z" />
<glyph unicode="N" horiz-adv-x="660" d="M584 0h-121l-277 479v-479h-110v667h120l278 -475v475h110v-667z" />
<glyph unicode="O" d="M613 335q0 -53 -1.5 -86t-7.5 -73.5t-17 -64.5t-30.5 -49.5t-49 -39t-71.5 -22t-97 -8.5q-184 0 -240 98q-33 59 -35 198v46q0 53 1 81t6 71t15 65t30 49.5t49 41t72.5 23t100.5 9.5q183 0 239 -94q34 -59 36 -196v-49zM495 334q0 146 -28 189.5t-129 43.5 q-100 0 -128 -43.5t-28 -190.5q0 -146 28 -189.5t128 -43.5t128.5 44t28.5 190z" />
<glyph unicode="P" horiz-adv-x="620" d="M585 468q0 -56 -15 -94.5t-37 -59.5t-62 -32t-73.5 -13.5t-87.5 -2.5h-116v-266h-118v667h234q39 0 63 -1t56.5 -5t52 -11.5t41.5 -22t34 -35.5t20 -52.5t8 -71.5zM467 466q0 68 -42 87q-23 9 -117 9h-114v-190h114q96 0 117 9q42 19 42 85z" />
<glyph unicode="Q" d="M613 335v-47q0 -16 -1.5 -47t-4.5 -48t-8.5 -43.5t-14 -42t-21.5 -35t-29.5 -31.5t-39 -22.5t-50.5 -16.5l45 -100l-92 -43l-61 133q-62 0 -107.5 9t-75.5 31t-48 47.5t-27 69t-11.5 83.5t-2.5 102q0 53 1 81t6 71t15 65t30 49.5t49 41t72.5 23t100.5 9.5q183 0 239 -94 q34 -59 36 -196v-49zM495 334q0 146 -28 189.5t-129 43.5q-100 0 -128 -43.5t-28 -190.5q0 -133 21 -181.5t88 -52.5l-34 79l92 41l50 -117q59 9 77.5 58t18.5 174z" />
<glyph unicode="R" horiz-adv-x="657" d="M585 0h-115v173v42q0 12 -6.5 26.5t-11.5 18t-27.5 7.5t-40.5 4h-63h-14h-113v-271h-118v667h234q39 0 63 -1t57 -5t52.5 -11t41.5 -21t33.5 -34.5t19.5 -50.5t8 -69q0 -62 -14.5 -97.5t-50.5 -50.5q13 -4 24 -11.5t17.5 -15t11.5 -21t7.5 -22t3.5 -25t1 -23.5v-25v-21 v-163zM469 470q0 53 -20 71q-10 9 -18 12.5t-36.5 6t-86.5 2.5h-114v-185h121q102 0 120 8q34 16 34 85z" />
<glyph unicode="S" horiz-adv-x="650" d="M594 208q-1 -112 -67 -164t-203 -52q-131 0 -199.5 42.5t-68.5 151.5h118q0 -51 31.5 -69.5t120.5 -18.5q92 0 121 23t29 82q0 46 -16.5 60.5t-58.5 17.5q-24 2 -75 3t-81 2.5t-70.5 11.5t-63 28.5t-39 55t-16.5 89.5q0 112 64.5 157.5t201.5 45.5q131 0 198 -43t67 -151 h-116q0 55 -33.5 71.5t-117.5 16.5q-66 0 -97.5 -10t-40 -28t-8.5 -57q0 -43 17.5 -57t57.5 -17q24 -2 65 -2.5t68.5 -2t63.5 -6t59.5 -16t45.5 -31.5t32.5 -53.5t10.5 -79.5z" />
<glyph unicode="T" horiz-adv-x="560" d="M542 562h-203v-562h-118v562h-203v105h524v-105z" />
<glyph unicode="U" horiz-adv-x="652" d="M580 335q0 -109 -2 -140q-11 -203 -252 -203t-252 203q-2 31 -2 140v332h118v-332q0 -129 6 -159q12 -54 60 -68q26 -8 70 -8q30 0 51 3.5t36 10.5t24.5 18t15 26.5t7.5 36t2 45.5q1 9 1 18q0 18 -1 38v39v332h118v-332z" />
<glyph unicode="V" horiz-adv-x="622" d="M619 667l-251 -667h-116l-249 667h126l183 -518l183 518h124z" />
<glyph unicode="W" horiz-adv-x="898" d="M862 667l-155 -667h-124l-135 536l-137 -536h-123l-152 667h115l108 -507l128 507h125l129 -507l109 507h112z" />
<glyph unicode="X" horiz-adv-x="628" d="M607 0h-135l-159 253l-158 -253h-134l224 339l-218 328h135l153 -242l152 242h135l-219 -328z" />
<glyph unicode="Y" horiz-adv-x="611" d="M609 667l-245 -379v-288h-118v288l-244 379h137l168 -274l167 274h135z" />
<glyph unicode="Z" horiz-adv-x="629" d="M569 0h-509v102l368 460h-368v105h509v-103l-367 -458h367v-106z" />
<glyph unicode="[" horiz-adv-x="366" d="M341 -191h-257v997h257v-100h-147v-797h147v-100z" />
<glyph unicode="\" horiz-adv-x="533" d="M518 -113h-107l-396 897h107z" />
<glyph unicode="]" horiz-adv-x="366" d="M282 -191h-257v100h147v797h-147v100h257v-997z" />
<glyph unicode="^" horiz-adv-x="602" d="M572 221l-101 -39l-172 355l-168 -355l-101 40l226 454h88z" />
<glyph unicode="_" horiz-adv-x="546" d="M546 -325h-546v102h546v-102z" />
<glyph unicode="`" horiz-adv-x="441" d="M351 541h-124l-137 126h124z" />
<glyph unicode="a" horiz-adv-x="541" d="M485 0h-101v40q-55 -48 -152 -48q-93 0 -141.5 35.5t-48.5 120.5q0 41 12 71t30.5 46.5t48 26t55.5 12t62 2.5h125q0 55 -17 74.5t-86 19.5q-22 0 -36 -1.5t-32.5 -6t-28 -16.5t-9.5 -30h-110q0 45 18 76t51.5 46.5t69.5 21.5t83 6q207 0 207 -178v-318zM377 214h-131 q-53 0 -72 -13t-19 -51q0 -34 20 -49.5t75 -15.5q81 0 104 29t23 100z" />
<glyph unicode="b" horiz-adv-x="563" d="M514 243q0 -43 -2.5 -72.5t-14.5 -66.5t-33.5 -59t-61.5 -37.5t-96 -15.5q-89 0 -141 47v-39h-102v697h113v-245q43 44 148 44q49 0 84 -12.5t55.5 -33t32 -55t15 -69t3.5 -83.5zM401 243q0 87 -20 118t-82 31q-74 0 -99.5 -29.5t-25.5 -119.5t25.5 -119.5t99.5 -29.5 q62 0 82 31t20 118z" />
<glyph unicode="c" horiz-adv-x="528" d="M481 146q0 -154 -208 -154q-59 0 -101 14t-65.5 35t-37 56.5t-17 68.5t-3.5 80t3.5 79.5t17 67.5t37 55.5t65.5 34t101 13.5q208 0 208 -154h-107q0 25 -18.5 38t-34.5 14.5t-45 1.5q-73 0 -93.5 -31.5t-20.5 -120.5t20.5 -120.5t93.5 -31.5q21 0 33 1t29.5 5.5 t26.5 16.5t9 31h107z" />
<glyph unicode="d" horiz-adv-x="563" d="M500 0h-102v39q-52 -47 -148 -47q-41 0 -72.5 8t-52.5 20.5t-36 33.5t-22.5 40t-11.5 48t-5 49t-1 52q0 61 7 102.5t26.5 78t58.5 54.5t98 18q105 0 148 -44v245h113v-697zM389 243q0 90 -25.5 119.5t-99.5 29.5q-62 0 -82 -31t-20 -118t20 -118t82 -31q74 0 99.5 29.5 t25.5 119.5z" />
<glyph unicode="e" horiz-adv-x="545" d="M496 201h-334q0 -65 24 -90.5t94 -25.5q103 0 104 61h106q0 -154 -214 -154q-71 0 -117.5 17.5t-69.5 53t-31.5 76t-8.5 99.5q0 48 4.5 83t18 70t37.5 56.5t65.5 35t98.5 13.5q45 0 79.5 -8t58 -20.5t39.5 -35t25 -43.5t14 -55.5t6 -62t1 -70.5zM384 293q0 61 -19.5 85.5 t-91.5 24.5q-68 0 -88.5 -26.5t-20.5 -83.5h220z" />
<glyph unicode="f" horiz-adv-x="453" d="M447 587h-107q-3 28 -66 28q-12 0 -22 -1.5t-17 -3t-12.5 -6.5t-9.5 -7.5t-6.5 -10.5t-4 -10.5t-2 -13t-0.5 -13.5v-15v-16v-30h168v-94h-165v-394h-113v394h-78v94h78v49q0 81 42 122q48 46 147 46q168 0 168 -118z" />
<glyph unicode="g" horiz-adv-x="561" d="M498 52q0 -79 -4 -106q-6 -41 -29.5 -70.5t-57.5 -43.5t-67.5 -20t-71.5 -6q-40 0 -74.5 7t-66 23t-50 48t-18.5 76h112q0 -27 24 -42.5t70 -15.5q109 0 118 66q2 17 2 75q-47 -43 -140 -43q-53 0 -91 15.5t-58 37t-31 58t-13.5 65t-2.5 71.5q0 61 7 102t27 77t60 53 t101 17q99 0 152 -47v39h102v-436zM386 247q0 91 -24.5 120t-98.5 29q-62 0 -81.5 -30.5t-19.5 -118.5q0 -87 19.5 -116t81.5 -29q74 0 98.5 27.5t24.5 117.5z" />
<glyph unicode="h" horiz-adv-x="547" d="M491 0h-113v257v26v25q0 5 -0.5 20t-2.5 19t-5 14.5t-7.5 13t-11 9t-15.5 7.5t-20.5 3t-26.5 2q-24 0 -42.5 -5t-30 -11t-20 -20t-12.5 -22.5t-6 -29.5t-2 -30v-35v-16v-227h-113v697h113v-240q51 39 126 39q40 0 70.5 -7.5t50 -17t33.5 -29.5t20.5 -34.5t10 -42t4 -42.5 t0.5 -45v-12v-266z" />
<glyph unicode="i" horiz-adv-x="239" d="M181 613q0 -29 -16 -45.5t-46 -16.5t-46 16.5t-16 45.5q0 61 62 61t62 -61zM176 0h-113v488h113v-488z" />
<glyph unicode="j" horiz-adv-x="239" d="M181 613q0 -29 -16 -45.5t-46 -16.5t-46 16.5t-16 45.5q0 61 62 61t62 -61zM176 -28q0 -166 -190 -166q-79 0 -129 29.5t-50 94.5h110q2 -32 69 -32q43 0 60 15.5t17 57.5v517h113v-516z" />
<glyph unicode="k" horiz-adv-x="539" d="M530 0h-145l-208 228v-228h-114v697h113v-404l210 195h140l-241 -224z" />
<glyph unicode="l" horiz-adv-x="238" d="M176 0h-113v697h113v-697z" />
<glyph unicode="m" horiz-adv-x="803" d="M747 0h-113v294v8q0 27 -1 39.5t-8 28t-23 21t-43 5.5q-16 0 -29 -3t-23 -7.5t-17.5 -13t-12 -15.5t-7.5 -20l-6 -21q-2 -7 -2.5 -22.5t-0.5 -22.5v-24v-22v-225h-112v294v26q0 4 -1 20t-4 20t-8 14t-13.5 13t-20.5 6t-29 3q-20 0 -35.5 -5t-25.5 -11t-17.5 -20.5 t-11 -22t-5.5 -29t-2.5 -27.5t0 -30.5t0.5 -27.5v-223h-113v488h98v-43q51 51 133 51q83 0 128 -51q56 51 147 51q127 0 164 -85q4 -9 7 -19.5t4.5 -18.5t2 -21t0.5 -19v-21v-20v-292z" />
<glyph unicode="n" horiz-adv-x="547" d="M491 0h-113v257v26v25q0 5 -0.5 20t-2.5 19t-5 14.5t-7.5 13t-11 9t-15.5 7.5t-20.5 3t-26.5 2q-24 0 -42.5 -5t-30 -11t-20 -20t-12.5 -22.5t-6 -29.5t-2 -30v-35v-16v-227h-113v488h98v-39q53 47 141 47q40 0 70.5 -7.5t50 -17t33.5 -29.5t20.5 -34.5t10 -42t4 -42.5 t0.5 -45v-12v-266z" />
<glyph unicode="o" horiz-adv-x="562" d="M513 244q0 -76 -11 -122t-41 -75q-56 -55 -180 -55t-180 55q-30 29 -41 75t-11 122t11 122t41 75q56 55 180 55t180 -55q30 -29 41 -75t11 -122zM400 244q0 89 -21 120.5t-98 31.5t-98 -31.5t-21 -120.5t21 -120.5t98 -31.5t98 31.5t21 120.5z" />
<glyph unicode="p" horiz-adv-x="563" d="M514 243q0 -41 -3.5 -72t-16 -66.5t-34.5 -58.5t-61.5 -38.5t-94.5 -15.5q-87 0 -128 43v-226h-113v679h102v-39q54 47 145 47h7q64 -1 104 -17.5t60 -52.5t26.5 -77t6.5 -106zM401 243q0 88 -20.5 120.5t-81.5 32.5q-73 0 -98.5 -31t-25.5 -122t25.5 -121t98.5 -30 q62 0 82 31.5t20 119.5z" />
<glyph unicode="q" horiz-adv-x="559" d="M496 -191h-113v226q-46 -43 -142 -43q-54 0 -91.5 16t-57 37.5t-29.5 60t-12 65.5t-2 72q0 62 7 103t26.5 78t59 54.5t100.5 17.5q100 0 153 -47v39h101v-679zM384 243q0 91 -25 122t-97 31q-60 0 -80 -32.5t-20 -120.5t20 -119.5t80 -31.5q72 0 97 30t25 121z" />
<glyph unicode="r" horiz-adv-x="465" d="M453 342h-109q0 32 -16 43.5t-53 11.5q-67 0 -88 -58q-11 -30 -11 -127v-212h-113v488h98v-44q49 52 134 52q80 0 119 -37.5t39 -116.5z" />
<glyph unicode="s" horiz-adv-x="520" d="M476 342h-104q0 35 -20 48t-70 15h-17q-53 0 -73 -11q-23 -13 -24 -41v-7q0 -15 4 -24q4 -12 17.5 -17.5t23 -6.5t34.5 -3q101 -6 123 -11q83 -18 99 -92q4 -18 4 -42v-9q-1 -44 -17.5 -74t-47.5 -46.5t-70 -22.5q-34 -6 -77 -6h-14q-100 2 -151.5 35.5t-51.5 118.5h104 q0 -33 20 -48t78 -16h17q54 0 74 12q23 13 24 42v7q0 16 -4 27q-5 12 -19.5 18t-26 7.5t-38.5 2.5q-7 0 -20 1q-34 2 -51 3.5t-45.5 6.5t-43 14.5t-30.5 25.5t-23 41q-5 23 -5 51v9q1 44 17.5 74t48 45.5t69.5 21.5q34 5 76 5h15q97 -2 146 -36.5t49 -117.5z" />
<glyph unicode="t" horiz-adv-x="475" d="M456 146q0 -82 -50.5 -118t-131.5 -36q-178 0 -178 158v244h-78v94h78v179h113v-179h199v-94h-199v-244q0 -35 15.5 -50.5t55.5 -15.5q72 0 72 62h104z" />
<glyph unicode="u" horiz-adv-x="547" d="M484 0h-98v39q-53 -47 -141 -47q-40 0 -70.5 7.5t-50 17t-33.5 29.5t-20.5 34.5t-10 42t-4 42.5t-0.5 45v12v266h113v-257v-26v-25q0 -5 0.5 -20t2.5 -19t5 -14.5t7.5 -13t11 -9t15.5 -7.5t20.5 -3t26.5 -2q24 0 42.5 5t30 11t20 20t12.5 22.5t6 29.5t2 30v35v16v227h113 v-488z" />
<glyph unicode="v" horiz-adv-x="524" d="M510 488l-191 -488h-113l-192 488h121l129 -358l129 358h117z" />
<glyph unicode="w" horiz-adv-x="733" d="M715 488l-132 -488h-113l-100 380l-103 -380h-117l-132 488h111l85 -364l98 364h110l99 -364l85 364h109z" />
<glyph unicode="x" horiz-adv-x="536" d="M521 0h-133l-122 176l-123 -176h-128l186 248l-179 240h133l115 -166l117 166h129l-181 -239z" />
<glyph unicode="y" horiz-adv-x="519" d="M502 488l-263 -678h-119l83 202l-186 476h120l125 -351l120 351h120z" />
<glyph unicode="z" horiz-adv-x="500" d="M455 0h-410v97l270 297h-270v94h410v-97l-268 -295h268v-96z" />
<glyph unicode="{" horiz-adv-x="400" d="M371 -191q-65 0 -102.5 8t-64.5 35q-33 32 -44 70t-11 100v129q0 31 -4 43.5t-20 28.5l-10 10q-8 8 -11 10.5t-9.5 10t-9.5 12.5l-7 11q-5 7 -7 13t-3.5 13.5t-1.5 14.5q0 9 1.5 16.5t5.5 15.5t7.5 13.5t10.5 13.5l10 11q3 4 13 13l11 11q16 16 20 28.5t4 43.5v129 q0 62 11 100t44 70q27 27 64.5 35t102.5 8v-100q-74 0 -93 -18.5t-19 -91.5v-164q0 -20 -2.5 -34.5t-10 -27t-11 -17.5t-17 -17.5t-16.5 -15.5q-13 -13 -13 -25q0 -10 10 -20q4 -4 16.5 -15.5t17.5 -17.5t12.5 -17.5t10.5 -26.5t3 -35v-164q0 -73 19 -91.5t93 -18.5v-100z " />
<glyph unicode="|" horiz-adv-x="290" d="M200 -191h-110v858h110v-858z" />
<glyph unicode="}" horiz-adv-x="400" d="M334 318q0 -9 -1.5 -16.5t-6.5 -15.5l-6 -14q-3 -4 -11 -13.5t-10 -11.5l-13 -13l-11 -11q-16 -16 -20 -28.5t-4 -43.5v-129q0 -62 -11 -100t-44 -70q-27 -27 -64.5 -35t-102.5 -8v100q74 0 93 18.5t19 91.5v164q0 20 3 35t10.5 26.5t12.5 17.5t17.5 17.5t16.5 15.5 q10 10 10 20q0 12 -13 25q-3 3 -16.5 15.5t-17 17.5t-11 17.5t-10 27t-2.5 34.5v164q0 73 -19 91.5t-93 18.5v100q65 0 102.5 -8t64.5 -35q33 -32 44 -70t11 -100v-129q0 -31 4 -43.5t20 -28.5l11 -11q10 -9 13 -13l10 -11q7 -8 10.5 -13.5t7.5 -13.5t5.5 -15.5t1.5 -16.5z " />
<glyph unicode="~" horiz-adv-x="601" d="M569 257q-35 -31 -60 -49.5t-59 -33.5q-29 -14 -59 -14h-9q-35 3 -72 24l-45 25q-15 8 -34 13t-28.5 4t-28 -9.5t-33 -19.5t-42.5 -34l-67 68q35 31 60 49.5t59 33.5q29 14 59 14h10q34 -3 71 -24l45 -25q15 -8 34 -13t28.5 -4t28 9.5t33 19.5t42.5 34z" />
<glyph unicode="&#xa1;" horiz-adv-x="298" d="M218 425q0 -69 -69 -69t-69 69q0 71 69 71t69 -71zM203 -179h-110v477h110v-477z" />
<glyph unicode="&#xa2;" horiz-adv-x="562" d="M509 146q0 -138 -174 -152v-89h-98v89q-49 5 -84 21t-55 37.5t-31.5 55t-14.5 64.5t-3 74t3 74t14.5 64t31.5 54t55 36.5t84 19.5v81h98v-81q174 -14 174 -152h-123q0 19 -9 31t-27 16.5t-30.5 5.5t-33.5 1q-74 0 -99 -32.5t-25 -119.5t25 -119.5t99 -32.5q21 0 33.5 1 t30.5 5.5t27 16.5t9 31h123z" />
<glyph unicode="&#xa3;" horiz-adv-x="593" d="M557 0h-510v102h67v188h-67v102h67v65q0 80 11 110t36 53q57 54 172 54q32 0 54.5 -1.5t55.5 -11t54 -26t36.5 -50t15.5 -79.5h-109q0 40 -23.5 53t-74.5 13q-76 0 -95.5 -22t-19.5 -91v-67h279v-102h-279v-188h330v-102z" />
<glyph unicode="&#xa4;" horiz-adv-x="602" d="M556 160q0 -168 -217 -168q-125 0 -175.5 56t-56.5 167h-66v91h66v57h-67v91h67q6 111 56.5 165.5t175.5 54.5q217 0 217 -168h-115q0 39 -24 52t-78 13q-38 0 -61.5 -7t-35 -24t-15.5 -35.5t-5 -50.5h175v-91h-178v-57h177v-91h-174q1 -32 5 -50.5t15.5 -36.5t35 -25.5 t61.5 -7.5q54 0 78 13t24 52h115z" />
<glyph unicode="&#xa5;" horiz-adv-x="629" d="M611 667l-148 -232h70v-92h-129l-34 -57h163v-92h-163v-194h-113v194h-164v92h163l-34 57h-129v92h72l-147 232h129l165 -271l169 271h130z" />
<glyph unicode="&#xa6;" horiz-adv-x="290" d="M200 326h-110v341h110v-341zM200 -191h-110v340h110v-340z" />
<glyph unicode="&#xa7;" horiz-adv-x="588" d="M516 48q0 -48 -17.5 -81t-50.5 -49.5t-67.5 -23t-79.5 -6.5h-6q-107 0 -163 36q-58 36 -58 132h113q0 -37 23 -52q23 -14 83 -14h8q56 0 77.5 14t21.5 54q0 18 -5.5 29.5t-11.5 18t-21.5 9t-25.5 3t-32 0.5h-13q-40 0 -63 1.5t-53 10.5t-52 26q-50 39 -50 122 q0 89 60 115q-61 29 -61 121q0 48 17.5 81t50.5 49.5t67.5 23t79.5 6.5h6q107 0 163 -36q58 -36 58 -132h-113q0 37 -23 52q-23 14 -83 14h-8q-56 0 -77.5 -14t-21.5 -54q0 -18 5 -29.5t11 -18t21.5 -9t25 -3t33.5 -0.5h13q40 0 63 -1.5t53 -10.5t52 -26q50 -39 50 -122 q0 -89 -60 -115q61 -29 61 -121zM399 283q0 40 -24 51t-83 11q-35 0 -54 -3t-34.5 -18.5t-15.5 -45.5q0 -40 24 -51t83 -11q35 0 54 3t34.5 18.5t15.5 45.5z" />
<glyph unicode="&#xa8;" horiz-adv-x="436" d="M384 609q0 -59 -59 -59q-58 0 -58 59q0 31 14 44.5t44 13.5q59 0 59 -58zM168 609q0 -59 -59 -59q-58 0 -58 59q0 31 14 44.5t44 13.5q59 0 59 -58z" />
<glyph unicode="&#xa9;" horiz-adv-x="798" d="M734 334q0 -101 -15 -164t-54.5 -104.5t-102.5 -57.5t-164 -16q-102 0 -165 16.5t-101.5 58t-53 104.5t-14.5 165q0 200 67.5 269t266.5 69q102 0 165 -15.5t102 -56t54 -103.5t15 -165zM660 337q0 84 -10 132.5t-40 80.5t-79 42.5t-133 10.5q-86 0 -135 -11t-78 -43.5 t-38 -81t-9 -134.5q0 -84 9.5 -132t38.5 -81t78.5 -45t133.5 -12q67 0 111.5 8.5t75 26.5t46.5 51.5t22.5 77t6.5 110.5zM589 258q0 -83 -47 -115t-142 -32q-119 0 -160.5 50t-41.5 173q0 121 42.5 171.5t159.5 50.5q95 0 142 -32t47 -115h-76q0 48 -25.5 62.5t-87.5 14.5 q-80 0 -102 -32t-22 -120q0 -46 3.5 -70t15.5 -45.5t37 -29.5t68 -8q62 0 87.5 14t25.5 63h76z" />
<glyph unicode="&#xaa;" horiz-adv-x="386" d="M350 336h-67v32q-47 -37 -107 -37q-144 0 -144 106q0 29 9 49.5t22 32t34 18t40 8.5t44 2h94q0 35 -12 46q-18 16 -68 16q-77 0 -77 -36h-75q0 101 158 101q71 0 110 -27t39 -92v-29v-190zM274 482h-95q-39 0 -55.5 -9t-16.5 -36q0 -23 13 -32t55 -9q52 0 75.5 19.5 t23.5 66.5z" />
<glyph unicode="&#xab;" horiz-adv-x="508" d="M472 99l-72 -67q-78 70 -105 105q-40 53 -40 104q0 30 12.5 60t37.5 60t44 49t50 47l73 -68l-39 -39l-13 -14l-16 -14q-3 -4 -12 -14t-12 -16l-8 -14q-5 -9 -6.5 -18t-1.5 -18q0 -7 1 -14t5 -14l6 -14q2 -5 8 -12.5t9.5 -11.5t11.5 -12l11 -12l14 -12l12 -12zM255 99 l-72 -67q-78 70 -105 105q-40 53 -40 104q0 30 12.5 60t37.5 60t44 49t50 47l73 -68l-39 -39l-14 -14l-14 -14q-4 -4 -13 -14t-12 -16l-8 -14q-5 -9 -6.5 -18t-1.5 -18q0 -7 1 -14t4 -14l6 -14q3 -5 9 -12.5t9.5 -11.5t11.5 -12l12 -12l12 -12l13 -12z" />
<glyph unicode="&#xac;" horiz-adv-x="602" d="M569 0h-106v283h-430v102h536v-385z" />
<glyph unicode="&#xad;" horiz-adv-x="540" d="M475 193h-410v102h410v-102z" />
<glyph unicode="&#xae;" horiz-adv-x="518" d="M486 448q0 -72 -10.5 -113t-36.5 -66q-49 -48 -180 -48q-132 0 -181 48q-26 25 -36 66t-10 114t10 114t36 66q46 45 181 45t181 -46t46 -180zM428 450q0 107 -32 137q-33 31 -137 31q-105 0 -138 -31q-31 -29 -31 -140q0 -106 31 -137q33 -33 138 -33q104 0 137 33 q32 32 32 140zM362 318h-54v79q0 19 -4 23.5t-18 5.5h-29h-35v-108h-56v265h94q31 0 46 -2q56 -10 56 -67q0 -43 -28 -59q15 -7 21.5 -19.5t6.5 -45.5v-72zM306 505q0 19 -5 24t-46 5h-35v-58h38q36 0 41 2q7 7 7 27z" />
<glyph unicode="&#xaf;" horiz-adv-x="440" d="M397 569h-355v80h355v-80z" />
<glyph unicode="&#xb0;" horiz-adv-x="511" d="M405 524q0 -80 -36 -117t-113 -37q-78 0 -114 37t-36 117t35.5 115t113.5 35q79 0 114.5 -35t35.5 -115zM331 522q0 45 -15.5 62.5t-60.5 17.5q-44 0 -59.5 -17.5t-15.5 -62.5t15.5 -62.5t59.5 -17.5q45 0 60.5 17.5t15.5 62.5z" />
<glyph unicode="&#xb1;" horiz-adv-x="602" d="M569 219h-220v-167h-99v167h-217v102h218v167h98v-167h220v-102zM569 -102h-536v102h536v-102z" />
<glyph unicode="&#xb2;" horiz-adv-x="425" d="M328 549q0 -66 -44 -96q-23 -16 -81.5 -31t-69.5 -24q-12 -10 -12 -40v-23h206v-68h-283v100q0 20 4.5 36.5t14.5 28t19 19.5t27 15t28 10.5t32.5 9.5t31.5 8q32 9 41.5 19t9.5 36q0 32 -13 43.5t-53 11.5q-38 0 -52.5 -8t-14.5 -33h-76q0 61 38 84.5t104 23.5 q71 0 107 -28t36 -94z" />
<glyph unicode="&#xb3;" horiz-adv-x="425" d="M334 388q0 -59 -33 -91q-35 -32 -115 -32q-67 0 -105 24t-38 87h75q0 -25 15 -34.5t53 -9.5q45 0 58.5 10.5t13.5 44.5q0 37 -13 47t-57 10h-82v66h82q40 0 53 8t13 38q0 28 -12 39t-54 11q-39 0 -53.5 -9t-14.5 -34h-74q0 62 37.5 86.5t104.5 24.5q72 0 107 -27t35 -89 q0 -58 -27 -81q31 -24 31 -89z" />
<glyph unicode="&#xb4;" horiz-adv-x="436" d="M350 667l-138 -127h-126l138 127h126z" />
<glyph unicode="&#xb5;" horiz-adv-x="554" d="M491 0h-102v37q-50 -45 -132 -45q-57 0 -85 18v-201h-109v679h113v-257v-27v-24q0 -4 0.5 -19t2.5 -18.5t5 -14t7.5 -13t11 -8.5t15.5 -7.5t20.5 -3t26.5 -1.5q33 0 55.5 9t34 20t17 35t6 38.5t0.5 47.5v16v227h113v-488z" />
<glyph unicode="&#xb6;" horiz-adv-x="621" d="M534 0h-100v566h-60v-566h-100v279h-6q-117 0 -176 39q-59 40 -59 154q0 102 52 147.5t159 47.5h63h227v-667zM274 379v187q-78 0 -103 -15t-25 -76q0 -21 3.5 -36t7.5 -25.5t14.5 -17t17.5 -10t24.5 -5.5t26.5 -2h34z" />
<glyph unicode="&#xb7;" horiz-adv-x="242" d="M190 337q0 -71 -69 -71t-69 71q0 69 69 69t69 -69z" />
<glyph unicode="&#xb8;" horiz-adv-x="440" d="M303 -110q0 -83 -88 -83t-88 74h54q0 -15 7.5 -19.5t26.5 -4.5q20 0 25.5 7t5.5 24q0 29 -36 31h-29v81h57v-38q65 -4 65 -72z" />
<glyph unicode="&#xb9;" horiz-adv-x="406" d="M316 267h-255v69h88v223l-47 -40l-52 48l116 100h60v-331h90v-69z" />
<glyph unicode="&#xba;" horiz-adv-x="386" d="M356 503q0 -96 -38 -133q-39 -38 -125 -38q-87 0 -126 38q-22 21 -29.5 51t-7.5 82t7.5 82t29.5 51q39 38 126 38q86 0 125 -38q38 -37 38 -133zM280 503q0 61 -14 82t-73 21t-73 -21t-14 -82t14 -82t73 -21t73 21t14 82z" />
<glyph unicode="&#xbb;" horiz-adv-x="508" d="M470 241q0 -24 -11 -50.5t-21 -43t-37 -44t-35.5 -35.5t-40.5 -36l-72 67l30 29l13 12l12 12l12 12q8 8 11.5 12t9.5 11.5t9 12.5l6 14q3 7 4 14t1 14q0 9 -1.5 18t-6.5 18l-8 14q-3 6 -12 16t-13 14l-14 14l-14 14l-39 39l73 68q31 -28 50 -47t44 -49t37.5 -60t12.5 -60 zM253 241q0 -24 -11 -50.5t-21 -43t-37 -44t-35.5 -35.5t-40.5 -36l-72 67l30 29l12 12l14 12l11 12q8 8 11.5 12t9.5 11.5t8 12.5l6 14q4 7 5 14t1 14q0 9 -1.5 18t-6.5 18l-8 14q-3 6 -12 16t-12 14l-16 14l-13 14l-39 39l73 68q31 -28 50 -47t44 -49t37.5 -60t12.5 -60z " />
<glyph unicode="&#xbc;" horiz-adv-x="823" d="M756 101h-60v-101h-73v101h-190v64l190 246h73v-244h60v-66zM660 667l-377 -667h-85l376 667h86zM316 267h-255v69h88v223l-47 -40l-52 48l116 100h60v-331h90v-69zM623 167v140l-105 -140h105z" />
<glyph unicode="&#xbd;" horiz-adv-x="818" d="M787 282q0 -66 -44 -96q-23 -16 -81.5 -31t-69.5 -24q-12 -10 -12 -40v-23h206v-68h-283v100q0 20 4.5 36.5t14.5 28t19 19.5t27 15t28 10.5t32.5 9.5t31.5 8q32 9 41.5 19t9.5 36q0 32 -13 43.5t-53 11.5q-38 0 -52.5 -8t-14.5 -33h-76q0 61 38 84.5t104 23.5 q71 0 107 -28t36 -94zM660 667l-377 -667h-85l376 667h86zM316 267h-255v69h88v223l-47 -40l-52 48l116 100h60v-331h90v-69z" />
<glyph unicode="&#xbe;" horiz-adv-x="802" d="M746 101h-60v-101h-73v101h-190v64l190 246h73v-244h60v-66zM654 667l-377 -667h-85l376 667h86zM331 388q0 -59 -33 -91q-35 -32 -115 -32q-67 0 -105 24t-38 87h75q0 -25 15 -34.5t53 -9.5q45 0 58.5 10.5t13.5 44.5q0 37 -13 47t-57 10h-82v66h82q40 0 53 8t13 38 q0 28 -12 39t-54 11q-39 0 -53.5 -9t-14.5 -34h-74q0 62 37.5 86.5t104.5 24.5q72 0 107 -27t35 -89q0 -58 -27 -81q31 -24 31 -89zM613 167v140l-105 -140h105z" />
<glyph unicode="&#xbf;" horiz-adv-x="464" d="M319 425q0 -69 -69 -69t-69 69q0 71 69 71t69 -71zM446 -18q0 -110 -54 -153.5t-157 -43.5q-108 0 -161 44.5t-53 153.5q0 117 84 166q16 9 36 19t27 14t15 13.5t9.5 22.5t1.5 38v42h114v-58q0 -94 -48 -135q-19 -17 -55.5 -31.5t-54 -33t-17.5 -57.5q0 -53 20 -75.5 t80 -22.5t81.5 22.5t21.5 74.5h110z" />
<glyph unicode="&#xc0;" horiz-adv-x="651" d="M643 0h-129l-62 170h-260l-61 -170h-123l258 667h121zM416 272l-93 264l-94 -264h187zM445 736h-124l-137 126h124z" />
<glyph unicode="&#xc1;" horiz-adv-x="651" d="M643 0h-129l-62 170h-260l-61 -170h-123l258 667h121zM416 272l-93 264l-94 -264h187zM472 862l-138 -127h-126l138 127h126z" />
<glyph unicode="&#xc2;" horiz-adv-x="651" d="M643 0h-129l-62 170h-260l-61 -170h-123l258 667h121zM416 272l-93 264l-94 -264h187zM511 735h-113l-71 69l-69 -69h-115l129 127h110z" />
<glyph unicode="&#xc3;" horiz-adv-x="651" d="M643 0h-129l-62 170h-260l-61 -170h-123l258 667h121zM416 272l-93 264l-94 -264h187zM531 789l-77 -39q-35 -18 -67 -18q-35 0 -66 20q-6 3 -16.5 10.5t-14.5 9.5t-12.5 5t-15.5 2t-18.5 -4.5t-25.5 -10.5l-58 -29l-39 71l32 16q26 14 36 18.5t33 12.5t37.5 8t34.5 -4 t38 -15q4 -3 14.5 -9.5t13.5 -8t11.5 -5t14 -3t14.5 1t19 4.5t23 11l53 27z" />
<glyph unicode="&#xc4;" horiz-adv-x="651" d="M643 0h-129l-62 170h-260l-61 -170h-123l258 667h121zM416 272l-93 264l-94 -264h187zM492 804q0 -59 -59 -59q-58 0 -58 59q0 31 14 44.5t44 13.5q59 0 59 -58zM276 804q0 -59 -59 -59q-58 0 -58 59q0 31 14 44.5t44 13.5q59 0 59 -58z" />
<glyph unicode="&#xc5;" horiz-adv-x="651" d="M643 0h-129l-62 170h-260l-61 -170h-123l244 634q-48 22 -48 105q0 61 27.5 84.5t93.5 23.5t93.5 -23.5t27.5 -84.5q0 -84 -48 -106zM380 732q0 33 -11 44.5t-44 11.5q-34 0 -44 -11t-10 -45q0 -33 10 -42.5t45 -9.5q33 0 43.5 10t10.5 42zM416 272l-94 264l-93 -264h187 z" />
<glyph unicode="&#xc6;" horiz-adv-x="950" d="M890 0h-419v165h-224l-108 -165h-137l446 667h442v-105h-303v-169h293v-104h-293v-183h303v-106zM471 269v239l-155 -239h155z" />
<glyph unicode="&#xc7;" horiz-adv-x="656" d="M596 480h-116q0 51 -29 69t-114 18q-99 0 -127 -44t-28 -190t27.5 -189.5t126.5 -43.5q86 0 114.5 17.5t28.5 68.5h116q0 -102 -57 -145.5t-167 -47.5v-31q65 -4 65 -72q0 -83 -88 -83t-88 74h54q0 -15 7.5 -19.5t26.5 -4.5q20 0 25.5 7t5.5 24q0 29 -36 31h-29v74 q-169 8 -219 108q-30 60 -31 200v33q0 36 0.5 56.5t2 52t5.5 49.5t11 43.5t17.5 40.5t25.5 33t36 28t47.5 19.5t61 13.5t75.5 4q123 0 186.5 -43.5t63.5 -150.5z" />
<glyph unicode="&#xc8;" horiz-adv-x="595" d="M535 0h-459v667h459v-105h-343v-169h333v-104h-333v-183h343v-106zM411 736h-124l-137 126h124z" />
<glyph unicode="&#xc9;" horiz-adv-x="595" d="M535 0h-459v667h459v-105h-343v-169h333v-104h-333v-183h343v-106zM440 862l-138 -127h-126l138 127h126z" />
<glyph unicode="&#xca;" horiz-adv-x="595" d="M535 0h-459v667h459v-105h-343v-169h333v-104h-333v-183h343v-106zM486 735h-113l-71 69l-69 -69h-115l129 127h110z" />
<glyph unicode="&#xcb;" horiz-adv-x="595" d="M535 0h-459v667h459v-105h-343v-169h333v-104h-333v-183h343v-106zM469 804q0 -59 -59 -59q-58 0 -58 59q0 31 14 44.5t44 13.5q59 0 59 -58zM253 804q0 -59 -59 -59q-58 0 -58 59q0 31 14 44.5t44 13.5q59 0 59 -58z" />
<glyph unicode="&#xcc;" horiz-adv-x="270" d="M194 0h-118v667h118v-667zM264 736h-124l-137 126h124z" />
<glyph unicode="&#xcd;" horiz-adv-x="270" d="M194 0h-118v667h118v-667zM271 862l-138 -127h-126l138 127h126z" />
<glyph unicode="&#xce;" horiz-adv-x="270" d="M194 0h-118v667h118v-667zM319 735h-113l-71 69l-69 -69h-115l129 127h110z" />
<glyph unicode="&#xcf;" horiz-adv-x="270" d="M194 0h-118v667h118v-667zM302 804q0 -59 -59 -59q-58 0 -58 59q0 31 14 44.5t44 13.5q59 0 59 -58zM86 804q0 -59 -59 -59q-58 0 -58 59q0 31 14 44.5t44 13.5q59 0 59 -58z" />
<glyph unicode="&#xd0;" horiz-adv-x="687" d="M623 333q0 -101 -8.5 -153t-34.5 -90q-35 -51 -91 -70.5t-153 -19.5h-248v283h-70v106h70v278h247q97 0 153 -19.5t91 -71.5q26 -38 35 -90.5t9 -152.5zM505 333q0 56 -3 93.5t-13 63.5t-21 40t-34.5 21.5t-44.5 9t-60 1.5h-125v-173h179v-106h-179v-177h126 q40 0 60.5 1.5t44 8.5t34 21t20.5 39.5t13 63t3 93.5z" />
<glyph unicode="&#xd1;" horiz-adv-x="660" d="M584 0h-121l-277 479v-479h-110v667h120l278 -475v475h110v-667zM535 789l-77 -39q-35 -18 -67 -18q-35 0 -66 20q-6 3 -16.5 10.5t-14.5 9.5t-12.5 5t-15.5 2t-18.5 -4.5t-25.5 -10.5l-58 -29l-39 71l32 17q26 13 36 17.5t33 12.5t37.5 8t34.5 -4t38 -15q4 -3 14.5 -9.5 t13.5 -8t11.5 -5t14 -3t14.5 1t19 4.5t23 11l53 27z" />
<glyph unicode="&#xd2;" d="M613 335q0 -53 -1.5 -86t-7.5 -73.5t-17 -64.5t-30.5 -49.5t-49 -39t-71.5 -22t-97 -8.5q-184 0 -240 98q-33 59 -35 198v46q0 53 1 81t6 71t15 65t30 49.5t49 41t72.5 23t100.5 9.5q183 0 239 -94q34 -59 36 -196v-49zM495 334q0 146 -28 189.5t-129 43.5 q-100 0 -128 -43.5t-28 -190.5q0 -146 28 -189.5t128 -43.5t128.5 44t28.5 190zM472 736h-124l-137 126h124z" />
<glyph unicode="&#xd3;" d="M613 335q0 -53 -1.5 -86t-7.5 -73.5t-17 -64.5t-30.5 -49.5t-49 -39t-71.5 -22t-97 -8.5q-184 0 -240 98q-33 59 -35 198v46q0 53 1 81t6 71t15 65t30 49.5t49 41t72.5 23t100.5 9.5q183 0 239 -94q34 -59 36 -196v-49zM495 334q0 146 -28 189.5t-129 43.5 q-100 0 -128 -43.5t-28 -190.5q0 -146 28 -189.5t128 -43.5t128.5 44t28.5 190zM490 862l-138 -127h-126l138 127h126z" />
<glyph unicode="&#xd4;" d="M613 335q0 -53 -1.5 -86t-7.5 -73.5t-17 -64.5t-30.5 -49.5t-49 -39t-71.5 -22t-97 -8.5q-184 0 -240 98q-33 59 -35 198v46q0 53 1 81t6 71t15 65t30 49.5t49 41t72.5 23t100.5 9.5q183 0 239 -94q34 -59 36 -196v-49zM495 334q0 146 -28 189.5t-129 43.5 q-100 0 -128 -43.5t-28 -190.5q0 -146 28 -189.5t128 -43.5t128.5 44t28.5 190zM522 735h-113l-71 69l-69 -69h-115l129 127h110z" />
<glyph unicode="&#xd5;" d="M613 335q0 -53 -1.5 -86t-7.5 -73.5t-17 -64.5t-30.5 -49.5t-49 -39t-71.5 -22t-97 -8.5q-184 0 -240 98q-33 59 -35 198v46q0 53 1 81t6 71t15 65t30 49.5t49 41t72.5 23t100.5 9.5q183 0 239 -94q34 -59 36 -196v-49zM495 334q0 146 -28 189.5t-129 43.5 q-100 0 -128 -43.5t-28 -190.5q0 -146 28 -189.5t128 -43.5t128.5 44t28.5 190zM542 789l-77 -39q-35 -18 -67 -18q-35 0 -66 20q-6 3 -16.5 10.5t-14.5 9.5t-12.5 5t-15.5 2t-18.5 -4.5t-25.5 -10.5l-58 -29l-39 71l32 17q26 13 36 17.5t33 12.5t37.5 8t34.5 -4t38 -15 q4 -3 14.5 -9.5t13.5 -8t11.5 -5t14 -3t14.5 1t19 4.5t23 11l53 27z" />
<glyph unicode="&#xd6;" d="M613 335q0 -53 -1.5 -86t-7.5 -73.5t-17 -64.5t-30.5 -49.5t-49 -39t-71.5 -22t-97 -8.5q-184 0 -240 98q-33 59 -35 198v46q0 53 1 81t6 71t15 65t30 49.5t49 41t72.5 23t100.5 9.5q183 0 239 -94q34 -59 36 -196v-49zM495 334q0 146 -28 189.5t-129 43.5 q-100 0 -128 -43.5t-28 -190.5q0 -146 28 -189.5t128 -43.5t128.5 44t28.5 190zM511 804q0 -59 -59 -59q-58 0 -58 59q0 31 14 44.5t44 13.5q59 0 59 -58zM295 804q0 -59 -59 -59q-58 0 -58 59q0 31 14 44.5t44 13.5q59 0 59 -58z" />
<glyph unicode="&#xd7;" horiz-adv-x="595" d="M536 84l-70 -70l-169 169l-168 -169l-70 70l169 168l-169 169l70 70l168 -169l169 169l70 -70l-169 -169z" />
<glyph unicode="&#xd8;" d="M613 333q0 -46 -1.5 -76t-6 -66.5t-12.5 -59.5t-21.5 -48t-34 -40t-48.5 -28t-66.5 -18t-86.5 -5q-17 0 -30 1l-33 -138l-95 22l31 131q-31 9 -54 24t-38.5 31t-26 43t-16 47.5t-8 57t-2.5 59.5v66q1 145 19 201q31 98 138 125q46 12 110 12h10q25 0 28 -1l32 136l95 -24 l-30 -126q27 -8 48.5 -19.5t37 -26.5t26.5 -33.5t17.5 -39.5t10.5 -45t5 -49.5l2 -53.5q0 -15 0.5 -29.5t-0.5 -29.5zM495 333v19q0 130 -26 170q-28 44 -129 45q-53 0 -82 -8.5t-47 -36.5t-23 -69.5t-6 -118.5v-19q0 -130 26 -171q27 -43 128 -44q53 0 82.5 8.5t47 36.5 t23 69.5t6.5 118.5z" />
<glyph unicode="&#xd9;" horiz-adv-x="652" d="M580 335q0 -109 -2 -140q-11 -203 -252 -203t-252 203q-2 31 -2 140v332h118v-332q0 -129 6 -159q12 -54 60 -68q26 -8 70 -8q30 0 51 3.5t36 10.5t24.5 18t15 26.5t7.5 36t2 45.5q1 9 1 18q0 18 -1 38v39v332h118v-332zM446 736h-124l-137 126h124z" />
<glyph unicode="&#xda;" horiz-adv-x="652" d="M580 335q0 -109 -2 -140q-11 -203 -252 -203t-252 203q-2 31 -2 140v332h118v-332q0 -129 6 -159q12 -54 60 -68q26 -8 70 -8q30 0 51 3.5t36 10.5t24.5 18t15 26.5t7.5 36t2 45.5q1 9 1 18q0 18 -1 38v39v332h118v-332zM477 862l-138 -127h-126l138 127h126z" />
<glyph unicode="&#xdb;" horiz-adv-x="652" d="M580 335q0 -109 -2 -140q-11 -203 -252 -203t-252 203q-2 31 -2 140v332h118v-332q0 -129 6 -159q12 -54 60 -68q26 -8 70 -8q30 0 51 3.5t36 10.5t24.5 18t15 26.5t7.5 36t2 45.5q1 9 1 18q0 18 -1 38v39v332h118v-332zM515 735h-113l-71 69l-69 -69h-115l129 127h110z " />
<glyph unicode="&#xdc;" horiz-adv-x="652" d="M580 335q0 -109 -2 -140q-11 -203 -252 -203t-252 203q-2 31 -2 140v332h118v-332q0 -129 6 -159q12 -54 60 -68q26 -8 70 -8q30 0 51 3.5t36 10.5t24.5 18t15 26.5t7.5 36t2 45.5q1 9 1 18q0 18 -1 38v39v332h118v-332zM496 804q0 -59 -59 -59q-58 0 -58 59 q0 31 14 44.5t44 13.5q59 0 59 -58zM280 804q0 -59 -59 -59q-58 0 -58 59q0 31 14 44.5t44 13.5q59 0 59 -58z" />
<glyph unicode="&#xdd;" horiz-adv-x="611" d="M609 667l-245 -379v-288h-118v288l-244 379h137l168 -274l167 274h135zM450 862l-138 -127h-126l138 127h126z" />
<glyph unicode="&#xde;" horiz-adv-x="620" d="M585 338q0 -56 -15 -94.5t-37 -59.5t-62 -32t-73.5 -13.5t-87.5 -2.5h-116v-136h-118v667h118v-130h115q34 0 55.5 -0.5t51 -3.5t48 -8.5t40 -15t34.5 -24.5t24.5 -35t17 -48.5t5.5 -63.5zM467 336q0 68 -42 87q-23 9 -118 9h-113v-190h114q96 0 117 9q42 19 42 85z" />
<glyph unicode="&#xdf;" horiz-adv-x="570" d="M512 195q0 -51 -13.5 -88t-33.5 -57.5t-52.5 -32t-62 -15t-69.5 -3.5h-47v102h49q70 0 93 20t23 80q0 69 -23.5 89t-100.5 20h-41v102h41q31 0 48 2.5t35.5 11t27 29t8.5 53.5q0 56 -20.5 75t-90.5 19q-32 0 -53 -7t-32 -15.5t-16.5 -28.5t-6 -33t-0.5 -42v-476h-113v473 v18v19q0 3 0.5 18.5t1.5 19.5t2.5 17t4 18.5t6 16.5t7.5 17.5t10.5 15t13.5 15.5q57 56 175 56q113 0 167.5 -43.5t54.5 -143.5q0 -127 -69 -154q76 -30 76 -168z" />
<glyph unicode="&#xe0;" horiz-adv-x="541" d="M485 0h-101v40q-55 -48 -152 -48q-93 0 -141.5 35.5t-48.5 120.5q0 41 12 71t30.5 46.5t48 26t55.5 12t62 2.5h125q0 55 -17 74.5t-86 19.5q-22 0 -36 -1.5t-32.5 -6t-28 -16.5t-9.5 -30h-110q0 45 18 76t51.5 46.5t69.5 21.5t83 6q207 0 207 -178v-318zM377 214h-131 q-53 0 -72 -13t-19 -51q0 -34 20 -49.5t75 -15.5q81 0 104 29t23 100zM395 541h-124l-137 126h124z" />
<glyph unicode="&#xe1;" horiz-adv-x="541" d="M485 0h-101v40q-55 -48 -152 -48q-93 0 -141.5 35.5t-48.5 120.5q0 41 12 71t30.5 46.5t48 26t55.5 12t62 2.5h125q0 55 -17 74.5t-86 19.5q-22 0 -36 -1.5t-32.5 -6t-28 -16.5t-9.5 -30h-110q0 45 18 76t51.5 46.5t69.5 21.5t83 6q207 0 207 -178v-318zM377 214h-131 q-53 0 -72 -13t-19 -51q0 -34 20 -49.5t75 -15.5q81 0 104 29t23 100zM430 667l-138 -127h-126l138 127h126z" />
<glyph unicode="&#xe2;" horiz-adv-x="541" d="M485 0h-101v40q-55 -48 -152 -48q-93 0 -141.5 35.5t-48.5 120.5q0 41 12 71t30.5 46.5t48 26t55.5 12t62 2.5h125q0 55 -17 74.5t-86 19.5q-22 0 -36 -1.5t-32.5 -6t-28 -16.5t-9.5 -30h-110q0 45 18 76t51.5 46.5t69.5 21.5t83 6q207 0 207 -178v-318zM377 214h-131 q-53 0 -72 -13t-19 -51q0 -34 20 -49.5t75 -15.5q81 0 104 29t23 100zM461 540h-113l-71 69l-69 -69h-115l129 127h110z" />
<glyph unicode="&#xe3;" horiz-adv-x="541" d="M485 0h-101v40q-55 -48 -152 -48q-93 0 -141.5 35.5t-48.5 120.5q0 41 12 71t30.5 46.5t48 26t55.5 12t62 2.5h125q0 55 -17 74.5t-86 19.5q-22 0 -36 -1.5t-32.5 -6t-28 -16.5t-9.5 -30h-110q0 45 18 76t51.5 46.5t69.5 21.5t83 6q207 0 207 -178v-318zM377 214h-131 q-53 0 -72 -13t-19 -51q0 -34 20 -49.5t75 -15.5q81 0 104 29t23 100zM482 596l-77 -39q-35 -18 -67 -18q-35 0 -66 20q-6 3 -16.5 10.5t-14.5 9.5t-12.5 5t-15.5 2t-18.5 -4.5t-25.5 -10.5l-58 -29l-39 71l32 17q26 13 36 17.5t33 12.5t37.5 8t34.5 -4t38 -15 q4 -3 14.5 -9.5t13.5 -8t11.5 -5t14 -3t14.5 1t19 4.5t23 11l53 27z" />
<glyph unicode="&#xe4;" horiz-adv-x="541" d="M485 0h-101v40q-55 -48 -152 -48q-93 0 -141.5 35.5t-48.5 120.5q0 41 12 71t30.5 46.5t48 26t55.5 12t62 2.5h125q0 55 -17 74.5t-86 19.5q-22 0 -36 -1.5t-32.5 -6t-28 -16.5t-9.5 -30h-110q0 45 18 76t51.5 46.5t69.5 21.5t83 6q207 0 207 -178v-318zM377 214h-131 q-53 0 -72 -13t-19 -51q0 -34 20 -49.5t75 -15.5q81 0 104 29t23 100zM443 609q0 -59 -59 -59q-58 0 -58 59q0 31 14 44.5t44 13.5q59 0 59 -58zM227 609q0 -59 -59 -59q-58 0 -58 59q0 31 14 44.5t44 13.5q59 0 59 -58z" />
<glyph unicode="&#xe5;" horiz-adv-x="541" d="M485 0h-101v40q-55 -48 -152 -48q-93 0 -141.5 35.5t-48.5 120.5q0 41 12 71t30.5 46.5t48 26t55.5 12t62 2.5h125q0 55 -17 74.5t-86 19.5q-22 0 -36 -1.5t-32.5 -6t-28 -16.5t-9.5 -30h-110q0 111 113 139q-16 20 -16 74q0 60 28 84t94 24t94 -24t28 -84q0 -54 -16 -74 q104 -35 104 -167v-318zM330 549q0 34 -11 46.5t-44 12.5t-43.5 -12.5t-10.5 -46.5q0 -33 10.5 -44t44.5 -11q33 0 43.5 11t10.5 44zM377 214h-131q-53 0 -72 -13t-19 -51q0 -34 20 -49.5t75 -15.5q81 0 104 29t23 100z" />
<glyph unicode="&#xe6;" horiz-adv-x="870" d="M821 206h-335q0 -66 24 -93.5t94 -27.5q104 0 105 61h106q0 -154 -214 -154q-120 0 -171 57q-55 -57 -194 -57q-94 0 -144 34.5t-50 118.5q0 41 12.5 70.5t31.5 45.5t49 25t56 11t62 2h126q0 59 -19.5 80t-86.5 21q-22 0 -36.5 -1.5t-33 -6t-28 -16.5t-9.5 -30h-110 q0 150 212 150q127 0 175 -54q51 54 155 54q60 0 101.5 -14t65 -36t36.5 -62t16.5 -78.5t3.5 -99.5zM709 298q0 57 -22.5 81.5t-88.5 24.5q-63 0 -86.5 -26.5t-23.5 -79.5h221zM380 206h-132q-54 0 -73.5 -11.5t-19.5 -48.5q0 -33 21 -47t76 -14q44 0 69 5.5t38 22t16.5 36 t4.5 57.5z" />
<glyph unicode="&#xe7;" horiz-adv-x="528" d="M481 146q0 -143 -177 -153v-31q65 -4 65 -72q0 -83 -88 -83t-88 74h54q0 -15 7.5 -19.5t26.5 -4.5q20 0 25.5 7t5.5 24q0 29 -36 31h-29v74q-52 2 -89 17t-58 37t-32.5 57t-15 66.5t-3.5 75.5q0 47 3.5 79.5t17 67.5t37 55.5t65.5 34t101 13.5q208 0 208 -154h-107 q0 25 -18.5 38t-34.5 14.5t-45 1.5q-73 0 -93.5 -31.5t-20.5 -120.5t20.5 -120.5t93.5 -31.5q21 0 33 1t29.5 5.5t26.5 16.5t9 31h107z" />
<glyph unicode="&#xe8;" horiz-adv-x="545" d="M496 201h-334q0 -65 24 -90.5t94 -25.5q103 0 104 61h106q0 -154 -214 -154q-71 0 -117.5 17.5t-69.5 53t-31.5 76t-8.5 99.5q0 48 4.5 83t18 70t37.5 56.5t65.5 35t98.5 13.5q45 0 79.5 -8t58 -20.5t39.5 -35t25 -43.5t14 -55.5t6 -62t1 -70.5zM384 293q0 61 -19.5 85.5 t-91.5 24.5q-68 0 -88.5 -26.5t-20.5 -83.5h220zM395 541h-124l-137 126h124z" />
<glyph unicode="&#xe9;" horiz-adv-x="545" d="M496 201h-334q0 -65 24 -90.5t94 -25.5q103 0 104 61h106q0 -154 -214 -154q-71 0 -117.5 17.5t-69.5 53t-31.5 76t-8.5 99.5q0 48 4.5 83t18 70t37.5 56.5t65.5 35t98.5 13.5q45 0 79.5 -8t58 -20.5t39.5 -35t25 -43.5t14 -55.5t6 -62t1 -70.5zM384 293q0 61 -19.5 85.5 t-91.5 24.5q-68 0 -88.5 -26.5t-20.5 -83.5h220zM419 667l-138 -127h-126l138 127h126z" />
<glyph unicode="&#xea;" horiz-adv-x="545" d="M496 201h-334q0 -65 24 -90.5t94 -25.5q103 0 104 61h106q0 -154 -214 -154q-71 0 -117.5 17.5t-69.5 53t-31.5 76t-8.5 99.5q0 48 4.5 83t18 70t37.5 56.5t65.5 35t98.5 13.5q45 0 79.5 -8t58 -20.5t39.5 -35t25 -43.5t14 -55.5t6 -62t1 -70.5zM384 293q0 61 -19.5 85.5 t-91.5 24.5q-68 0 -88.5 -26.5t-20.5 -83.5h220zM460 540h-113l-71 69l-69 -69h-115l129 127h110z" />
<glyph unicode="&#xeb;" horiz-adv-x="545" d="M496 201h-334q0 -65 24 -90.5t94 -25.5q103 0 104 61h106q0 -154 -214 -154q-71 0 -117.5 17.5t-69.5 53t-31.5 76t-8.5 99.5q0 48 4.5 83t18 70t37.5 56.5t65.5 35t98.5 13.5q45 0 79.5 -8t58 -20.5t39.5 -35t25 -43.5t14 -55.5t6 -62t1 -70.5zM384 293q0 61 -19.5 85.5 t-91.5 24.5q-68 0 -88.5 -26.5t-20.5 -83.5h220zM442 609q0 -59 -59 -59q-58 0 -58 59q0 31 14 44.5t44 13.5q59 0 59 -58zM226 609q0 -59 -59 -59q-58 0 -58 59q0 31 14 44.5t44 13.5q59 0 59 -58z" />
<glyph unicode="&#xec;" horiz-adv-x="239" d="M176 0h-113v488h113v-488zM243 541h-124l-137 126h124z" />
<glyph unicode="&#xed;" horiz-adv-x="239" d="M176 0h-113v488h113v-488zM267 667l-138 -127h-126l138 127h126z" />
<glyph unicode="&#xee;" horiz-adv-x="239" d="M176 0h-113v488h113v-488zM304 540h-113l-71 69l-69 -69h-115l129 127h110z" />
<glyph unicode="&#xef;" horiz-adv-x="239" d="M176 0h-113v488h113v-488zM286 609q0 -59 -59 -59q-58 0 -58 59q0 31 14 44.5t44 13.5q59 0 59 -58zM70 609q0 -59 -59 -59q-58 0 -58 59q0 31 14 44.5t44 13.5q59 0 59 -58z" />
<glyph unicode="&#xf0;" horiz-adv-x="559" d="M510 243q0 -77 -10.5 -120.5t-41.5 -73.5q-57 -57 -179 -57q-123 0 -180 57q-30 29 -39.5 72.5t-10.5 122.5q0 43 3 73t15.5 64.5t36 55.5t66 35t103.5 14l-88 88l-55 -46l-55 57l54 46l-42 43l74 65l46 -44l51 45l57 -57l-50 -43q26 -28 65 -66l62 -60q21 -22 47 -54.5 t39 -61t22.5 -68.5t9.5 -87zM397 243q0 90 -28 119t-102 29q-68 0 -87.5 -32.5t-19.5 -115.5q0 -33 1 -50.5t4.5 -37.5t11 -29t21 -18t33 -11.5t48.5 -2.5t48.5 3t33 11.5t20.5 17.5t10.5 29t4.5 37.5t1 50.5z" />
<glyph unicode="&#xf1;" horiz-adv-x="547" d="M491 0h-113v257v26v25q0 5 -0.5 20t-2.5 19t-5 14.5t-7.5 13t-11 9t-15.5 7.5t-20.5 3t-26.5 2q-24 0 -42.5 -5t-30 -11t-20 -20t-12.5 -22.5t-6 -29.5t-2 -30v-35v-16v-227h-113v488h98v-39q53 47 141 47q40 0 70.5 -7.5t50 -17t33.5 -29.5t20.5 -34.5t10 -42t4 -42.5 t0.5 -45v-12v-266zM481 596l-77 -39q-35 -18 -67 -18q-35 0 -66 20q-6 3 -16.5 10.5t-14.5 9.5t-12.5 5t-15.5 2t-18.5 -4.5t-25.5 -10.5l-58 -29l-39 71l32 17q26 13 36 17.5t33 12.5t37.5 8t34.5 -4t38 -15q4 -3 14.5 -9.5t13.5 -8t11.5 -5t14 -3t14.5 1t19 4.5t23 11 l53 27z" />
<glyph unicode="&#xf2;" horiz-adv-x="562" d="M513 244q0 -76 -11 -122t-41 -75q-56 -55 -180 -55t-180 55q-30 29 -41 75t-11 122t11 122t41 75q56 55 180 55t180 -55q30 -29 41 -75t11 -122zM400 244q0 89 -21 120.5t-98 31.5t-98 -31.5t-21 -120.5t21 -120.5t98 -31.5t98 31.5t21 120.5zM424 541h-124l-137 126h124 z" />
<glyph unicode="&#xf3;" horiz-adv-x="562" d="M513 244q0 -76 -11 -122t-41 -75q-56 -55 -180 -55t-180 55q-30 29 -41 75t-11 122t11 122t41 75q56 55 180 55t180 -55q30 -29 41 -75t11 -122zM400 244q0 89 -21 120.5t-98 31.5t-98 -31.5t-21 -120.5t21 -120.5t98 -31.5t98 31.5t21 120.5zM442 667l-138 -127h-126 l138 127h126z" />
<glyph unicode="&#xf4;" horiz-adv-x="562" d="M513 244q0 -76 -11 -122t-41 -75q-56 -55 -180 -55t-180 55q-30 29 -41 75t-11 122t11 122t41 75q56 55 180 55t180 -55q30 -29 41 -75t11 -122zM400 244q0 89 -21 120.5t-98 31.5t-98 -31.5t-21 -120.5t21 -120.5t98 -31.5t98 31.5t21 120.5zM469 540h-113l-71 69 l-69 -69h-115l129 127h110z" />
<glyph unicode="&#xf5;" horiz-adv-x="562" d="M513 244q0 -76 -11 -122t-41 -75q-56 -55 -180 -55t-180 55q-30 29 -41 75t-11 122t11 122t41 75q56 55 180 55t180 -55q30 -29 41 -75t11 -122zM400 244q0 89 -21 120.5t-98 31.5t-98 -31.5t-21 -120.5t21 -120.5t98 -31.5t98 31.5t21 120.5zM490 596l-77 -39 q-35 -18 -67 -18q-35 0 -66 20q-6 3 -16.5 10.5t-14.5 9.5t-12.5 5t-15.5 2t-18.5 -4.5t-25.5 -10.5l-58 -29l-39 71l32 17q26 13 36 17.5t33 12.5t37.5 8t34.5 -4t38 -15q4 -3 14.5 -9.5t13.5 -8t11.5 -5t14 -3t14.5 1t19 4.5t23 11l53 27z" />
<glyph unicode="&#xf6;" horiz-adv-x="562" d="M513 244q0 -76 -11 -122t-41 -75q-56 -55 -180 -55t-180 55q-30 29 -41 75t-11 122t11 122t41 75q56 55 180 55t180 -55q30 -29 41 -75t11 -122zM400 244q0 89 -21 120.5t-98 31.5t-98 -31.5t-21 -120.5t21 -120.5t98 -31.5t98 31.5t21 120.5zM453 609q0 -59 -59 -59 q-58 0 -58 59q0 31 14 44.5t44 13.5q59 0 59 -58zM237 609q0 -59 -59 -59q-58 0 -58 59q0 31 14 44.5t44 13.5q59 0 59 -58z" />
<glyph unicode="&#xf7;" horiz-adv-x="612" d="M380 427q0 -71 -69 -71t-69 71q0 69 69 69t69 -69zM574 193h-536v102h536v-102zM380 63q0 -71 -69 -71t-69 71q0 69 69 69t69 -69z" />
<glyph unicode="&#xf8;" horiz-adv-x="562" d="M513 242q-1 -76 -12.5 -122t-41.5 -75q-55 -53 -171 -53h-9q-28 0 -40 1l-37 -97l-94 35l35 87q-21 10 -43 31q-31 29 -42 75q-9 42 -9 109v13q1 75 12.5 121t41.5 76q54 53 171 53h9q29 0 41 -1l33 86l93 -34l-30 -79q26 -12 43 -29q31 -31 41 -75q9 -41 9 -108v-14z M400 243v8q0 82 -20 113q-21 31 -98 32q-41 0 -64.5 -7t-36 -27.5t-16 -45.5t-3.5 -71v-8q0 -82 20 -113q21 -31 98 -32q41 0 64.5 7t36 27.5t16 45.5t3.5 71z" />
<glyph unicode="&#xf9;" horiz-adv-x="547" d="M484 0h-98v39q-53 -47 -141 -47q-40 0 -70.5 7.5t-50 17t-33.5 29.5t-20.5 34.5t-10 42t-4 42.5t-0.5 45v12v266h113v-257v-26v-25q0 -5 0.5 -20t2.5 -19t5 -14.5t7.5 -13t11 -9t15.5 -7.5t20.5 -3t26.5 -2q24 0 42.5 5t30 11t20 20t12.5 22.5t6 29.5t2 30v35v16v227h113 v-488zM408 541h-124l-137 126h124z" />
<glyph unicode="&#xfa;" horiz-adv-x="547" d="M484 0h-98v39q-53 -47 -141 -47q-40 0 -70.5 7.5t-50 17t-33.5 29.5t-20.5 34.5t-10 42t-4 42.5t-0.5 45v12v266h113v-257v-26v-25q0 -5 0.5 -20t2.5 -19t5 -14.5t7.5 -13t11 -9t15.5 -7.5t20.5 -3t26.5 -2q24 0 42.5 5t30 11t20 20t12.5 22.5t6 29.5t2 30v35v16v227h113 v-488zM430 667l-138 -127h-126l138 127h126z" />
<glyph unicode="&#xfb;" horiz-adv-x="547" d="M484 0h-98v39q-53 -47 -141 -47q-40 0 -70.5 7.5t-50 17t-33.5 29.5t-20.5 34.5t-10 42t-4 42.5t-0.5 45v12v266h113v-257v-26v-25q0 -5 0.5 -20t2.5 -19t5 -14.5t7.5 -13t11 -9t15.5 -7.5t20.5 -3t26.5 -2q24 0 42.5 5t30 11t20 20t12.5 22.5t6 29.5t2 30v35v16v227h113 v-488zM456 540h-113l-71 69l-69 -69h-115l129 127h110z" />
<glyph unicode="&#xfc;" horiz-adv-x="547" d="M484 0h-98v39q-53 -47 -141 -47q-40 0 -70.5 7.5t-50 17t-33.5 29.5t-20.5 34.5t-10 42t-4 42.5t-0.5 45v12v266h113v-257v-26v-25q0 -5 0.5 -20t2.5 -19t5 -14.5t7.5 -13t11 -9t15.5 -7.5t20.5 -3t26.5 -2q24 0 42.5 5t30 11t20 20t12.5 22.5t6 29.5t2 30v35v16v227h113 v-488zM442 609q0 -59 -59 -59q-58 0 -58 59q0 31 14 44.5t44 13.5q59 0 59 -58zM226 609q0 -59 -59 -59q-58 0 -58 59q0 31 14 44.5t44 13.5q59 0 59 -58z" />
<glyph unicode="&#xfd;" horiz-adv-x="519" d="M502 488l-263 -678h-119l83 202l-186 476h120l125 -351l120 351h120zM417 667l-138 -127h-126l138 127h126z" />
<glyph unicode="&#xfe;" horiz-adv-x="563" d="M514 243q0 -41 -3.5 -72t-16 -66.5t-34.5 -58.5t-61.5 -38.5t-94.5 -15.5q-87 0 -128 43v-226h-113v888h102v-248q54 47 145 47h7q64 -1 104 -17.5t60 -52.5t26.5 -77t6.5 -106zM401 243q0 88 -20.5 120.5t-81.5 32.5q-73 0 -98.5 -31t-25.5 -122t25.5 -121t98.5 -30 q62 0 82 31.5t20 119.5z" />
<glyph unicode="&#xff;" horiz-adv-x="519" d="M502 488l-263 -678h-119l83 202l-186 476h120l125 -351l120 351h120zM419 609q0 -59 -59 -59q-58 0 -58 59q0 31 14 44.5t44 13.5q59 0 59 -58zM203 609q0 -59 -59 -59q-58 0 -58 59q0 31 14 44.5t44 13.5q59 0 59 -58z" />
<glyph unicode="&#x131;" horiz-adv-x="239" d="M176 0h-113v488h113v-488z" />
<glyph unicode="&#x152;" horiz-adv-x="908" d="M848 0h-497q-97 0 -153 19.5t-91 70.5q-26 38 -34.5 90t-8.5 153q0 100 9 152.5t35 90.5q35 52 91 71.5t153 19.5h496v-105h-293v-169h283v-104h-283v-183h293v-106zM439 106v456h-81q-39 0 -60 -1.5t-44.5 -9t-34.5 -21.5t-21 -40t-13 -63.5t-3 -93.5t3 -93.5t13 -63 t20.5 -39.5t34 -21t44 -8.5t60.5 -1.5h82z" />
<glyph unicode="&#x153;" horiz-adv-x="896" d="M847 201h-334q0 -65 24 -90.5t94 -25.5q103 0 104 61h106q0 -154 -214 -154q-120 0 -171 57q-54 -57 -175 -57q-124 0 -180 55q-30 29 -41 75t-11 122t11 122t41 75q56 55 180 55q121 0 174 -57q51 57 169 57q45 0 79.5 -8t58 -20.5t39.5 -35t25 -43.5t14 -55.5t6 -62 t1 -70.5zM735 293q0 61 -19.5 85.5t-91.5 24.5q-68 0 -88.5 -26.5t-20.5 -83.5h220zM400 244q0 89 -21 120.5t-98 31.5t-98 -31.5t-21 -120.5t21 -120.5t98 -31.5t98 31.5t21 120.5z" />
<glyph unicode="&#x178;" horiz-adv-x="611" d="M609 667l-245 -379v-288h-118v288l-244 379h137l168 -274l167 274h135zM474 804q0 -59 -59 -59q-58 0 -58 59q0 31 14 44.5t44 13.5q59 0 59 -58zM258 804q0 -59 -59 -59q-58 0 -58 59q0 31 14 44.5t44 13.5q59 0 59 -58z" />
<glyph unicode="&#x2c6;" horiz-adv-x="440" d="M404 540h-113l-71 69l-69 -69h-115l129 127h110z" />
<glyph unicode="&#x2dc;" horiz-adv-x="440" d="M425 596l-77 -39q-35 -18 -67 -18q-35 0 -66 20q-6 3 -16.5 10.5t-14.5 9.5t-12.5 5t-15.5 2t-18.5 -4.5t-25.5 -10.5l-58 -29l-39 71l32 17q26 13 36 17.5t33 12.5t37.5 8t34.5 -4t38 -15q4 -3 14.5 -9.5t13.5 -8t11.5 -5t14 -3t14.5 1t19 4.5t23 11l53 27z" />
<glyph unicode="&#x2000;" horiz-adv-x="431" />
<glyph unicode="&#x2001;" horiz-adv-x="862" />
<glyph unicode="&#x2002;" horiz-adv-x="431" />
<glyph unicode="&#x2003;" horiz-adv-x="862" />
<glyph unicode="&#x2004;" horiz-adv-x="287" />
<glyph unicode="&#x2005;" horiz-adv-x="215" />
<glyph unicode="&#x2006;" horiz-adv-x="143" />
<glyph unicode="&#x2007;" horiz-adv-x="143" />
<glyph unicode="&#x2008;" horiz-adv-x="107" />
<glyph unicode="&#x2009;" horiz-adv-x="172" />
<glyph unicode="&#x200a;" horiz-adv-x="47" />
<glyph unicode="&#x2010;" horiz-adv-x="540" d="M475 193h-410v102h410v-102z" />
<glyph unicode="&#x2011;" horiz-adv-x="540" d="M475 193h-410v102h410v-102z" />
<glyph unicode="&#x2013;" horiz-adv-x="602" d="M569 193h-536v102h536v-102z" />
<glyph unicode="&#x2014;" horiz-adv-x="1007" d="M909 193h-811v102h811v-102z" />
<glyph unicode="&#x2018;" horiz-adv-x="241" d="M231 609l-15 -15l-12 -12q-3 -3 -10.5 -11.5t-9 -12t-5.5 -11t-5 -14t-2 -16t-1 -20.5v-106h-105v106q0 46 10 77t38 59l44 43z" />
<glyph unicode="&#x2019;" horiz-adv-x="241" d="M175 561q0 -46 -10 -77t-38 -59l-44 -43l-73 67l14 15l14 12q2 3 9.5 11.5t9 12t5.5 11t5 14t2 16t1 20.5v106h105v-106z" />
<glyph unicode="&#x201a;" horiz-adv-x="246" d="M175 28q0 -46 -10 -77t-38 -59l-44 -43l-73 67l14 14l14 14q2 2 9.5 10.5t9 12t5.5 11t5 14t2 16t1 20.5v106h105v-106z" />
<glyph unicode="&#x201c;" horiz-adv-x="422" d="M412 609l-14 -15l-14 -12q-2 -3 -9.5 -11.5t-9 -12t-5.5 -11t-5 -14t-2 -16t-1 -20.5v-106h-105v106q0 46 10 77t38 59l44 43zM225 609q-35 -35 -44.5 -52.5t-9.5 -59.5v-106h-105v106q0 50 7.5 79.5t34.5 56.5l44 43z" />
<glyph unicode="&#x201d;" horiz-adv-x="422" d="M356 561q0 -50 -7.5 -79.5t-34.5 -56.5l-44 -43l-73 67q35 35 44.5 52.5t9.5 59.5v106h105v-106zM175 561q0 -46 -10 -77t-38 -59l-44 -43l-73 67l14 15l14 12q2 3 9.5 11.5t9 12t5.5 11t5 14t2 16t1 20.5v106h105v-106z" />
<glyph unicode="&#x201e;" horiz-adv-x="427" d="M356 28q0 -50 -7.5 -79.5t-34.5 -56.5l-44 -43l-73 67q35 35 44.5 52.5t9.5 59.5v106h105v-106zM175 28q0 -46 -10 -77t-38 -59l-44 -43l-73 67l14 14l14 14q2 2 9.5 10.5t9 12t5.5 11t5 14t2 16t1 20.5v106h105v-106z" />
<glyph unicode="&#x2022;" horiz-adv-x="493" d="M368 334q0 -64 -28.5 -92.5t-92.5 -28.5t-93 28.5t-29 92.5t29 93t93 29t92.5 -29t28.5 -93z" />
<glyph unicode="&#x2026;" horiz-adv-x="984" d="M889 63q0 -71 -69 -71t-69 71q0 69 69 69t69 -69zM561 63q0 -71 -69 -71t-69 71q0 69 69 69t69 -69zM233 63q0 -71 -69 -71t-69 71q0 69 69 69t69 -69z" />
<glyph unicode="&#x202f;" horiz-adv-x="172" />
<glyph unicode="&#x2039;" horiz-adv-x="291" d="M255 99l-72 -67q-78 70 -105 105q-40 53 -40 104q0 30 12.5 60t37.5 60t44 49t50 47l73 -68l-39 -39l-14 -14l-14 -14q-4 -4 -13 -14t-12 -16l-8 -14q-5 -9 -6.5 -18t-1.5 -18q0 -7 1 -14t4 -14l6 -14q3 -5 9 -12.5t9.5 -11.5t11.5 -12l12 -12l12 -12l13 -12z" />
<glyph unicode="&#x203a;" horiz-adv-x="291" d="M253 241q0 -24 -11 -50.5t-21 -43t-37 -44t-35.5 -35.5t-40.5 -36l-72 67l30 29l12 12l14 12l11 12q8 8 11.5 12t9.5 11.5t8 12.5l6 14q4 7 5 14t1 14q0 9 -1.5 18t-6.5 18l-8 14q-3 6 -12 16t-12 14l-16 14l-13 14l-39 39l73 68q31 -28 50 -47t44 -49t37.5 -60t12.5 -60 z" />
<glyph unicode="&#x205f;" horiz-adv-x="215" />
<glyph unicode="&#x2122;" horiz-adv-x="844" d="M795 233h-75v295l-102 -295h-76l-98 294v-294h-73v435h96l116 -330l117 330h95v-435zM344 596h-124v-363h-80v363h-124v72h328v-72z" />
</font>
</defs>
</svg>
